osu file format v14

[General]
AudioFilename: audio.mp3
AudioLeadIn: 0
PreviewTime: 11664
Countdown: 0
SampleSet: Soft
StackLeniency: 0.7
Mode: 3
LetterboxInBreaks: 0
SpecialStyle: 0
WidescreenStoryboard: 1

[Editor]
DistanceSpacing: 0.6
BeatDivisor: 4
GridSize: 16
TimelineZoom: 1.4

[Metadata]
Title:MENDES
TitleUnicode:MENDES
Artist:Humanoid
ArtistUnicode:Humanoid
Creator:Andrexabc
Version:GBLKpiece Lv.57
Source:beatmania IIDX
Tags:
BeatmapID:1089529
BeatmapSetID:512453

[Difficulty]
HPDrainRate:7
CircleSize:4
OverallDifficulty:6
ApproachRate:5
SliderMultiplier:1.4
SliderTickRate:1

[Events]
//Background and Video events
0,0,"1313997-desktop-wallpaper-1313997-touhou.jpg",0,0
//Break Periods
//Storyboard Layer 0 (Background)
//Storyboard Layer 1 (Fail)
//Storyboard Layer 2 (Pass)
//Storyboard Layer 3 (Foreground)
//Storyboard Sound Samples

[TimingPoints]
325,357.142857142857,4,2,1,50,1,0

[HitObjects]
64,192,325,5,2,0:0:0:0:
320,192,325,1,2,0:0:0:0:
192,192,325,1,2,0:0:0:0:
448,192,414,1,0,0:0:0:0:
320,192,503,1,0,0:0:0:0:
192,192,592,1,0,0:0:0:0:
64,192,682,1,0,0:0:0:0:
448,192,771,1,0,0:0:0:0:
320,192,860,1,0,0:0:0:0:
192,192,949,1,0,0:0:0:0:
320,192,1039,1,0,0:0:0:0:
448,192,1128,1,0,0:0:0:0:
320,192,1217,1,0,0:0:0:0:
192,192,1307,1,0,0:0:0:0:
64,192,1396,1,0,0:0:0:0:
448,192,1485,1,0,0:0:0:0:
320,192,1574,1,0,0:0:0:0:
192,192,1664,1,0,0:0:0:0:
64,192,1753,1,0,0:0:0:0:
448,192,1842,1,0,0:0:0:0:
320,192,1932,1,0,0:0:0:0:
192,192,2021,1,0,0:0:0:0:
320,192,2110,1,0,0:0:0:0:
448,192,2199,1,0,0:0:0:0:
320,192,2289,1,0,0:0:0:0:
192,192,2378,1,0,0:0:0:0:
64,192,2467,1,0,0:0:0:0:
320,192,2557,1,0,0:0:0:0:
448,192,2646,1,0,0:0:0:0:
192,192,2646,1,0,0:0:0:0:
64,192,2735,1,0,0:0:0:0:
192,192,2824,1,0,0:0:0:0:
320,192,2914,1,0,0:0:0:0:
448,192,3003,1,0,0:0:0:0:
320,192,3092,1,0,0:0:0:0:
192,192,3182,1,0,0:0:0:0:
64,192,3271,1,0,0:0:0:0:
192,192,3360,1,0,0:0:0:0:
320,192,3449,1,0,0:0:0:0:
448,192,3539,1,0,0:0:0:0:
64,192,3628,1,0,0:0:0:0:
192,192,3717,1,0,0:0:0:0:
320,192,3807,1,0,0:0:0:0:
448,192,3896,1,0,0:0:0:0:
64,192,3985,1,0,0:0:0:0:
192,192,4074,1,0,0:0:0:0:
320,192,4164,1,0,0:0:0:0:
448,192,4253,1,0,0:0:0:0:
64,192,4342,1,0,0:0:0:0:
192,192,4432,1,0,0:0:0:0:
320,192,4521,1,0,0:0:0:0:
448,192,4610,1,0,0:0:0:0:
64,192,4610,1,0,0:0:0:0:
320,192,4699,1,0,0:0:0:0:
448,192,4789,1,0,0:0:0:0:
320,192,4878,1,0,0:0:0:0:
448,192,4967,1,0,0:0:0:0:
320,192,5057,1,0,0:0:0:0:
448,192,5146,1,0,0:0:0:0:
320,192,5235,1,0,0:0:0:0:
192,192,5324,1,0,0:0:0:0:
64,192,5414,1,0,0:0:0:0:
320,192,5503,1,0,0:0:0:0:
192,192,5503,1,0,0:0:0:0:
448,192,5592,1,0,0:0:0:0:
320,192,5682,1,0,0:0:0:0:
192,192,5682,1,0,0:0:0:0:
64,192,5771,1,0,0:0:0:0:
192,192,5860,1,0,0:0:0:0:
320,192,5860,1,0,0:0:0:0:
448,192,5949,1,0,0:0:0:0:
192,192,6039,1,2,0:0:0:0:
64,192,6039,1,2,0:0:0:0:
320,192,6128,1,0,0:0:0:0:
192,192,6217,1,0,0:0:0:0:
320,192,6307,1,0,0:0:0:0:
448,192,6396,1,0,0:0:0:0:
320,192,6485,1,0,0:0:0:0:
192,192,6574,1,0,0:0:0:0:
64,192,6664,1,0,0:0:0:0:
448,192,6753,1,0,0:0:0:0:
320,192,6842,1,0,0:0:0:0:
192,192,6932,1,0,0:0:0:0:
320,192,7021,1,0,0:0:0:0:
64,192,7021,1,0,0:0:0:0:
448,192,7110,1,0,0:0:0:0:
320,192,7199,1,0,0:0:0:0:
192,192,7289,1,0,0:0:0:0:
64,192,7378,1,0,0:0:0:0:
448,192,7467,1,0,0:0:0:0:
320,192,7557,1,0,0:0:0:0:
192,192,7646,1,0,0:0:0:0:
64,192,7735,1,0,0:0:0:0:
448,192,7824,1,0,0:0:0:0:
320,192,7914,1,0,0:0:0:0:
192,192,8003,1,0,0:0:0:0:
448,192,8092,1,0,0:0:0:0:
64,192,8092,1,0,0:0:0:0:
320,192,8182,1,0,0:0:0:0:
192,192,8271,1,0,0:0:0:0:
320,192,8360,1,0,0:0:0:0:
448,192,8449,1,2,0:0:0:0:
64,192,8449,1,2,0:0:0:0:
320,192,8539,1,0,0:0:0:0:
192,192,8628,1,0,0:0:0:0:
64,192,8717,1,0,0:0:0:0:
192,192,8807,1,0,0:0:0:0:
320,192,8896,1,2,0:0:0:0:
192,192,8985,1,0,0:0:0:0:
448,192,9074,1,0,0:0:0:0:
320,192,9164,1,0,0:0:0:0:
192,192,9253,1,12,0:0:0:0:
64,192,9253,1,12,0:0:0:0:
64,192,9253,1,0,0:0:0:0:
320,192,9342,1,0,0:0:0:0:
448,192,9432,1,0,0:0:0:0:
320,192,9521,1,0,0:0:0:0:
448,192,9610,1,2,0:0:0:0:
64,192,9610,1,2,0:0:0:0:
192,192,9699,1,0,0:0:0:0:
320,192,9789,1,0,0:0:0:0:
448,192,9878,1,0,0:0:0:0:
320,192,9967,1,8,0:0:0:0:
64,192,9967,1,0,0:0:0:0:
192,192,10057,1,0,0:0:0:0:
320,192,10146,1,0,0:0:0:0:
448,192,10235,1,0,0:0:0:0:
192,192,10235,1,0,0:0:0:0:
64,192,10324,1,2,0:0:0:0:
448,192,10414,1,0,0:0:0:0:
320,192,10503,1,0,0:0:0:0:
192,192,10592,1,0,0:0:0:0:
64,192,10682,1,2,0:0:0:0:
320,192,10682,1,2,0:0:0:0:
448,192,10771,1,0,0:0:0:0:
320,192,10860,1,0,0:0:0:0:
192,192,10949,1,0,0:0:0:0:
448,192,11039,1,0,0:0:0:0:
320,192,11128,1,0,0:0:0:0:
192,192,11128,1,0,0:0:0:0:
64,192,11217,1,0,0:0:0:0:
320,192,11307,1,0,0:0:0:0:
192,192,11307,1,0,0:0:0:0:
448,192,11396,1,8,0:0:0:0:
192,192,11485,1,0,0:0:0:0:
320,192,11485,1,0,0:0:0:0:
64,192,11574,1,0,0:0:0:0:
320,192,11664,1,0,0:0:0:0:
192,192,11664,1,0,0:0:0:0:
448,192,11753,1,2,0:0:0:0:
64,192,11842,1,0,0:0:0:0:
192,192,11932,1,0,0:0:0:0:
320,192,12021,1,0,0:0:0:0:
448,192,12110,1,0,0:0:0:0:
320,192,12199,1,0,0:0:0:0:
192,192,12289,1,0,0:0:0:0:
64,192,12378,1,0,0:0:0:0:
192,192,12467,1,2,0:0:0:0:
448,192,12467,1,0,0:0:0:0:
320,192,12557,1,0,0:0:0:0:
448,192,12646,1,0,0:0:0:0:
192,192,12646,1,0,0:0:0:0:
64,192,12735,1,0,0:0:0:0:
320,192,12824,1,12,0:0:0:0:
192,192,12914,1,0,0:0:0:0:
64,192,13003,1,0,0:0:0:0:
448,192,13003,1,0,0:0:0:0:
192,192,13092,1,0,0:0:0:0:
320,192,13182,1,0,0:0:0:0:
192,192,13271,1,0,0:0:0:0:
320,192,13360,1,0,0:0:0:0:
448,192,13449,1,0,0:0:0:0:
192,192,13449,1,0,0:0:0:0:
64,192,13539,1,0,0:0:0:0:
192,192,13628,1,0,0:0:0:0:
448,192,13717,1,0,0:0:0:0:
320,192,13807,1,0,0:0:0:0:
192,192,13896,1,2,0:0:0:0:
64,192,13896,1,2,0:0:0:0:
320,192,13985,1,0,0:0:0:0:
448,192,14074,1,0,0:0:0:0:
320,192,14164,1,0,0:0:0:0:
192,192,14253,1,12,0:0:0:0:
64,192,14342,1,0,0:0:0:0:
320,192,14342,1,0,0:0:0:0:
448,192,14432,1,0,0:0:0:0:
192,192,14521,1,4,0:0:0:0:
64,192,14610,1,4,0:0:0:0:
192,192,14699,1,0,0:0:0:0:
320,192,14789,1,0,0:0:0:0:
64,192,14878,1,4,0:0:0:0:
192,192,14967,1,0,0:0:0:0:
320,192,15057,1,0,0:0:0:0:
448,192,15146,1,0,0:0:0:0:
192,192,15235,1,0,0:0:0:0:
320,192,15324,1,2,0:0:0:0:
448,192,15414,1,0,0:0:0:0:
320,192,15503,1,0,0:0:0:0:
192,192,15503,1,0,0:0:0:0:
64,192,15592,1,0,0:0:0:0:
192,192,15682,1,12,0:0:0:0:
320,192,15771,1,0,0:0:0:0:
448,192,15860,1,0,0:0:0:0:
320,192,15949,1,0,0:0:0:0:
64,192,16039,1,2,0:0:0:0:
448,192,16039,1,0,0:0:0:0:
192,192,16128,1,0,0:0:0:0:
320,192,16217,1,0,0:0:0:0:
448,192,16307,1,0,0:0:0:0:
64,192,16396,1,0,0:0:0:0:
192,192,16396,1,8,0:0:0:0:
320,192,16485,1,0,0:0:0:0:
192,192,16574,1,0,0:0:0:0:
64,192,16664,1,0,0:0:0:0:
448,192,16753,1,2,0:0:0:0:
320,192,16753,1,0,0:0:0:0:
192,192,16842,1,0,0:0:0:0:
64,192,16932,1,0,0:0:0:0:
192,192,17021,1,0,0:0:0:0:
320,192,17110,1,0,0:0:0:0:
64,192,17199,1,0,0:0:0:0:
448,192,17199,1,0,0:0:0:0:
192,192,17289,1,0,0:0:0:0:
64,192,17378,1,0,0:0:0:0:
320,192,17378,1,0,0:0:0:0:
448,192,17467,1,0,0:0:0:0:
320,192,17557,1,0,0:0:0:0:
64,192,17557,1,0,0:0:0:0:
192,192,17646,1,0,0:0:0:0:
320,192,17735,1,0,0:0:0:0:
64,192,17824,1,0,0:0:0:0:
448,192,17824,1,0,0:0:0:0:
192,192,17914,1,0,0:0:0:0:
320,192,18003,1,0,0:0:0:0:
448,192,18092,1,0,0:0:0:0:
320,192,18182,1,2,0:0:0:0:
64,192,18182,1,2,0:0:0:0:
192,192,18271,1,0,0:0:0:0:
64,192,18360,1,0,0:0:0:0:
320,192,18449,1,0,0:0:0:0:
64,192,18539,1,0,0:0:0:0:
448,192,18539,1,12,0:0:0:0:
192,192,18628,1,0,0:0:0:0:
320,192,18717,1,0,0:0:0:0:
448,192,18717,1,0,0:0:0:0:
192,192,18807,1,0,0:0:0:0:
64,192,18896,1,2,0:0:0:0:
448,192,18896,1,0,0:0:0:0:
320,192,18985,1,0,0:0:0:0:
192,192,19074,1,0,0:0:0:0:
64,192,19164,1,0,0:0:0:0:
192,192,19253,1,12,0:0:0:0:
320,192,19342,1,0,0:0:0:0:
448,192,19432,1,0,0:0:0:0:
64,192,19521,1,0,0:0:0:0:
320,192,19521,1,0,0:0:0:0:
192,192,19610,1,2,0:0:0:0:
320,192,19699,1,0,0:0:0:0:
448,192,19789,1,0,0:0:0:0:
320,192,19878,1,0,0:0:0:0:
64,192,19878,1,0,0:0:0:0:
192,192,19967,1,8,0:0:0:0:
320,192,20057,1,0,0:0:0:0:
448,192,20146,1,0,0:0:0:0:
64,192,20146,1,0,0:0:0:0:
192,192,20235,1,0,0:0:0:0:
320,192,20324,1,0,0:0:0:0:
192,192,20414,1,0,0:0:0:0:
320,192,20503,1,0,0:0:0:0:
64,192,20592,1,0,0:0:0:0:
448,192,20592,1,0,0:0:0:0:
192,192,20682,1,4,0:0:0:0:
320,192,20771,1,0,0:0:0:0:
192,192,20860,1,0,0:0:0:0:
320,192,20949,1,0,0:0:0:0:
64,192,20949,1,0,0:0:0:0:
448,192,21039,1,2,0:0:0:0:
64,192,21128,1,0,0:0:0:0:
192,192,21217,1,0,0:0:0:0:
320,192,21307,1,0,0:0:0:0:
192,192,21396,1,12,0:0:0:0:
320,192,21485,1,0,0:0:0:0:
448,192,21574,1,0,0:0:0:0:
192,192,21574,1,0,0:0:0:0:
64,192,21664,1,0,0:0:0:0:
448,192,21753,1,0,0:0:0:0:
192,192,21753,1,2,0:0:0:0:
320,192,21842,1,0,0:0:0:0:
192,192,21932,1,0,0:0:0:0:
320,192,22021,1,0,0:0:0:0:
448,192,22110,1,8,0:0:0:0:
320,192,22199,1,0,0:0:0:0:
64,192,22289,1,2,0:0:0:0:
192,192,22378,1,0,0:0:0:0:
448,192,22467,1,2,0:0:0:0:
320,192,22467,1,2,0:0:0:0:
320,192,22646,1,8,0:0:0:0:
64,192,22646,1,8,0:0:0:0:
448,192,22646,1,8,0:0:0:0:
320,192,22824,1,4,0:0:0:0:
192,192,22914,1,4,0:0:0:0:
320,192,23003,1,4,0:0:0:0:
192,192,23092,1,4,0:0:0:0:
448,192,23182,1,6,0:0:0:0:
64,192,23182,1,6,0:0:0:0:
320,192,23271,1,0,0:0:0:0:
320,192,23539,1,2,0:0:0:0:
192,192,23539,1,2,0:0:0:0:
64,192,23539,1,2,0:0:0:0:
192,192,23717,1,2,0:0:0:0:
64,192,23717,1,2,0:0:0:0:
320,192,23896,1,2,0:0:0:0:
448,192,23896,1,0,0:0:0:0:
64,192,23985,1,0,0:0:0:0:
192,192,24074,1,0,0:0:0:0:
320,192,24164,1,0,0:0:0:0:
448,192,24253,1,0,0:0:0:0:
192,192,24342,1,0,0:0:0:0:
320,192,24432,1,0,0:0:0:0:
64,192,24521,1,0,0:0:0:0:
192,192,24610,1,0,0:0:0:0:
320,192,24699,1,0,0:0:0:0:
448,192,24789,1,0,0:0:0:0:
320,192,24878,1,0,0:0:0:0:
64,192,24878,1,0,0:0:0:0:
192,192,24967,1,8,0:0:0:0:
320,192,25057,1,0,0:0:0:0:
448,192,25146,1,0,0:0:0:0:
64,192,25235,1,0,0:0:0:0:
320,192,25235,1,0,0:0:0:0:
192,192,25324,1,2,0:0:0:0:
320,192,25414,1,0,0:0:0:0:
192,192,25503,1,0,0:0:0:0:
320,192,25592,1,0,0:0:0:0:
448,192,25682,1,12,0:0:0:0:
64,192,25682,1,12,0:0:0:0:
192,192,25771,1,0,0:0:0:0:
320,192,25860,1,0,0:0:0:0:
448,192,25949,1,0,0:0:0:0:
320,192,26039,1,4,0:0:0:0:
64,192,26128,1,4,0:0:0:0:
192,192,26128,1,4,0:0:0:0:
320,192,26217,1,0,0:0:0:0:
64,192,26307,1,0,0:0:0:0:
448,192,26307,1,0,0:0:0:0:
192,192,26396,1,4,0:0:0:0:
320,192,26485,1,0,0:0:0:0:
64,192,26574,1,0,0:0:0:0:
448,192,26574,1,0,0:0:0:0:
192,192,26664,1,0,0:0:0:0:
320,192,26753,1,2,0:0:0:0:
192,192,26842,1,0,0:0:0:0:
320,192,26932,1,0,0:0:0:0:
448,192,27021,1,0,0:0:0:0:
320,192,27110,1,12,0:0:0:0:
192,192,27110,1,12,0:0:0:0:
64,192,27199,1,0,0:0:0:0:
448,192,27289,1,0,0:0:0:0:
192,192,27289,1,0,0:0:0:0:
320,192,27378,1,0,0:0:0:0:
192,192,27467,1,2,0:0:0:0:
64,192,27557,1,0,0:0:0:0:
448,192,27646,1,0,0:0:0:0:
320,192,27735,1,0,0:0:0:0:
64,192,27735,1,0,0:0:0:0:
192,192,27824,1,8,0:0:0:0:
64,192,27914,1,0,0:0:0:0:
192,192,28003,1,0,0:0:0:0:
320,192,28092,1,0,0:0:0:0:
448,192,28182,1,2,0:0:0:0:
320,192,28271,1,0,0:0:0:0:
64,192,28271,1,0,0:0:0:0:
192,192,28360,1,0,0:0:0:0:
320,192,28449,1,0,0:0:0:0:
64,192,28539,1,8,0:0:0:0:
448,192,28539,1,8,0:0:0:0:
192,192,28628,1,0,0:0:0:0:
320,192,28717,1,0,0:0:0:0:
64,192,28807,1,0,0:0:0:0:
448,192,28807,1,0,0:0:0:0:
320,192,28896,1,4,0:0:0:0:
192,192,28985,1,4,0:0:0:0:
64,192,29074,1,0,0:0:0:0:
192,192,29164,1,0,0:0:0:0:
448,192,29164,1,0,0:0:0:0:
320,192,29253,1,0,0:0:0:0:
192,192,29342,1,0,0:0:0:0:
64,192,29432,1,0,0:0:0:0:
320,192,29521,1,0,0:0:0:0:
192,192,29610,1,2,0:0:0:0:
64,192,29699,1,0,0:0:0:0:
320,192,29789,1,0,0:0:0:0:
192,192,29878,1,0,0:0:0:0:
448,192,29967,1,12,0:0:0:0:
320,192,30057,1,0,0:0:0:0:
192,192,30146,1,0,0:0:0:0:
320,192,30235,1,0,0:0:0:0:
64,192,30235,1,0,0:0:0:0:
448,192,30324,1,2,0:0:0:0:
320,192,30414,1,0,0:0:0:0:
192,192,30503,1,0,0:0:0:0:
64,192,30592,1,0,0:0:0:0:
192,192,30682,1,8,0:0:0:0:
448,192,30682,1,0,0:0:0:0:
320,192,30771,1,0,0:0:0:0:
448,192,30860,1,0,0:0:0:0:
192,192,30949,1,0,0:0:0:0:
320,192,31039,1,2,0:0:0:0:
448,192,31039,1,0,0:0:0:0:
64,192,31128,1,0,0:0:0:0:
192,192,31217,1,0,0:0:0:0:
320,192,31307,1,0,0:0:0:0:
448,192,31396,1,12,0:0:0:0:
192,192,31485,1,0,0:0:0:0:
320,192,31574,1,4,0:0:0:0:
448,192,31664,1,0,0:0:0:0:
192,192,31753,1,4,0:0:0:0:
64,192,31753,1,4,0:0:0:0:
320,192,31842,1,0,0:0:0:0:
192,192,31932,1,0,0:0:0:0:
64,192,32021,1,0,0:0:0:0:
192,192,32110,1,4,0:0:0:0:
320,192,32199,1,0,0:0:0:0:
448,192,32289,1,0,0:0:0:0:
64,192,32289,1,0,0:0:0:0:
192,192,32378,1,0,0:0:0:0:
320,192,32467,1,2,0:0:0:0:
448,192,32467,1,0,0:0:0:0:
192,192,32557,1,0,0:0:0:0:
64,192,32646,1,0,0:0:0:0:
320,192,32735,1,0,0:0:0:0:
448,192,32824,1,12,0:0:0:0:
320,192,32914,1,0,0:0:0:0:
192,192,33003,1,0,0:0:0:0:
320,192,33092,1,0,0:0:0:0:
64,192,33182,1,2,0:0:0:0:
448,192,33271,1,0,0:0:0:0:
192,192,33271,1,0,0:0:0:0:
320,192,33360,1,0,0:0:0:0:
192,192,33449,1,0,0:0:0:0:
448,192,33539,1,8,0:0:0:0:
64,192,33539,1,8,0:0:0:0:
320,192,33628,1,0,0:0:0:0:
192,192,33717,1,2,0:0:0:0:
320,192,33807,1,0,0:0:0:0:
64,192,33896,1,2,0:0:0:0:
448,192,33896,1,0,0:0:0:0:
320,192,33985,1,0,0:0:0:0:
64,192,34074,1,10,0:0:0:0:
192,192,34074,1,10,0:0:0:0:
320,192,34164,1,0,0:0:0:0:
448,192,34253,1,0,0:0:0:0:
192,192,34342,1,0,0:0:0:0:
64,192,34432,1,0,0:0:0:0:
192,192,34521,1,0,0:0:0:0:
448,192,34521,1,0,0:0:0:0:
320,192,34610,1,2,0:0:0:0:
192,192,34699,1,0,0:0:0:0:
64,192,34789,1,0,0:0:0:0:
192,192,34878,1,0,0:0:0:0:
64,192,34967,5,2,0:0:0:0:
320,192,34967,1,2,0:0:0:0:
448,192,34967,1,0,0:0:0:0:
192,192,35146,1,0,0:0:0:0:
64,192,35235,1,0,0:0:0:0:
320,192,35324,5,2,0:0:0:0:
448,192,35324,1,2,0:0:0:0:
192,192,35324,1,2,0:0:0:0:
320,192,35503,1,2,0:0:0:0:
448,192,35682,1,2,0:0:0:0:
192,192,35682,1,2,0:0:0:0:
64,192,35682,1,2,0:0:0:0:
192,192,35860,1,0,0:0:0:0:
64,192,36039,1,0,0:0:0:0:
320,192,36039,1,0,0:0:0:0:
448,192,36039,1,0,0:0:0:0:
64,192,36217,1,0,0:0:0:0:
448,192,36396,1,2,0:0:0:0:
320,192,36396,1,2,0:0:0:0:
192,192,36574,1,2,0:0:0:0:
64,192,36574,1,0,0:0:0:0:
320,192,36753,1,0,0:0:0:0:
64,192,36932,1,2,0:0:0:0:
192,192,36932,1,2,0:0:0:0:
320,192,37110,1,0,0:0:0:0:
64,192,37289,1,2,0:0:0:0:
320,192,37289,1,2,0:0:0:0:
448,192,37289,1,2,0:0:0:0:
64,192,37467,1,2,0:0:0:0:
448,192,37467,1,2,0:0:0:0:
192,192,37467,1,2,0:0:0:0:
64,192,37646,1,2,0:0:0:0:
448,192,37646,1,2,0:0:0:0:
320,192,37646,1,0,0:0:0:0:
192,192,37824,1,0,0:0:0:0:
320,192,38003,1,2,0:0:0:0:
448,192,38003,1,2,0:0:0:0:
64,192,38003,1,2,0:0:0:0:
192,192,38182,1,2,0:0:0:0:
64,192,38182,1,2,0:0:0:0:
448,192,38182,1,0,0:0:0:0:
192,192,38360,1,2,0:0:0:0:
320,192,38360,1,2,0:0:0:0:
64,192,38539,1,0,0:0:0:0:
192,192,38628,1,0,0:0:0:0:
320,192,38717,1,0,0:0:0:0:
192,192,38807,1,0,0:0:0:0:
448,192,38896,1,0,0:0:0:0:
320,192,38985,1,0,0:0:0:0:
192,192,39074,1,0,0:0:0:0:
64,192,39164,1,0,0:0:0:0:
320,192,39253,1,2,0:0:0:0:
448,192,39253,1,2,0:0:0:0:
192,192,39432,1,2,0:0:0:0:
320,192,39432,1,2,0:0:0:0:
448,192,39611,1,2,0:0:0:0:
64,192,39611,1,2,0:0:0:0:
320,192,39789,1,0,0:0:0:0:
192,192,39789,1,0,0:0:0:0:
448,192,39968,1,2,0:0:0:0:
64,192,39968,1,2,0:0:0:0:
320,192,40146,1,0,0:0:0:0:
192,192,40325,1,2,0:0:0:0:
64,192,40325,1,2,0:0:0:0:
320,192,40325,1,2,0:0:0:0:
320,192,40503,1,2,0:0:0:0:
448,192,40503,1,2,0:0:0:0:
320,192,40682,1,0,0:0:0:0:
192,192,40860,1,2,0:0:0:0:
64,192,40861,1,2,0:0:0:0:
192,192,41039,1,0,0:0:0:0:
64,192,41217,1,2,0:0:0:0:
448,192,41217,1,2,0:0:0:0:
320,192,41217,1,2,0:0:0:0:
448,192,41395,1,2,0:0:0:0:
64,192,41396,1,2,0:0:0:0:
320,192,41396,1,2,0:0:0:0:
448,192,41574,1,2,0:0:0:0:
64,192,41574,1,2,0:0:0:0:
192,192,41574,1,2,0:0:0:0:
320,192,41753,1,0,0:0:0:0:
64,192,41931,1,0,0:0:0:0:
192,192,41931,1,0,0:0:0:0:
448,192,41932,1,0,0:0:0:0:
192,192,42110,1,0,0:0:0:0:
64,192,42110,1,0,0:0:0:0:
448,192,42289,1,0,0:0:0:0:
320,192,42289,1,0,0:0:0:0:
448,192,42467,1,0,0:0:0:0:
320,192,42467,1,0,0:0:0:0:
64,192,42557,1,0,0:0:0:0:
192,192,42557,1,0,0:0:0:0:
448,192,42646,1,0,0:0:0:0:
320,192,42646,1,0,0:0:0:0:
64,192,42735,1,0,0:0:0:0:
192,192,42735,1,0,0:0:0:0:
448,192,42824,1,0,0:0:0:0:
320,192,42824,1,0,0:0:0:0:
64,192,42914,1,0,0:0:0:0:
192,192,43003,1,0,0:0:0:0:
320,192,43092,1,0,0:0:0:0:
192,192,43182,1,2,0:0:0:0:
448,192,43182,1,2,0:0:0:0:
64,192,43360,1,2,0:0:0:0:
320,192,43360,1,2,0:0:0:0:
448,192,43539,1,2,0:0:0:0:
192,192,43539,1,2,0:0:0:0:
192,192,43717,1,2,0:0:0:0:
320,192,43717,1,2,0:0:0:0:
192,192,43896,1,2,0:0:0:0:
64,192,43896,1,2,0:0:0:0:
320,192,44074,1,2,0:0:0:0:
448,192,44074,1,2,0:0:0:0:
320,192,44253,1,2,0:0:0:0:
192,192,44253,1,2,0:0:0:0:
320,192,44432,1,2,0:0:0:0:
448,192,44432,1,2,0:0:0:0:
192,192,44610,1,2,0:0:0:0:
64,192,44610,1,2,0:0:0:0:
320,192,44789,1,2,0:0:0:0:
192,192,44789,1,2,0:0:0:0:
64,192,44967,1,2,0:0:0:0:
192,192,44967,1,2,0:0:0:0:
320,192,45146,1,2,0:0:0:0:
448,192,45146,1,2,0:0:0:0:
192,192,45324,1,2,0:0:0:0:
64,192,45324,1,2,0:0:0:0:
448,192,45414,1,2,0:0:0:0:
320,192,45414,1,2,0:0:0:0:
192,192,45503,1,2,0:0:0:0:
64,192,45503,1,2,0:0:0:0:
448,192,45592,1,2,0:0:0:0:
320,192,45592,1,2,0:0:0:0:
192,192,45682,1,2,0:0:0:0:
64,192,45682,1,2,0:0:0:0:
448,192,45771,1,2,0:0:0:0:
320,192,45771,1,2,0:0:0:0:
192,192,45860,1,2,0:0:0:0:
320,192,45949,1,2,0:0:0:0:
448,192,46039,1,2,0:0:0:0:
64,192,46039,1,2,0:0:0:0:
192,192,46128,1,2,0:0:0:0:
320,192,46128,1,2,0:0:0:0:
448,192,46217,1,2,0:0:0:0:
64,192,46217,1,2,0:0:0:0:
320,192,46307,1,2,0:0:0:0:
192,192,46396,1,2,0:0:0:0:
448,192,46396,1,2,0:0:0:0:
320,192,50146,128,0,50682:0:0:0:0:
64,192,50682,1,0,0:0:0:0:
448,192,50682,1,0,0:0:0:0:
320,192,50801,1,0,0:0:0:0:
192,192,50920,1,0,0:0:0:0:
64,192,51039,1,0,0:0:0:0:
448,192,51158,1,0,0:0:0:0:
320,192,51277,1,0,0:0:0:0:
192,192,51396,1,0,0:0:0:0:
320,192,51515,1,0,0:0:0:0:
192,192,51634,1,0,0:0:0:0:
64,192,51753,1,0,0:0:0:0:
448,192,51753,1,0,0:0:0:0:
320,192,51872,1,0,0:0:0:0:
192,192,51991,1,0,0:0:0:0:
64,192,52110,1,0,0:0:0:0:
320,192,52824,1,0,0:0:0:0:
192,192,52824,1,0,0:0:0:0:
448,192,53539,1,0,0:0:0:0:
320,192,53658,1,0,0:0:0:0:
192,192,53777,1,0,0:0:0:0:
448,192,53896,1,0,0:0:0:0:
320,192,54015,1,0,0:0:0:0:
192,192,54134,1,0,0:0:0:0:
448,192,54253,1,0,0:0:0:0:
64,192,54253,1,0,0:0:0:0:
320,192,54372,1,0,0:0:0:0:
192,192,54491,1,0,0:0:0:0:
448,192,54610,1,0,0:0:0:0:
320,192,54729,1,0,0:0:0:0:
192,192,54848,1,0,0:0:0:0:
448,192,54967,1,0,0:0:0:0:
64,192,54967,1,0,0:0:0:0:
192,192,55682,1,0,0:0:0:0:
320,192,55682,1,0,0:0:0:0:
448,192,56396,1,0,0:0:0:0:
320,192,56515,1,0,0:0:0:0:
192,192,56634,1,0,0:0:0:0:
64,192,56753,1,0,0:0:0:0:
448,192,56872,1,0,0:0:0:0:
320,192,56991,1,0,0:0:0:0:
192,192,57110,1,0,0:0:0:0:
64,192,57229,1,0,0:0:0:0:
448,192,57229,1,0,0:0:0:0:
320,192,57348,1,0,0:0:0:0:
448,192,57467,1,0,0:0:0:0:
320,192,57586,1,0,0:0:0:0:
192,192,57705,1,0,0:0:0:0:
448,192,57824,1,0,0:0:0:0:
64,192,57824,1,0,0:0:0:0:
192,192,58539,1,0,0:0:0:0:
320,192,58539,1,0,0:0:0:0:
448,192,59253,1,0,0:0:0:0:
320,192,59372,1,0,0:0:0:0:
192,192,59491,1,0,0:0:0:0:
64,192,59610,1,0,0:0:0:0:
448,192,59729,1,0,0:0:0:0:
320,192,59848,1,0,0:0:0:0:
192,192,59967,1,0,0:0:0:0:
448,192,60086,1,0,0:0:0:0:
64,192,60086,1,0,0:0:0:0:
320,192,60205,1,0,0:0:0:0:
448,192,60324,1,0,0:0:0:0:
320,192,60443,1,0,0:0:0:0:
192,192,60562,1,0,0:0:0:0:
64,192,60681,1,0,0:0:0:0:
448,192,60681,1,0,0:0:0:0:
320,192,61396,1,0,0:0:0:0:
192,192,61396,1,0,0:0:0:0:
64,192,62110,1,0,0:0:0:0:
320,192,62110,1,0,0:0:0:0:
448,192,62289,1,0,0:0:0:0:
320,192,62467,1,0,0:0:0:0:
448,192,62646,1,0,0:0:0:0:
320,192,62824,1,0,0:0:0:0:
448,192,63003,1,0,0:0:0:0:
320,192,63182,1,0,0:0:0:0:
64,192,63182,1,0,0:0:0:0:
192,192,63360,1,0,0:0:0:0:
320,192,63539,1,0,0:0:0:0:
448,192,63539,1,0,0:0:0:0:
64,192,63717,1,0,0:0:0:0:
192,192,63896,1,0,0:0:0:0:
64,192,64074,1,0,0:0:0:0:
320,192,64253,1,0,0:0:0:0:
192,192,64253,1,0,0:0:0:0:
448,192,64432,1,0,0:0:0:0:
320,192,64610,1,0,0:0:0:0:
448,192,64789,1,0,0:0:0:0:
320,192,64967,1,0,0:0:0:0:
192,192,64967,1,0,0:0:0:0:
64,192,65146,1,0,0:0:0:0:
192,192,65324,1,0,0:0:0:0:
64,192,65503,1,0,0:0:0:0:
320,192,65682,1,0,0:0:0:0:
192,192,65682,1,0,0:0:0:0:
192,192,65949,1,0,0:0:0:0:
448,192,65949,1,0,0:0:0:0:
320,192,66217,1,0,0:0:0:0:
448,192,66217,1,0,0:0:0:0:
64,192,66396,1,2,0:0:0:0:
192,192,66396,1,2,0:0:0:0:
320,192,66396,1,2,0:0:0:0:
320,192,66574,1,2,0:0:0:0:
192,192,66574,1,2,0:0:0:0:
64,192,66574,1,2,0:0:0:0:
448,192,66753,1,0,0:0:0:0:
320,192,66932,1,0,0:0:0:0:
192,192,67110,1,0,0:0:0:0:
448,192,67289,1,0,0:0:0:0:
320,192,67467,1,0,0:0:0:0:
192,192,67646,1,0,0:0:0:0:
64,192,67824,1,2,0:0:0:0:
320,192,67824,1,2,0:0:0:0:
192,192,68003,1,0,0:0:0:0:
320,192,68182,1,2,0:0:0:0:
64,192,68182,1,0,0:0:0:0:
192,192,68360,1,0,0:0:0:0:
320,192,68539,1,2,0:0:0:0:
448,192,68539,1,2,0:0:0:0:
320,192,68717,1,0,0:0:0:0:
192,192,68896,1,2,0:0:0:0:
448,192,68896,1,2,0:0:0:0:
320,192,69074,1,0,0:0:0:0:
192,192,69253,1,2,0:0:0:0:
64,192,69253,1,2,0:0:0:0:
320,192,69432,1,0,2:0:0:0:
192,192,69610,1,2,2:0:0:0:
64,192,69610,1,0,0:0:0:0:
320,192,69789,1,0,0:0:0:0:
448,192,69967,1,2,0:0:0:0:
192,192,69967,1,2,2:0:0:0:
320,192,70057,1,0,0:0:0:0:
64,192,70146,1,0,0:0:0:0:
192,192,70146,1,0,2:0:0:0:
192,192,70324,1,2,0:0:0:0:
320,192,70503,1,0,2:0:0:0:
448,192,70503,1,0,0:0:0:0:
320,192,70682,1,2,0:0:0:0:
64,192,70682,1,2,0:0:0:0:
192,192,70860,1,0,0:0:0:0:
448,192,71039,1,2,0:0:0:0:
64,192,71039,1,0,0:0:0:0:
320,192,71217,1,0,0:0:0:0:
192,192,71396,1,2,0:0:0:0:
64,192,71396,1,2,0:0:0:0:
320,192,71574,1,0,0:0:0:0:
448,192,71753,1,2,0:0:0:0:
64,192,71753,1,2,0:0:0:0:
192,192,71932,1,0,0:0:0:0:
192,192,72110,128,0,72467:0:0:0:0:
64,192,72110,1,2,0:0:0:0:
320,192,72289,1,0,0:0:0:0:
320,192,72467,128,0,72824:0:0:0:0:
448,192,72467,1,2,0:0:0:0:
192,192,72824,128,0,73182:0:0:0:0:
448,192,72824,1,2,0:0:0:0:
320,192,72914,1,0,0:0:0:0:
64,192,73003,1,0,0:0:0:0:
448,192,73182,128,0,73539:0:0:0:0:
320,192,73182,1,2,0:0:0:0:
192,192,73360,1,0,0:0:0:0:
320,192,73539,1,2,0:0:0:0:
64,192,73539,1,2,0:0:0:0:
192,192,73717,1,0,0:0:0:0:
64,192,73896,1,2,0:0:0:0:
320,192,73896,1,2,0:0:0:0:
192,192,74074,1,0,0:0:0:0:
320,192,74253,1,2,0:0:0:0:
448,192,74253,1,2,0:0:0:0:
320,192,74432,1,0,0:0:0:0:
448,192,74610,1,2,0:0:0:0:
192,192,74610,1,2,0:0:0:0:
320,192,74789,1,0,0:0:0:0:
192,192,74967,1,2,0:0:0:0:
64,192,74967,1,2,0:0:0:0:
448,192,75146,128,0,75324:0:0:0:0:
320,192,75324,128,2,75503:0:0:0:0:
192,192,75503,128,0,75682:0:0:0:0:
64,192,75682,1,2,0:0:0:0:
192,192,75771,1,0,0:0:0:0:
320,192,75860,128,0,76039:0:0:0:0:
448,192,75860,1,0,0:0:0:0:
192,192,76039,128,2,76217:0:0:0:0:
64,192,76217,128,0,76396:0:0:0:0:
192,192,76396,1,0,0:0:0:0:
448,192,76396,1,2,0:0:0:0:
320,192,76574,1,0,0:0:0:0:
192,192,76753,1,2,0:0:0:0:
448,192,76753,1,2,0:0:0:0:
320,192,76932,1,0,0:0:0:0:
192,192,77110,1,2,0:0:0:0:
64,192,77110,1,2,0:0:0:0:
320,192,77289,1,0,0:0:0:0:
64,192,77467,1,2,0:0:0:0:
448,192,77467,1,2,0:0:0:0:
320,192,77646,1,2,0:0:0:0:
192,192,77646,1,2,0:0:0:0:
64,192,77824,1,2,0:0:0:0:
192,192,77824,1,2,0:0:0:0:
448,192,77824,1,2,0:0:0:0:
64,192,78003,1,2,0:0:0:0:
192,192,78003,1,2,0:0:0:0:
448,192,78003,1,2,0:0:0:0:
320,192,78182,1,0,0:0:0:0:
192,192,78271,1,0,0:0:0:0:
64,192,78360,1,0,0:0:0:0:
320,192,78449,1,0,0:0:0:0:
192,192,78539,1,0,0:0:0:0:
448,192,78539,1,0,0:0:0:0:
64,192,78628,1,0,0:0:0:0:
64,192,78896,1,2,0:0:0:0:
192,192,78896,1,2,0:0:0:0:
448,192,78896,1,2,0:0:0:0:
320,192,79074,1,0,0:0:0:0:
64,192,79253,1,2,0:0:0:0:
192,192,79253,1,2,0:0:0:0:
448,192,79253,1,2,0:0:0:0:
192,192,79432,1,0,0:0:0:0:
64,192,79610,1,2,0:0:0:0:
320,192,79610,1,2,0:0:0:0:
448,192,79789,1,0,0:0:0:0:
64,192,79967,128,0,80235:0:0:0:0:
192,192,79967,1,2,0:0:0:0:
192,192,80235,128,0,80503:0:0:0:0:
448,192,80324,1,2,0:0:0:0:
320,192,80503,128,0,80682:0:0:0:0:
448,192,80682,1,0,0:0:0:0:
64,192,80682,1,2,0:0:0:0:
320,192,80860,1,0,0:0:0:0:
192,192,81039,1,2,0:0:0:0:
448,192,81039,1,2,0:0:0:0:
448,192,81217,1,0,0:0:0:0:
320,192,81307,1,0,0:0:0:0:
192,192,81396,1,0,0:0:0:0:
64,192,81485,1,0,0:0:0:0:
192,192,81574,1,0,0:0:0:0:
448,192,81753,5,2,0:0:0:0:
320,192,81753,1,2,0:0:0:0:
192,192,81932,1,0,0:0:0:0:
448,192,82110,1,2,0:0:0:0:
192,192,82110,1,2,0:0:0:0:
64,192,82110,1,2,0:0:0:0:
320,192,82289,1,0,0:0:0:0:
192,192,82467,1,2,0:0:0:0:
448,192,82467,1,2,0:0:0:0:
320,192,82646,1,0,0:0:0:0:
448,192,82824,128,0,83092:0:0:0:0:
64,192,82824,1,0,0:0:0:0:
192,192,82824,1,2,0:0:0:0:
320,192,83092,128,0,83360:0:0:0:0:
64,192,83182,1,2,0:0:0:0:
192,192,83360,128,0,83539:0:0:0:0:
64,192,83539,1,0,0:0:0:0:
448,192,83539,1,2,0:0:0:0:
320,192,83717,1,0,0:0:0:0:
192,192,83896,1,2,0:0:0:0:
64,192,83896,1,2,0:0:0:0:
448,192,83896,1,2,0:0:0:0:
192,192,84074,1,0,0:0:0:0:
64,192,84164,1,0,0:0:0:0:
320,192,84253,1,2,0:0:0:0:
448,192,84253,1,2,0:0:0:0:
320,192,84432,1,2,0:0:0:0:
64,192,84432,1,2,0:0:0:0:
448,192,84432,1,2,0:0:0:0:
192,192,84610,1,12,0:0:0:0:
192,192,84789,1,12,0:0:0:0:
64,192,86396,5,2,0:0:0:0:
192,192,86396,1,2,0:0:0:0:
448,192,86396,1,2,0:0:0:0:
320,192,86574,1,2,0:0:0:0:
448,192,86574,1,2,0:0:0:0:
192,192,86753,1,2,0:0:0:0:
64,192,86753,1,2,0:0:0:0:
320,192,86932,5,0,0:0:0:0:
192,192,87021,1,0,0:0:0:0:
64,192,87110,1,0,0:0:0:0:
320,192,87110,1,0,0:0:0:0:
448,192,87199,1,0,0:0:0:0:
320,192,87289,1,0,0:0:0:0:
448,192,87378,1,0,0:0:0:0:
64,192,87467,1,2,0:0:0:0:
192,192,87467,1,2,0:0:0:0:
448,192,87646,1,2,0:0:0:0:
320,192,87646,1,2,0:0:0:0:
64,192,87824,1,2,0:0:0:0:
192,192,87824,1,2,0:0:0:0:
64,192,88003,1,0,0:0:0:0:
192,192,88092,1,0,0:0:0:0:
320,192,88182,1,0,0:0:0:0:
448,192,88271,1,0,0:0:0:0:
192,192,88360,1,0,0:0:0:0:
320,192,88360,1,0,0:0:0:0:
192,192,88539,1,2,0:0:0:0:
64,192,88539,1,2,0:0:0:0:
64,192,88717,1,2,0:0:0:0:
192,192,88717,1,2,0:0:0:0:
192,192,88896,1,2,0:0:0:0:
64,192,88896,1,2,0:0:0:0:
192,192,89074,1,0,0:0:0:0:
320,192,89164,1,0,0:0:0:0:
192,192,89253,1,0,0:0:0:0:
64,192,89342,1,0,0:0:0:0:
320,192,89432,1,0,0:0:0:0:
192,192,89432,1,0,0:0:0:0:
320,192,89610,1,2,0:0:0:0:
448,192,89610,1,2,0:0:0:0:
320,192,89789,1,2,0:0:0:0:
448,192,89789,1,2,0:0:0:0:
448,192,89967,1,2,0:0:0:0:
320,192,89967,1,2,0:0:0:0:
320,192,90146,1,0,0:0:0:0:
192,192,90235,1,0,0:0:0:0:
320,192,90324,1,0,0:0:0:0:
448,192,90414,1,0,0:0:0:0:
320,192,90503,1,0,0:0:0:0:
192,192,90503,1,0,0:0:0:0:
64,192,90682,1,2,0:0:0:0:
320,192,90682,1,2,0:0:0:0:
64,192,90860,1,2,0:0:0:0:
320,192,90860,1,2,0:0:0:0:
320,192,91039,1,2,0:0:0:0:
64,192,91039,1,2,0:0:0:0:
64,192,91217,5,0,0:0:0:0:
320,192,91217,1,0,0:0:0:0:
192,192,91307,1,0,0:0:0:0:
320,192,91396,1,0,0:0:0:0:
448,192,91484,1,0,0:0:0:0:
192,192,91574,1,0,0:0:0:0:
320,192,91574,1,0,0:0:0:0:
64,192,91663,1,0,0:0:0:0:
192,192,91752,1,2,0:0:0:0:
320,192,91752,1,2,0:0:0:0:
320,192,91932,1,2,0:0:0:0:
192,192,91932,1,2,0:0:0:0:
320,192,92110,1,2,0:0:0:0:
192,192,92110,1,2,0:0:0:0:
192,192,92289,1,0,0:0:0:0:
448,192,92289,1,0,0:0:0:0:
320,192,92378,1,0,0:0:0:0:
192,192,92467,1,0,0:0:0:0:
448,192,92467,1,0,0:0:0:0:
64,192,92557,1,0,0:0:0:0:
320,192,92646,1,0,0:0:0:0:
192,192,92646,1,0,0:0:0:0:
320,192,92824,1,2,0:0:0:0:
448,192,92824,1,2,0:0:0:0:
192,192,93003,1,2,0:0:0:0:
64,192,93003,1,2,0:0:0:0:
192,192,93182,1,2,0:0:0:0:
64,192,93182,1,2,0:0:0:0:
320,192,93360,1,0,0:0:0:0:
192,192,93449,1,0,0:0:0:0:
320,192,93538,1,0,0:0:0:0:
64,192,93539,1,0,0:0:0:0:
448,192,93628,1,0,0:0:0:0:
320,192,93717,1,0,0:0:0:0:
192,192,93717,1,0,0:0:0:0:
448,192,93806,1,0,0:0:0:0:
64,192,93895,1,2,0:0:0:0:
192,192,93895,1,2,0:0:0:0:
320,192,94074,1,2,0:0:0:0:
448,192,94074,1,2,0:0:0:0:
192,192,94253,1,2,0:0:0:0:
64,192,94253,1,0,0:0:0:0:
320,192,94432,1,0,0:0:0:0:
192,192,94521,1,0,0:0:0:0:
320,192,94610,1,0,0:0:0:0:
64,192,94610,1,0,0:0:0:0:
448,192,94699,1,0,0:0:0:0:
320,192,94789,1,0,0:0:0:0:
192,192,94789,1,0,0:0:0:0:
320,192,94967,1,2,0:0:0:0:
448,192,94967,1,2,0:0:0:0:
64,192,95146,1,2,0:0:0:0:
192,192,95146,1,2,0:0:0:0:
320,192,95324,1,2,0:0:0:0:
448,192,95324,1,2,0:0:0:0:
320,192,95503,1,0,0:0:0:0:
64,192,95503,1,0,0:0:0:0:
192,192,95592,1,0,0:0:0:0:
320,192,95682,1,0,0:0:0:0:
448,192,95771,1,0,0:0:0:0:
320,192,95860,1,0,0:0:0:0:
192,192,95860,1,0,0:0:0:0:
64,192,96039,1,2,0:0:0:0:
320,192,96039,1,2,0:0:0:0:
448,192,96039,1,2,0:0:0:0:
64,192,96217,1,2,0:0:0:0:
448,192,96217,1,2,0:0:0:0:
192,192,96217,1,2,0:0:0:0:
448,192,96396,1,2,0:0:0:0:
64,192,96396,1,2,0:0:0:0:
320,192,96396,1,2,0:0:0:0:
192,192,96574,1,0,0:0:0:0:
320,192,96664,1,0,0:0:0:0:
192,192,96753,1,0,0:0:0:0:
448,192,96753,1,0,0:0:0:0:
64,192,96842,1,0,0:0:0:0:
320,192,96932,1,0,0:0:0:0:
192,192,96932,1,0,0:0:0:0:
64,192,97110,1,2,0:0:0:0:
448,192,97110,1,2,0:0:0:0:
320,192,97110,1,2,0:0:0:0:
448,192,97289,1,2,0:0:0:0:
64,192,97289,1,2,0:0:0:0:
192,192,97289,1,2,0:0:0:0:
64,192,97467,1,2,0:0:0:0:
448,192,97467,1,2,0:0:0:0:
320,192,97467,1,2,0:0:0:0:
192,192,97646,1,0,0:0:0:0:
448,192,97646,1,0,0:0:0:0:
320,192,97735,1,0,0:0:0:0:
192,192,97824,1,0,0:0:0:0:
64,192,97914,1,0,0:0:0:0:
192,192,98003,1,0,0:0:0:0:
320,192,98003,1,0,0:0:0:0:
320,192,98182,1,2,0:0:0:0:
192,192,98182,1,2,0:0:0:0:
64,192,98182,1,2,0:0:0:0:
64,192,98360,1,2,0:0:0:0:
448,192,98360,1,2,0:0:0:0:
192,192,98360,1,2,0:0:0:0:
448,192,98539,1,2,0:0:0:0:
320,192,98539,1,2,0:0:0:0:
64,192,98539,1,2,0:0:0:0:
64,192,98717,1,0,0:0:0:0:
192,192,98807,1,0,0:0:0:0:
320,192,98896,1,0,0:0:0:0:
448,192,98985,1,0,0:0:0:0:
320,192,99074,1,0,0:0:0:0:
192,192,99074,1,0,0:0:0:0:
192,192,99253,1,2,0:0:0:0:
448,192,99253,1,2,0:0:0:0:
320,192,99253,1,2,0:0:0:0:
64,192,99432,1,2,0:0:0:0:
448,192,99432,1,2,0:0:0:0:
320,192,99432,1,2,0:0:0:0:
448,192,99610,1,2,0:0:0:0:
64,192,99610,1,2,0:0:0:0:
192,192,99610,1,2,0:0:0:0:
448,192,99789,1,0,0:0:0:0:
320,192,99878,1,0,0:0:0:0:
192,192,99967,1,0,0:0:0:0:
64,192,100057,1,0,0:0:0:0:
320,192,100146,1,0,0:0:0:0:
192,192,100146,1,0,0:0:0:0:
64,192,100324,1,2,0:0:0:0:
192,192,100324,1,2,0:0:0:0:
448,192,100324,1,2,0:0:0:0:
448,192,100503,1,2,0:0:0:0:
64,192,100503,1,2,0:0:0:0:
320,192,100503,1,2,0:0:0:0:
64,192,100682,1,2,0:0:0:0:
448,192,100682,1,2,0:0:0:0:
192,192,100682,1,2,0:0:0:0:
448,192,100860,1,0,0:0:0:0:
320,192,100949,1,0,0:0:0:0:
192,192,101039,1,0,0:0:0:0:
64,192,101128,1,0,0:0:0:0:
192,192,101217,1,0,0:0:0:0:
320,192,101217,1,0,0:0:0:0:
448,192,101396,5,2,0:0:0:0:
320,192,101396,1,2,0:0:0:0:
64,192,101396,1,2,0:0:0:0:
192,192,101574,1,2,0:0:0:0:
448,192,101574,1,2,0:0:0:0:
64,192,101574,1,2,0:0:0:0:
64,192,101753,1,2,0:0:0:0:
448,192,101753,1,2,0:0:0:0:
320,192,101753,1,2,0:0:0:0:
320,192,101932,1,0,0:0:0:0:
448,192,102021,1,0,0:0:0:0:
192,192,102110,1,0,0:0:0:0:
320,192,102199,1,0,0:0:0:0:
64,192,102289,1,0,0:0:0:0:
192,192,102289,1,0,0:0:0:0:
448,192,102467,1,2,0:0:0:0:
192,192,102467,1,2,0:0:0:0:
64,192,102467,1,2,0:0:0:0:
448,192,102646,1,2,0:0:0:0:
64,192,102646,1,2,0:0:0:0:
320,192,102646,1,2,0:0:0:0:
448,192,102824,1,2,0:0:0:0:
320,192,102824,1,2,0:0:0:0:
192,192,102824,1,2,0:0:0:0:
448,192,103003,1,0,0:0:0:0:
320,192,103092,1,0,0:0:0:0:
64,192,103182,1,0,0:0:0:0:
192,192,103182,1,0,0:0:0:0:
320,192,103271,1,0,0:0:0:0:
64,192,103360,1,0,0:0:0:0:
448,192,103360,1,0,0:0:0:0:
64,185,103539,1,10,0:0:0:0:
192,185,103539,1,10,0:0:0:0:
320,192,103628,1,0,0:0:0:0:
448,192,103717,1,0,0:0:0:0:
320,192,103807,1,0,0:0:0:0:
192,192,103896,1,0,0:0:0:0:
64,192,103985,1,0,0:0:0:0:
448,192,103985,1,0,0:0:0:0:
320,192,104074,1,0,0:0:0:0:
192,192,104164,1,0,0:0:0:0:
64,192,104253,1,0,0:0:0:0:
448,192,104253,1,0,0:0:0:0:
192,192,104342,1,0,0:0:0:0:
448,192,104432,1,0,0:0:0:0:
320,192,104521,1,0,0:0:0:0:
192,192,104610,1,0,0:0:0:0:
64,192,104699,1,0,0:0:0:0:
192,192,104789,1,0,0:0:0:0:
320,192,104789,1,0,0:0:0:0:
448,192,104878,1,0,0:0:0:0:
320,192,104967,1,0,0:0:0:0:
192,192,105057,1,0,0:0:0:0:
64,192,105146,1,0,0:0:0:0:
448,192,105146,1,0,0:0:0:0:
320,192,105235,1,0,0:0:0:0:
192,192,105324,1,0,0:0:0:0:
448,192,105414,1,0,0:0:0:0:
320,192,105503,1,0,0:0:0:0:
192,192,105592,1,0,0:0:0:0:
64,192,105682,1,0,0:0:0:0:
448,192,105682,1,0,0:0:0:0:
320,192,105771,1,0,0:0:0:0:
192,192,105860,1,0,0:0:0:0:
320,192,105949,1,0,0:0:0:0:
192,192,106039,1,0,0:0:0:0:
64,192,106128,1,0,0:0:0:0:
192,192,106217,1,0,0:0:0:0:
320,192,106307,1,0,0:0:0:0:
448,192,106396,1,0,0:0:0:0:
192,192,106485,1,0,0:0:0:0:
320,192,106574,1,0,0:0:0:0:
448,192,106664,1,0,0:0:0:0:
192,192,106753,1,0,0:0:0:0:
64,192,106753,1,0,0:0:0:0:
448,192,108271,128,0,108896:0:0:0:0:
320,192,108896,1,0,1:0:0:0:
192,192,108896,1,0,1:0:0:0:
