osu file format v14

[General]
AudioFilename: audio.mp3
AudioLeadIn: 0
PreviewTime: -1
Countdown: 0
SampleSet: None
StackLeniency: 0.7
Mode: 0
LetterboxInBreaks: 0
WidescreenStoryboard: 1

[Editor]
Bookmarks: 12891,22211
DistanceSpacing: 1
BeatDivisor: 2
GridSize: 4
TimelineZoom: 1.3

[Metadata]
Title:Steve Madden Walker Commercial
TitleUnicode:Steve Madden Walker Commercial
Artist:Human
ArtistUnicode:Human
Creator:CaffeAmericano
Version:Normal
Source:
Tags:Gareth Williams Drazen Bosnjak Steve Madden
BeatmapID:1174009
BeatmapSetID:554555

[Difficulty]
HPDrainRate:4.5
CircleSize:3.5
OverallDifficulty:4
ApproachRate:5
SliderMultiplier:1
SliderTickRate:1

[Events]
//Background and Video events
//Break Periods
//Storyboard Layer 0 (Background)
//Storyboard Layer 1 (Fail)
//Storyboard Layer 2 (Pass)
//Storyboard Layer 3 (Foreground)
//Storyboard Sound Samples

[TimingPoints]
3571.0029046643,291.26213592233,4,2,1,100,1,0

[HitObjects]
272,160,3571,6,0,L|260:96,2,50
228,248,4153,2,0,P|292:256|336:236,1,100
368,156,4736,2,0,P|415:142|464:152,2,100
272,160,5609,1,0,0:0:0:0:
192,96,5901,6,0,L|204:25,2,50
104,139,6483,2,0,P|75:179|73:229,1,100
112,324,7066,2,0,L|167:314,1,50
208,332,7357,2,0,L|337:309,1,100
404,336,7939,1,0,0:0:0:0:
440,244,8231,6,0,L|450:184,1,50
456,144,8522,2,0,P|408:158|358:157,1,100
272,108,9104,1,0,0:0:0:0:
176,132,9396,2,0,L|105:119,1,50
80,112,9687,2,0,P|40:172|48:236,1,100
124,248,10270,2,0,L|175:238,1,50
216,212,10561,6,0,B|256:264|256:264|308:200|392:228,1,200
464,104,11580,1,0,0:0:0:0:
464,104,11726,2,0,P|360:68|264:112,1,200
96,184,12891,6,0,L|77:290,1,100
168,328,13473,2,0,P|216:304|268:304,1,100
308,316,13910,1,0,0:0:0:0:
356,328,14056,2,0,L|375:217,1,100
423,143,14638,2,0,P|459:178|472:227,1,100
373,229,15221,6,0,L|243:206,1,100
212,132,15804,2,0,L|310:114,1,100
360,108,16240,1,0,0:0:0:0:
408,96,16386,2,0,P|376:48|316:36,1,100
240,44,16969,2,0,L|141:26,1,100
60,88,17551,6,0,L|47:158,1,50
16,176,17842,2,0,L|34:278,1,100
132,296,18425,2,0,L|140:246,1,50
144,196,18716,2,0,P|204:232|260:236,1,100
324,200,19299,1,0,0:0:0:0:
408,256,19590,1,0,0:0:0:0:
472,180,19881,6,0,L|460:113,1,50
456,79,20172,2,0,P|408:100|344:96,1,100
264,72,20755,1,0,0:0:0:0:
188,136,21046,2,0,L|198:195,2,50
112,68,21629,2,0,L|122:8,2,50
52,148,22211,5,0,0:0:0:0:
108,232,22503,1,0,0:0:0:0:
60,320,22794,1,0,0:0:0:0:
156,348,23085,2,0,L|222:336,1,50
256,328,23376,2,0,P|272:248|248:192,1,100
236,192,23813,1,0,0:0:0:0:
208,148,23959,2,0,P|206:97|233:48,1,100
304,120,24541,6,0,L|374:107,1,50
404,100,24833,1,0,0:0:0:0:
484,160,25124,1,0,0:0:0:0:
412,228,25415,2,0,L|423:294,1,50
428,328,25706,2,0,P|380:312|331:314,1,100
288,328,26143,1,0,0:0:0:0:
244,348,26289,2,0,P|194:350|147:334,1,100
76,264,26871,6,0,L|87:200,1,50
96,164,27163,1,0,0:0:0:0:
188,204,27454,1,0,0:0:0:0:
256,192,27745,12,0,30512,0:0:0:0:
