osu file format v14

[General]
AudioFilename: HujuniseikouyuuP - Uragiri no dangan.mp3
AudioLeadIn: 1500
PreviewTime: 59514
Countdown: 0
SampleSet: None
StackLeniency: 0.7
Mode: 0
LetterboxInBreaks: 1
WidescreenStoryboard: 0

[Editor]
DistanceSpacing: 1.2
BeatDivisor: 4
GridSize: 4
TimelineZoom: 2.999999

[Metadata]
Title:Uragiri No Dangan
TitleUnicode:Uragiri No Dangan
Artist:HujuniseikouyuuP
ArtistUnicode:HujuniseikouyuuP
Creator:Poggo
Version:Extra Collab
Source:
Tags:
BeatmapID:1068053
BeatmapSetID:501891

[Difficulty]
HPDrainRate:7
CircleSize:4
OverallDifficulty:8
ApproachRate:9.6
SliderMultiplier:2
SliderTickRate:1

[Events]
//Background and Video events
0,0,"16295_1_other_anime_vocaloid_hatsune_miku_vocaloid_hatsune_miku.jpg",0,0
//Break Periods
2,21407,40390
2,60638,89159
2,119868,139005
2,160638,179621
2,200022,221467
//Storyboard Layer 0 (Background)
//Storyboard Layer 1 (Fail)
//Storyboard Layer 2 (Pass)
//Storyboard Layer 3 (Foreground)
//Storyboard Sound Samples

[TimingPoints]
438,307.692307692308,4,1,1,65,1,0
40899,-133.333333333333,4,1,1,65,0,0
45976,-100,4,1,1,55,0,0
58284,-100,4,1,1,25,0,0
58438,-100,4,1,1,30,0,0
58591,-100,4,1,1,35,0,0
58745,-100,4,1,1,40,0,0
58899,-100,4,1,1,45,0,0
59053,-100,4,1,1,50,0,0
59207,-100,4,1,1,55,0,0
59361,-100,4,1,1,60,0,0
59822,-100,4,1,1,35,0,0
60130,-100,4,1,1,45,0,0
60438,-100,4,1,1,55,0,0
60745,-86.9565217391304,4,1,1,55,0,1
81668,-100,4,1,1,55,0,0
89668,-100,4,1,1,65,0,0
89668,-100,4,1,1,45,0,0
89822,-100,4,1,1,50,0,0
89976,-100,4,1,1,55,0,0
90130,-100,4,1,1,60,0,0
90284,-100,4,1,1,65,0,0
100130,-100,4,1,1,55,0,0
139514,-86.9565217391304,4,1,1,65,0,1
159207,-100,4,1,1,65,0,0
180130,-100,4,1,1,55,0,0
197361,-100,4,1,1,35,0,0
197514,-100,4,1,1,40,0,0
197668,-100,4,1,1,45,0,0
197822,-100,4,1,1,50,0,0
197976,-100,4,1,1,55,0,0
198130,-100,4,1,1,60,0,0
198284,-100,4,1,1,65,0,0
198438,-100,4,1,1,70,0,0
198591,-100,4,1,1,30,0,0
198899,-100,4,1,1,40,0,0
199207,-100,4,1,1,50,0,0
199514,-100,4,1,1,60,0,0
199822,-86.9565217391304,4,1,1,65,0,1
224130,-100,4,1,1,65,0,0

[Colours]
Combo1 : 128,255,255
Combo2 : 72,217,0
Combo3 : 0,0,255
Combo4 : 0,240,186

[HitObjects]
424,332,438,5,4,0:0:0:0:
420,312,745,5,4,0:0:0:0:
416,292,1053,5,0,0:0:0:0:
428,259,1130,1,0,0:0:0:0:
432,224,1207,1,0,0:0:0:0:
429,189,1284,1,0,0:0:0:0:
417,156,1361,1,0,0:0:0:0:
399,126,1438,1,0,0:0:0:0:
375,102,1514,1,0,0:0:0:0:
236,48,1668,6,0,P|180:60|124:36,1,100,4|0,0:0|0:0,0:0:0:0:
72,336,1976,2,0,P|128:324|184:348,1,100,8|0,0:0|0:0,0:0:0:0:
288,332,2284,1,0,0:0:0:0:
408,352,2438,1,0,0:0:0:0:
276,228,2591,1,8,0:0:0:0:
464,160,2745,1,0,0:0:0:0:
324,24,2899,6,0,P|377:32|406:72,1,100
316,148,3207,2,0,P|348:192|340:240,1,100,8|0,0:0|0:0,0:0:0:0:
224,224,3514,2,0,P|215:277|175:306,1,100,2|0,0:0|0:0,0:0:0:0:
80,84,3822,1,10,0:0:0:0:
148,316,3976,1,0,0:0:0:0:
120,76,4130,6,0,P|168:80|220:40,1,100
332,44,4438,1,8,0:0:0:0:
216,20,4591,1,0,0:0:0:0:
480,148,4745,2,0,P|432:144|380:184,1,100
268,180,5053,1,8,0:0:0:0:
384,204,5207,1,0,0:0:0:0:
352,320,5361,6,0,L|240:340,1,100
160,64,5668,2,0,L|272:44,1,100,8|0,0:0|0:0,0:0:0:0:
188,276,5976,1,2,0:0:0:0:
60,200,6130,1,0,0:0:0:0:
140,352,6284,1,10,0:0:0:0:
104,120,6438,1,0,0:0:0:0:
228,352,6591,6,0,P|280:336|336:368,1,100
480,192,6899,2,0,L|368:192,1,100,8|0,0:0|0:0,0:0:0:0:
228,32,7207,2,0,P|280:48|336:16,1,100
432,76,7514,1,8,0:0:0:0:
388,188,7668,1,0,0:0:0:0:
432,308,7822,5,0,0:0:0:0:
312,288,7976,2,0,P|256:264|196:288,1,100,0|8,0:0|0:0,0:0:0:0:
44,92,8284,2,0,P|100:116|160:92,1,100,0|2,0:0|0:0,0:0:0:0:
248,148,8591,1,0,0:0:0:0:
92,248,8745,1,10,0:0:0:0:
224,52,8899,1,0,0:0:0:0:
144,336,9053,6,0,L|252:368,1,100
452,252,9361,2,0,L|344:284,1,100,8|0,0:0|0:0,0:0:0:0:
140,156,9668,2,0,L|248:188,1,100
448,72,9976,2,0,L|340:104,1,100,8|0,0:0|0:0,0:0:0:0:
248,36,10284,5,0,0:0:0:0:
220,152,10438,1,0,0:0:0:0:
124,80,10591,1,8,0:0:0:0:
100,200,10745,1,8,0:0:0:0:
111,248,10822,1,0,0:0:0:0:
142,286,10899,1,8,0:0:0:0:
187,309,10976,1,0,0:0:0:0:
236,310,11053,1,8,0:0:0:0:
284,288,11130,1,0,0:0:0:0:
326,262,11207,1,8,0:0:0:0:
376,257,11284,1,0,0:0:0:0:
422,274,11361,1,8,0:0:0:0:
458,309,11438,1,0,0:0:0:0:
468,356,11514,6,0,P|496:324|504:264,1,100,4|0,0:0|0:0,0:0:0:0:
392,56,11822,2,0,P|364:88|356:148,1,100,8|0,0:0|0:0,0:0:0:0:
120,56,12130,2,0,P|148:88|156:148,1,100
44,356,12438,2,0,P|16:324|8:264,1,100,8|0,0:0|0:0,0:0:0:0:
108,276,12745,5,0,0:0:0:0:
256,76,12899,1,0,0:0:0:0:
404,276,13053,1,10,0:0:0:0:
104,124,13207,1,0,0:0:0:0:
256,324,13361,1,2,0:0:0:0:
408,124,13514,1,0,0:0:0:0:
404,276,13668,2,0,L|312:212,1,100,10|4,0:0|0:0,0:0:0:0:
184,140,13976,6,0,P|176:88|128:36,1,100
204,264,14284,2,0,P|152:272|100:320,1,100,8|0,0:0|0:0,0:0:0:0:
328,244,14591,2,0,P|336:296|384:348,1,100
308,120,14899,2,0,P|360:112|420:36,1,150,8|0,0:0|0:0,0:0:0:0:
440,24,15207,6,0,L|472:136,1,100
512,220,15514,1,8,0:0:0:0:
440,300,15668,1,2,0:0:0:0:
440,300,15976,1,2,0:0:0:0:
392,200,16130,2,0,B|340:200|340:200|296:240,1,100,10|0,0:0|0:0,0:0:0:0:
120,332,16438,6,0,B|172:332|172:332|216:292,1,100
88,308,16745,1,8,0:0:0:0:
208,260,16899,1,0,0:0:0:0:
168,52,17053,2,0,B|116:52|116:52|72:92,1,100
200,76,17361,1,8,0:0:0:0:
80,124,17514,1,0,0:0:0:0:
344,52,17668,6,0,B|396:52|396:52|440:92,1,100
312,76,17976,1,8,0:0:0:0:
432,124,18130,1,0,0:0:0:0:
344,332,18284,2,0,B|396:332|396:332|440:292,1,100,2|0,0:0|0:0,0:0:0:0:
312,308,18591,1,10,0:0:0:0:
432,260,18745,1,0,0:0:0:0:
332,192,18899,6,0,L|196:192,1,100
72,328,19207,2,0,L|188:328,1,100,8|0,0:0|0:0,0:0:0:0:
148,164,19514,1,0,0:0:0:0:
260,360,19668,1,0,0:0:0:0:
104,244,19822,1,8,0:0:0:0:
304,280,19976,1,0,0:0:0:0:
72,328,20130,6,0,P|28:288|24:232,1,100,4|8,0:0|0:0,0:0:0:0:
128,36,20591,1,8,0:0:0:0:
256,240,20899,1,8,0:0:0:0:
384,36,21207,1,8,0:0:0:0:
440,296,40899,6,0,P|360:364|264:316,1,225.000008583069,4|8,0:2|0:0,0:0:0:0:
196,260,41514,1,0,0:0:0:0:
180,172,41668,1,0,0:0:0:0:
216,92,41822,1,0,0:0:0:0:
304,68,41976,2,0,L|408:64,1,75.0000028610231,8|0,0:0|0:0,0:0:0:0:
464,172,42284,6,0,L|360:168,1,75.0000028610231
304,280,42591,2,0,P|384:268|448:328,2,150.000005722046,8|4|8,0:0|0:2|0:0,0:0:0:0:
180,300,43361,1,0,0:0:0:0:
112,200,43514,5,0,0:0:0:0:
132,68,43668,1,0,0:0:0:0:
248,140,43822,1,8,0:0:0:0:
312,20,43976,1,0,0:0:0:0:
408,116,44130,2,0,P|436:160|428:204,1,75.0000028610231,4|0,0:2|0:0,0:0:0:0:
384,308,44438,2,0,P|356:264|364:220,1,75.0000028610231,8|0,0:0|0:0,0:0:0:0:
248,140,44745,6,0,P|232:96|184:68,1,75.0000028610231
204,200,45053,2,0,P|160:216|132:264,1,75.0000028610231,8|0,0:0|0:0,0:0:0:0:
264,244,45361,2,0,P|280:288|328:316,1,75.0000028610231,4|0,0:2|0:0,0:0:0:0:
308,184,45668,2,0,P|352:168|384:92,1,112.500004291535,8|0,0:0|0:0,0:0:0:0:
392,76,45976,6,0,L|496:56,1,100,4|0,0:2|0:0,0:0:0:0:
480,236,46284,1,8,0:0:0:0:
340,124,46438,1,0,0:0:0:0:
376,300,46591,1,0,0:0:0:0:
364,300,46899,2,0,P|268:332|224:304,1,150,8|0,0:0|0:0,0:0:0:0:
212,296,47207,6,0,P|168:260|120:256,1,100,4|0,0:2|0:0,0:0:0:0:
96,76,47514,1,8,0:0:0:0:
244,176,47668,1,0,0:0:0:0:
352,32,47822,1,0,0:0:0:0:
364,36,48130,2,0,B|408:72|408:72|404:112|424:172,1,150,8|0,0:0|0:0,0:0:0:0:
432,184,48438,6,0,L|420:304,1,100,4|0,0:2|0:0,0:0:0:0:
256,220,48745,1,8,0:0:0:0:
89,283,48899,2,0,L|80:184,1,100
256,20,49361,2,0,P|296:56|404:44,1,150,8|0,0:0|0:0,0:0:0:0:
408,48,49668,6,0,L|400:148,1,100,4|0,0:2|0:0,0:0:0:0:
336,252,49976,1,8,0:0:0:0:
205,347,50130,1,0,0:0:0:0:
255,193,50284,1,0,0:0:0:0:
305,347,50438,1,0,0:0:0:0:
174,251,50591,2,0,L|100:176,1,100,8|0,0:0|0:0,0:0:0:0:
140,64,50899,6,0,P|188:48|252:64,1,100,4|0,0:2|0:0,0:0:0:0:
412,100,51207,2,0,P|364:116|300:100,1,100,8|0,0:0|0:0,0:0:0:0:
196,140,51514,1,0,0:0:0:0:
360,28,51668,1,0,0:0:0:0:
140,64,51822,1,8,0:0:0:0:
412,100,51976,1,0,0:0:0:0:
340,264,52130,5,0,0:0:0:0:
196,140,52284,2,0,P|184:200|204:240,1,100,0|8,0:0|0:0,0:0:0:0:
457,178,52591,2,0,P|450:130|412:100,1,100
296,64,52899,1,0,0:0:0:0:
280,196,53053,2,0,P|229:246|173:232,1,100,8|4,0:0|0:2,0:0:0:0:
196,140,53361,6,0,P|224:92|288:92,1,100
340,176,53668,2,0,P|393:161|438:207,1,100,8|0,0:0|0:0,0:0:0:0:
416,304,53976,2,0,P|464:332|464:396,2,100,0|0|8,0:0|0:0|0:0,0:0:0:0:
300,336,54438,1,0,0:0:0:0:
216,252,54591,5,0,0:0:0:0:
104,204,54745,1,0,0:0:0:0:
284,184,54899,1,8,0:0:0:0:
112,116,55053,1,0,0:0:0:0:
344,116,55207,1,0,0:0:0:0:
120,28,55361,1,0,0:0:0:0:
404,52,55514,1,8,0:0:0:0:
472,140,55668,1,4,0:2:0:0:
392,212,55822,6,0,P|376:268|380:316,1,100
133,309,56130,2,0,P|135:259|120:212,1,100,8|0,0:0|0:0,0:0:0:0:
180,56,56438,2,0,P|256:108|336:52,1,200,0|8,0:0|0:0,0:0:0:0:
256,12,56899,1,0,0:0:0:0:
256,200,57053,6,0,P|272:276|304:292,1,100,4|0,0:2|0:0,0:0:0:0:
311,375,57361,2,0,P|378:307|352:216,1,200,8|0,0:0|0:0,0:0:0:0:
324,100,57822,1,0,0:0:0:0:
256,200,57976,1,8,0:0:0:0:
188,100,58130,1,0,0:0:0:0:
84,184,58284,5,8,0:0:0:0:
73,227,58361,1,0,0:0:0:0:
80,271,58438,1,8,0:0:0:0:
105,308,58514,1,0,0:0:0:0:
143,332,58591,1,8,0:0:0:0:
187,339,58668,1,0,0:0:0:0:
230,327,58745,1,8,0:0:0:0:
265,300,58822,1,0,0:0:0:0:
288,260,58899,1,8,0:0:0:0:
306,219,58976,1,0,0:0:0:0:
339,189,59053,1,8,0:0:0:0:
382,175,59130,1,0,0:0:0:0:
426,180,59207,1,8,0:0:0:0:
465,201,59284,1,0,0:0:0:0:
492,237,59361,1,8,0:0:0:0:
502,281,59438,1,0,0:0:0:0:
492,324,59514,5,4,0:0:0:0:
180,228,59822,1,2,0:2:0:0:
396,284,60130,1,2,0:2:0:0:
344,64,60438,1,2,0:2:0:0:
448,312,89668,5,8,0:0:0:0:
413,325,89745,1,0,0:0:0:0:
375,327,89822,1,8,0:0:0:0:
339,318,89899,1,0,0:0:0:0:
307,299,89976,1,8,0:0:0:0:
282,271,90053,1,0,0:0:0:0:
267,237,90130,1,8,0:0:0:0:
263,200,90207,1,0,0:0:0:0:
272,164,90284,6,0,P|304:116|372:112,1,100
152,64,90591,2,0,P|120:112|52:116,1,100,8|0,0:0|0:0,0:0:0:0:
104,320,90899,2,0,P|128:277|174:261,1,100
252,340,91207,1,8,0:0:0:0:
328,260,91361,1,0,0:0:0:0:
436,264,91514,6,0,L|480:160,1,100
152,64,91822,2,0,P|152:128|184:164,1,100,8|0,0:0|0:0,0:0:0:0:
339,155,92130,2,0,P|364:112|360:64,1,100,2|0,0:0|0:0,0:0:0:0:
37,171,92438,2,0,L|76:264,1,100,10|0,0:0|0:0,0:0:0:0:
236,312,92745,5,4,0:0:0:0:
344,324,92899,1,0,0:0:0:0:
224,208,93053,1,8,0:0:0:0:
376,144,93207,1,0,0:0:0:0:
216,108,93361,2,0,P|168:80|120:96,1,100
148,200,93668,2,0,P|94:214|71:259,1,100,8|0,0:0|0:0,0:0:0:0:
164,308,93976,5,0,0:0:0:0:
344,324,94130,1,0,0:0:0:0:
376,144,94284,1,8,0:0:0:0:
196,128,94438,1,2,0:0:0:0:
268,224,94745,1,2,0:0:0:0:
268,224,95053,1,2,0:0:0:0:
344,324,95207,6,0,L|452:268,1,100,4|0,0:0|0:0,0:0:0:0:
268,224,95514,2,0,L|160:168,1,100,8|0,0:0|0:0,0:0:0:0:
388,160,95822,2,0,L|496:104,1,100
312,60,96130,2,0,L|204:4,1,100,8|0,0:0|0:0,0:0:0:0:
136,84,96438,5,0,0:0:0:0:
92,184,96591,1,0,0:0:0:0:
132,288,96745,2,0,P|200:292|244:348,1,100,8|0,0:0|0:0,0:0:0:0:
380,288,97053,1,2,0:0:0:0:
404,136,97207,1,0,0:0:0:0:
256,208,97361,1,10,0:0:0:0:
108,136,97514,1,0,0:0:0:0:
132,288,97668,5,4,0:0:0:0:
236,320,97822,1,0,0:0:0:0:
132,268,97976,5,8,0:0:0:0:
268,236,98130,1,0,0:0:0:0:
132,252,98284,5,8,0:0:0:0:
264,148,98438,1,0,0:0:0:0:
132,236,98591,5,8,0:0:0:0:
240,68,98745,1,0,0:0:0:0:
132,216,98899,6,0,L|56:140,1,100,4|8,0:0|0:0,0:0:0:0:
404,44,99361,1,8,0:0:0:0:
108,44,99668,1,8,0:0:0:0:
380,216,99976,1,8,0:0:0:0:
256,328,100130,6,0,P|176:336|96:208,1,200,4|8,0:2|0:2,0:0:0:0:
92,144,100591,1,0,0:0:0:0:
168,68,100745,2,0,B|240:36|240:36|284:88|376:68,1,200,0|8,0:0|0:2,0:0:0:0:
444,128,101207,1,0,0:0:0:0:
380,216,101361,5,0,0:3:0:0:
306,360,101514,1,0,0:3:0:0:
281,200,101668,1,8,0:2:0:0:
396,315,101822,1,0,0:3:0:0:
236,289,101976,1,0,0:3:0:0:
44,56,102284,2,0,B|88:36|88:36|168:52,1,100,8|0,0:2|0:0,0:0:0:0:
248,72,102591,6,0,P|296:100|368:64,1,100,4|0,0:2|0:0,0:0:0:0:
192,160,102899,2,0,P|144:188|72:152,1,100,8|0,0:2|0:0,0:0:0:0:
256,240,103207,2,0,P|304:268|376:232,1,100
200,328,103514,2,0,P|152:356|80:320,1,100,8|0,0:2|0:0,0:0:0:0:
64,260,103822,5,0,0:0:0:0:
156,220,103976,1,0,0:0:0:0:
88,148,104130,1,8,0:2:0:0:
180,108,104284,1,0,0:0:0:0:
108,36,104438,1,0,0:0:0:0:
204,4,104591,2,0,P|252:28|276:84,1,100,4|12,0:2|0:2,0:0:0:0:
300,216,104899,1,0,0:0:0:0:
420,124,105053,6,0,B|460:140|496:124|496:124|464:176|496:268,2,200,0|8|0,0:0|0:2|0:0,0:0:0:0:
384,216,105822,1,0,0:0:0:0:
288,188,105976,1,8,0:2:0:0:
244,276,106130,1,0,0:0:0:0:
152,240,106284,6,0,P|96:236|140:136,1,200,0|8,0:0|0:2,0:0:0:0:
220,16,106745,1,0,0:0:0:0:
324,124,106899,1,0,0:0:0:0:
432,20,107053,1,0,0:0:0:0:
220,188,107207,1,8,0:2:0:0:
420,192,107361,1,4,0:2:0:0:
324,24,107514,6,0,L|324:244,1,200,0|8,0:0|0:2,0:0:0:0:
256,296,107976,1,0,0:0:0:0:
156,300,108130,2,0,P|96:252|108:120,1,200,0|8,0:0|0:2,0:0:0:0:
152,52,108591,1,0,0:0:0:0:
248,24,108745,6,0,P|308:16|368:56,1,100,2|0,0:2|0:0,0:0:0:0:
280,140,109053,2,0,P|328:176|342:247,1,100,2|0,0:2|0:0,0:0:0:0:
200,236,109361,2,0,P|208:296|168:356,1,100,2|0,0:2|0:0,0:0:0:0:
88,260,109668,2,0,P|51:308|-19:322,1,100,2|4,0:2|0:2,0:0:0:0:
43,154,109976,6,0,P|140:159|200:236,1,200,0|8,0:0|0:2,0:0:0:0:
256,332,110438,1,0,0:0:0:0:
312,235,110591,2,0,P|371:159|468:154,1,200,0|8,0:0|0:2,0:0:0:0:
424,260,111053,1,0,0:0:0:0:
424,260,111207,6,0,P|460:308|531:322,2,100,0|0|8,0:0|0:0|0:2,0:0:0:0:
256,156,111668,2,0,L|256:272,1,100
87,259,111976,2,0,P|59:301|14:322,2,100,0|8|4,0:0|0:2|0:2,0:0:0:0:
132,96,112438,5,0,0:0:0:0:
236,64,112591,1,0,0:0:0:0:
132,116,112745,5,8,0:2:0:0:
268,148,112899,1,0,0:0:0:0:
132,132,113053,5,0,0:0:0:0:
264,236,113207,1,0,0:0:0:0:
132,148,113361,5,8,0:2:0:0:
240,316,113514,1,0,0:0:0:0:
132,168,113668,6,0,P|96:196|80:264,1,100
337,350,113976,2,0,P|331:301|340:252,1,100,8|0,0:2|0:0,0:0:0:0:
172,252,114284,2,0,P|180:309|172:359,1,100
433,246,114591,2,0,P|418:199|380:168,1,100,8|4,0:2|0:2,0:0:0:0:
256,236,114899,6,0,L|256:28,1,200,0|8,0:0|0:2,0:0:0:0:
148,64,115361,1,0,0:0:0:0:
43,89,115514,1,0,0:0:0:0:
133,151,115668,1,0,0:0:0:0:
29,177,115822,1,8,0:2:0:0:
120,240,115976,1,0,0:0:0:0:
12,264,116130,6,0,P|32:328|76:356,1,100
160,316,116438,1,8,0:2:0:0:
256,364,116591,1,0,0:0:0:0:
352,316,116745,1,0,0:0:0:0:
456,347,116899,2,0,P|490:312|500:264,2,100,0|8|0,0:0|0:2|0:0,0:0:0:0:
320,220,117361,6,0,P|348:148|468:140,2,200,0|8|0,0:0|0:2|0:0,0:0:0:0:
416,224,118130,1,0,0:0:0:0:
260,136,118284,1,0,0:0:0:0:
284,304,118438,1,0,0:0:0:0:
68,68,118745,6,0,L|28:28,2,50,8|0|0,0:0|0:0|0:0,0:0:0:0:
80,152,119053,1,8,0:0:0:0:
104,232,119207,1,0,0:0:0:0:
156,296,119361,1,8,0:0:0:0:
232,328,119514,1,0,0:0:0:0:
316,328,119668,1,8,0:0:0:0:
380,48,139514,6,0,P|440:84|444:252,1,230.000004386902,4|8,0:0|0:0,0:0:0:0:
344,172,139976,1,0,0:0:0:0:
256,340,140130,1,0,0:0:0:0:
168,172,140284,1,0,0:0:0:0:
372,284,140438,1,8,0:0:0:0:
140,284,140591,1,0,0:0:0:0:
132,48,140745,6,0,P|72:84|68:252,1,230.000004386902,0|8,0:0|0:0,0:0:0:0:
200,356,141207,1,0,0:0:0:0:
200,356,141284,1,0,0:0:0:0:
200,356,141361,1,0,0:0:0:0:
372,284,141514,2,0,L|416:168,2,115.000002193451,0|8|0,0:0|0:0|0:0,0:0:0:0:
140,100,141976,6,0,L|96:216,1,115.000002193451
200,284,142284,1,8,0:0:0:0:
309,133,142438,1,0,0:0:0:0:
309,319,142591,1,0,0:0:0:0:
200,168,142745,1,0,0:0:0:0:
376,226,142899,2,0,P|408:176|408:96,1,115.000002193451,8|0,0:0|0:0,0:0:0:0:
316,40,143207,5,0,0:0:0:0:
140,100,143361,1,0,0:0:0:0:
309,133,143514,1,8,0:0:0:0:
200,168,143668,1,0,0:0:0:0:
309,319,143822,1,0,0:0:0:0:
309,319,143899,1,0,0:0:0:0:
309,319,143976,1,0,0:0:0:0:
412,160,144130,1,8,0:0:0:0:
240,84,144284,1,4,0:2:0:0:
124,236,144438,6,0,P|112:320|240:280,1,230.000004386902,0|8,0:0|0:0,0:0:0:0:
292,216,144899,2,0,P|352:232|392:276,1,115.000002193451
412,80,145207,2,0,P|352:64|312:20,2,115.000002193451,0|8|4,0:0|0:0|0:2,0:0:0:0:
100,304,145822,6,0,P|160:320|200:364,2,115.000002193451,0|8|0,0:0|0:0|0:0,0:0:0:0:
220,168,146284,2,0,P|160:152|120:108,1,115.000002193451
232,28,146591,1,8,0:0:0:0:
316,216,146745,1,4,0:2:0:0:
460,64,146899,6,0,L|440:184,1,115.000002193451
334,329,147207,2,0,L|315:215,1,115.000002193451,8|0,0:0|0:0,0:0:0:0:
460,64,147514,1,8,0:0:0:0:
52,64,147822,2,0,L|72:184,1,115.000002193451,8|4,0:0|0:2,0:0:0:0:
178,329,148130,6,0,L|196:215,1,115.000002193451
52,64,148438,1,8,0:0:0:0:
208,52,148591,1,0,0:0:0:0:
40,227,148745,1,0,0:0:0:0:
196,215,148899,1,0,0:0:0:0:
256,340,149053,1,8,0:0:0:0:
311,353,149130,1,0,0:0:0:0:
365,336,149207,1,8,0:0:0:0:
404,294,149284,1,0,0:0:0:0:
412,236,149361,6,0,P|400:160|420:84,1,115.000002193451,4|0,0:2|0:0,0:0:0:0:
106,122,149668,2,0,P|111:179|100:236,1,115.000002193451,8|0,0:0|0:0,0:0:0:0:
256,340,149976,1,0,0:0:0:0:
308,120,150130,1,0,0:0:0:0:
256,340,150284,1,8,0:0:0:0:
204,120,150438,1,4,0:2:0:0:
328,272,150591,5,0,0:0:0:0:
328,272,150745,2,0,P|264:236|160:328,1,230.000004386902
100,228,151207,2,0,P|144:180|200:148,1,115.000002193451
412,228,151514,2,0,P|368:180|312:148,1,115.000002193451,8|4,0:0|0:2,0:0:0:0:
256,32,151822,5,0,0:0:0:0:
194,207,151976,1,0,0:0:0:0:
352,100,152130,1,8,0:0:0:0:
166,97,152284,1,0,0:0:0:0:
320,204,152438,2,0,P|328:272|468:304,1,230.000004386902,0|8,0:0|0:0,0:0:0:0:
472,168,152899,1,4,0:2:0:0:
352,100,153053,6,0,P|277:43|165:99,1,230.000004386902,0|8,0:0|0:0,0:0:0:0:
48,172,153514,1,0,0:0:0:0:
184,204,153668,1,0,0:0:0:0:
68,276,153822,1,0,0:0:0:0:
204,308,153976,2,0,P|276:312|344:352,1,115.000002193451,8|4,0:0|0:2,0:0:0:0:
445,214,154284,6,0,B|408:168|428:104|428:104|396:36|343:40,1,230.000004386902,0|8,0:0|0:0,0:0:0:0:
256,148,154745,1,0,0:0:0:0:
172,36,154899,1,0,0:0:0:0:
100,64,155053,1,0,0:0:0:0:
140,128,155207,1,8,0:0:0:0:
68,152,155361,1,0,0:0:0:0:
444,232,155668,5,0,0:0:0:0:
372,256,155822,1,0,0:0:0:0:
412,320,155976,1,4,0:2:0:0:
100,320,156284,5,0,0:0:0:0:
140,256,156438,1,8,0:0:0:0:
68,232,156591,1,4,0:2:0:0:
96,160,156745,6,0,P|140:80|284:120,1,230.000004386902,0|8,0:0|0:0,0:0:0:0:
216,220,157207,1,0,0:0:0:0:
300,328,157361,1,0,0:0:0:0:
396,232,157514,2,0,P|416:168|396:80,2,115.000002193451,0|8|4,0:0|0:0|0:2,0:0:0:0:
300,328,157976,6,0,L|176:344,1,115.000002193451
40,192,158284,2,0,L|164:208,1,115.000002193451,8|0,0:0|0:0,0:0:0:0:
288,44,158591,2,0,L|164:60,1,115.000002193451
40,192,158899,1,8,0:0:0:0:
55,246,158976,1,0,0:0:0:0:
94,288,159053,1,8,0:0:0:0:
148,306,159130,1,0,0:0:0:0:
204,297,159207,5,4,0:0:0:0:
256,192,159284,12,0,160438,0:0:0:0:
152,52,180130,6,0,B|112:144|112:144|204:188|192:328,1,300,4|0,0:0|0:0,0:0:0:0:
296,352,180745,1,0,0:0:0:0:
388,292,180899,1,0,0:0:0:0:
328,200,181053,1,8,0:0:0:0:
404,120,181207,1,0,0:0:0:0:
348,24,181361,6,0,P|284:20|240:48,1,100
69,139,181668,2,0,P|111:90|162:79,1,100,8|0,0:0|0:0,0:0:0:0:
320,124,181976,2,0,P|268:152|252:196,1,100
160,190,182284,2,0,P|216:173|258:192,1,100,8|0,0:0|0:0,0:0:0:0:
348,231,182591,6,0,P|303:312|212:292,2,200,0|8|0,0:0|0:0|0:0,0:0:0:0:
244,176,183361,1,0,0:0:0:0:
208,64,183514,1,8,0:0:0:0:
76,84,183668,1,0,0:0:0:0:
52,216,183822,6,0,P|48:284|80:312,1,100
172,272,184130,2,0,P|217:322|259:320,1,100,8|0,0:0|0:0,0:0:0:0:
300,228,184438,2,0,P|368:232|396:200,1,100
355,107,184745,2,0,P|405:61|403:19,1,100,8|0,0:0|0:0,0:0:0:0:
396,8,184976,1,0,0:0:0:0:
366,3,185053,5,8,0:0:0:0:
336,4,185130,1,0,0:0:0:0:
306,8,185207,1,0,0:0:0:0:
278,18,185284,1,0,0:0:0:0:
251,31,185361,1,8,0:0:0:0:
227,49,185438,1,0,0:0:0:0:
205,70,185514,1,0,0:0:0:0:
187,94,185591,1,0,0:0:0:0:
176,120,185668,1,8,0:0:0:0:
205,123,185745,1,0,0:0:0:0:
233,134,185822,1,0,0:0:0:0:
257,152,185899,1,0,0:0:0:0:
284,168,185976,2,2,P|308:228|264:296,1,150,8|0,0:0|0:0,0:0:0:0:
240,316,186284,5,8,0:0:0:0:
210,321,186361,1,0,0:0:0:0:
180,321,186438,1,0,0:0:0:0:
151,314,186514,1,0,0:0:0:0:
124,302,186591,1,8,0:0:0:0:
100,284,186668,1,0,0:0:0:0:
79,262,186745,1,0,0:0:0:0:
64,236,186822,1,0,0:0:0:0:
55,208,186899,1,8,0:0:0:0:
52,178,186976,1,0,0:0:0:0:
54,148,187053,1,0,0:0:0:0:
63,119,187130,1,0,0:0:0:0:
76,92,187207,2,2,P|120:52|224:60,1,150,8|0,0:0|0:0,0:0:0:0:
232,68,187514,5,8,0:0:0:0:
244,95,187591,1,0,0:0:0:0:
258,121,187668,1,0,0:0:0:0:
273,147,187745,1,0,0:0:0:0:
290,172,187822,1,8,0:0:0:0:
308,196,187899,1,0,0:0:0:0:
332,176,187976,1,0,0:0:0:0:
356,158,188053,1,0,0:0:0:0:
383,145,188130,1,8,0:0:0:0:
411,135,188207,1,0,0:0:0:0:
440,129,188284,1,0,0:0:0:0:
472,127,188361,1,0,0:0:0:0:
500,131,188438,2,2,L|464:311,1,150,8|0,0:0|0:0,0:0:0:0:
460,307,188745,5,8,0:0:0:0:
435,290,188822,1,0,0:0:0:0:
408,277,188899,1,0,0:0:0:0:
380,267,188976,1,0,0:0:0:0:
351,260,189053,1,8,0:0:0:0:
321,257,189130,1,0,0:0:0:0:
291,258,189207,1,0,0:0:0:0:
261,263,189284,1,0,0:0:0:0:
232,271,189361,1,8,0:0:0:0:
205,282,189438,1,0,0:0:0:0:
179,297,189514,1,0,0:0:0:0:
155,315,189591,1,0,0:0:0:0:
136,339,189668,2,2,P|136:275|72:179,1,150,8|0,0:0|0:0,0:0:0:0:
80,175,189976,5,8,0:0:0:0:
94,148,190053,1,0,0:0:0:0:
112,124,190130,1,0,0:0:0:0:
133,103,190207,1,0,0:0:0:0:
158,86,190284,1,8,0:0:0:0:
185,73,190361,1,0,0:0:0:0:
214,65,190438,1,0,0:0:0:0:
243,61,190514,1,0,0:0:0:0:
273,62,190591,1,8,0:0:0:0:
303,67,190668,1,0,0:0:0:0:
331,77,190745,1,0,0:0:0:0:
357,92,190822,1,0,0:0:0:0:
381,110,190899,1,8,0:0:0:0:
401,132,190976,1,0,0:0:0:0:
420,156,191053,6,2,P|372:228|436:344,1,200,0|8,0:0|0:0,0:0:0:0:
432,348,191438,1,0,0:0:0:0:
460,352,191514,1,8,0:0:0:0:
488,236,191668,1,0,0:0:0:0:
324,308,191822,1,8,0:0:0:0:
381,110,191976,1,0,0:0:0:0:
192,256,192130,1,8,0:0:0:0:
240,20,192284,1,0,0:0:0:0:
76,192,192438,6,0,P|152:128|280:152,1,200,4|8,0:0|0:0,0:0:0:0:
192,256,192899,1,0,0:0:0:0:
468,284,193053,2,0,P|392:348|264:324,1,200,4|8,0:0|0:0,0:0:0:0:
352,220,193514,1,0,0:0:0:0:
372,100,193668,5,4,0:0:0:0:
256,128,193822,2,0,P|152:100|176:20,2,200
372,100,194591,1,0,0:0:0:0:
352,220,194745,1,0,0:0:0:0:
456,280,194899,6,0,L|516:268,1,50,8|0,0:0|0:0,0:0:0:0:
456,208,195053,2,0,L|510:180,1,50
424,144,195207,2,0,L|469:103,1,50,8|0,0:0|0:0,0:0:0:0:
372,100,195361,2,0,L|405:49,1,50
308,72,195514,2,0,L|327:14,1,50,8|0,0:0|0:0,0:0:0:0:
240,68,195668,2,0,L|243:6,1,50
176,84,195822,2,0,L|164:24,1,50,8|0,0:0|0:0,0:0:0:0:
118,112,195976,2,0,L|90:57,1,50
72,204,196130,6,0,L|38:254,1,50,8|0,0:0|0:0,0:0:0:0:
122,254,196284,2,0,L|102:311,1,50
190,277,196438,2,0,L|186:338,1,50,8|0,0:0|0:0,0:0:0:0:
258,271,196591,2,0,L|270:331,1,50
323,246,196745,2,0,L|350:300,1,50,8|0,0:0|0:0,0:0:0:0:
374,201,196899,2,0,L|414:246,1,50
408,136,197053,2,0,P|464:156|496:52,1,150,8|0,0:0|0:0,0:0:0:0:
500,44,197361,5,8,0:0:0:0:
453,26,197438,1,0,0:0:0:0:
403,24,197514,1,8,0:0:0:0:
355,36,197591,1,0,0:0:0:0:
313,62,197668,1,8,0:0:0:0:
280,100,197745,1,0,0:0:0:0:
260,146,197822,1,8,0:0:0:0:
256,195,197899,1,0,0:0:0:0:
251,146,197976,1,8,0:0:0:0:
231,100,198053,1,0,0:0:0:0:
198,62,198130,1,8,0:0:0:0:
156,36,198207,1,0,0:0:0:0:
108,24,198284,1,8,0:0:0:0:
58,26,198361,1,0,0:0:0:0:
12,44,198438,1,8,0:0:0:0:
44,160,198591,6,0,P|120:184|140:328,1,200,2|2,0:2|0:2,0:0:0:0:
468,272,199207,1,2,0:2:0:0:
44,272,199514,1,2,0:2:0:0:
256,28,199822,5,0,0:0:0:0:
256,192,221976,12,0,224130,0:0:0:0:
336,164,224438,5,8,0:0:0:0:
328,114,224514,1,0,0:0:0:0:
301,73,224591,1,8,0:0:0:0:
260,46,224668,1,0,0:0:0:0:
211,38,224745,1,8,0:0:0:0:
163,51,224822,1,0,0:0:0:0:
125,83,224899,1,8,0:0:0:0:
103,127,224976,1,0,0:0:0:0:
92,176,225053,6,0,B|192:220|228:328|228:328|296:248|420:276,2,400,8|0|8,0:0|0:0|0:0,0:0:0:0:
80,276,226438,1,0,0:0:0:0:
240,160,226591,1,8,0:0:0:0:
144,348,226745,1,4,0:2:0:0:
328,192,226899,6,0,P|368:156|308:36,1,200,0|8,0:0|0:0,0:0:0:0:
240,160,227361,1,0,0:0:0:0:
100,132,227514,2,0,L|32:208,1,100
164,204,227822,2,0,L|232:280,1,100,8|0,0:0|0:0,0:0:0:0:
312,336,228130,5,0,0:0:0:0:
436,252,228284,1,0,0:0:0:0:
288,244,228438,1,8,0:0:0:0:
416,164,228591,1,0,0:0:0:0:
200,336,228745,5,0,0:0:0:0:
76,252,228899,1,0,0:0:0:0:
224,244,229053,1,8,0:0:0:0:
96,164,229207,1,4,0:2:0:0:
184,44,229361,6,8,P|232:80|376:48,1,200,0|8,0:0|0:0,0:0:0:0:
388,40,229745,1,0,0:0:0:0:
371,58,229822,1,8,0:0:0:0:
358,80,229899,1,0,0:0:0:0:
350,103,229976,1,8,0:0:0:0:
348,128,230053,1,0,0:0:0:0:
350,153,230130,1,8,0:0:0:0:
358,177,230207,1,0,0:0:0:0:
370,198,230284,1,8,0:0:0:0:
386,217,230361,1,0,0:0:0:0:
406,232,230438,1,8,0:0:0:0:
429,243,230514,1,0,0:0:0:0:
456,248,230591,6,0,L|408:336,1,100,4|0,0:2|0:0,0:0:0:0:
56,248,230899,2,0,L|104:336,1,100
256,292,231207,1,8,0:0:0:0:
256,257,231284,1,0,0:0:0:0:
256,222,231361,1,8,0:0:0:0:
256,187,231438,1,0,0:0:0:0:
256,152,231514,1,8,0:0:0:0:
256,117,231591,1,0,0:0:0:0:
256,82,231668,1,8,0:0:0:0:
256,47,231745,1,0,0:0:0:0:
