osu file format v14

[General]
AudioFilename: 01 .mp3
AudioLeadIn: 0
PreviewTime: -1
Countdown: 0
SampleSet: None
StackLeniency: 0.7
Mode: 0
LetterboxInBreaks: 1
WidescreenStoryboard: 0

[Editor]
Bookmarks: 11377,21378,31224,40915,45993,50916,51535,51996,52765,53227,55839,58301,59532,59839,60147,60455,60762,70609,80455,90301,100147,102458,109993,119839,124762,129686,137070,139532,149378,159224,160455,165378,167839,168919,169304,169611,169919,170301,175224,180147,180765,180919,181073,181688,181842,182611,182919,183073,183842,184765,184919,185070,185534,186150,187534,189073,189993,191073,192304,192919,193534,194150,194458,194611,194688,194765,194842,194916,197227,199839,209686,219532,221993,241534
DistanceSpacing: 0.1
BeatDivisor: 4
GridSize: 32
TimelineZoom: 1

[Metadata]
Title:Betrayal Bullet
TitleUnicode:Betrayal Bullet
Artist:HujuniseikouyuuP
ArtistUnicode:HujuniseikouyuuP
Creator:caren_sk
Version:CRN
Source:nanahoshikangengakudan
Tags:
BeatmapID:1778537
BeatmapSetID:850708

[Difficulty]
HPDrainRate:3
CircleSize:4
OverallDifficulty:9
ApproachRate:10
SliderMultiplier:2.2
SliderTickRate:1

[Events]
//Background and Video events
0,0,"BG.jpg",0,0
//Break Periods
2,81888,99704
//Storyboard Layer 0 (Background)
//Storyboard Layer 1 (Fail)
//Storyboard Layer 2 (Pass)
//Storyboard Layer 3 (Foreground)
//Storyboard Sound Samples

[TimingPoints]
1535,307.692307692308,4,1,1,50,1,0
60765,-90.9090909090909,4,1,1,50,0,1
80304,-100,4,1,1,50,0,0
139535,-90.9090909090909,4,1,1,50,0,1
159227,-90.9090909090909,4,1,1,50,0,0
199996,307.692307692308,4,1,1,50,1,1
199996,-90.9090909090909,4,1,1,50,0,1
221842,-90.9090909090909,4,1,1,50,0,0

[Colours]
Combo1 : 121,160,253
Combo2 : 192,7,12
Combo3 : 9,90,242
Combo4 : 243,124,124

[HitObjects]
0,280,458,5,0,0:0:0:0:
86,99,765,1,0,0:0:0:0:
140,207,919,1,0,0:0:0:0:
144,216,996,1,0,0:0:0:0:
149,224,1073,1,0,0:0:0:0:
154,233,1150,1,0,0:0:0:0:
159,242,1227,1,0,0:0:0:0:
164,251,1304,1,0,0:0:0:0:
164,251,1381,1,0,0:0:0:0:
164,251,1458,1,0,0:0:0:0:
167,255,1534,6,0,B|191:295|191:295|348:165,1,220
482,42,1996,1,0,0:0:0:0:
373,17,2150,2,0,B|345:75|373:130,1,110
469,311,2458,1,0,0:0:0:0:
254,184,2611,1,0,0:0:0:0:
224,361,2765,1,0,0:0:0:0:
377,256,2919,2,0,B|410:306|486:312,1,110
253,185,3227,1,0,0:0:0:0:
469,311,3381,2,0,B|433:364|360:367,1,110
65,253,3688,1,0,0:0:0:0:
65,253,3842,1,0,0:0:0:0:
224,361,3996,6,0,B|218:284|310:259|243:148,1,220
115,24,4458,2,0,B|106:77|113:106|137:137,1,110
336,70,4765,1,0,0:0:0:0:
382,189,4919,2,0,B|506:152,1,110
206,209,5227,1,0,0:0:0:0:
252,328,5381,2,0,B|376:291,2,110
96,368,5842,1,0,0:0:0:0:
96,368,5996,1,0,0:0:0:0:
142,231,6150,1,0,0:0:0:0:
253,328,6304,1,0,0:0:0:0:
96,368,6458,6,0,B|31:344|5:272|11:207|44:180,1,220
72,60,6919,2,0,B|152:157,1,110
368,104,7227,2,0,B|367:172|299:195,1,110
436,334,7535,2,0,B|371:356|326:300,1,110
131,178,7842,5,0,0:0:0:0:
89,338,7996,1,0,0:0:0:0:
39,232,8150,1,0,0:0:0:0:
206,363,8304,1,0,0:0:0:0:
296,143,8458,1,0,0:0:0:0:
393,246,8611,1,0,0:0:0:0:
485,114,8765,1,0,0:0:0:0:
376,361,8919,6,0,B|309:300|327:217|204:205,1,220
215,36,9381,1,0,0:0:0:0:
319,109,9535,2,0,B|268:146|203:132,1,110
18,127,9842,1,0,0:0:0:0:
96,26,9996,2,0,B|133:77|119:142,1,110
34,326,10304,5,0,0:0:0:0:
83,330,10381,1,0,0:0:0:0:
132,335,10458,1,0,0:0:0:0:
294,236,10611,1,0,0:0:0:0:
229,376,10765,1,0,0:0:0:0:
294,236,10919,1,0,0:0:0:0:
309,213,10996,1,0,0:0:0:0:
332,198,11073,1,0,0:0:0:0:
358,190,11150,1,0,0:0:0:0:
384,192,11227,1,0,0:0:0:0:
409,204,11304,1,0,0:0:0:0:
424,226,11381,6,0,B|472:266|523:211|545:101|426:102,1,220
346,15,11842,1,0,0:0:0:0:
346,15,11996,1,0,0:0:0:0:
452,104,12150,2,0,B|387:139|323:141|273:126|225:97,1,220
124,20,12611,1,0,0:0:0:0:
241,106,12765,2,0,B|240:176|194:206,1,110
17,234,13073,2,0,B|118:292,1,110
333,327,13381,2,0,B|232:269,1,110
163,124,13688,1,0,0:0:0:0:
237,272,13842,6,0,B|302:306|366:308|416:293|464:264,1,220
512,128,14304,1,0,0:0:0:0:
512,128,14458,1,0,0:0:0:0:
256,192,14611,1,0,0:0:0:0:
256,192,14765,1,0,0:0:0:0:
0,128,14919,1,0,0:0:0:0:
0,128,15073,1,0,0:0:0:0:
384,32,15227,6,0,B|384:160,1,110
192,256,15534,1,0,0:0:0:0:
480,64,15688,2,0,B|480:192,1,110
416,352,15996,1,0,0:0:0:0:
352,256,16150,1,0,0:0:0:0:
256,384,16304,6,0,B|160:384|96:352|64:288,1,220
67,294,16688,1,0,0:0:0:0:
67,294,16765,1,0,0:0:0:0:
256,384,16919,2,0,B|324:388|375:325,1,110
167,256,17227,2,0,B|99:252|48:315,1,110
27,107,17534,5,0,0:0:0:0:
111,267,17688,1,0,0:0:0:0:
293,167,17842,1,0,0:0:0:0:
237,69,17996,1,0,1:0:0:0:
192,240,18150,1,0,1:0:0:0:
362,285,18304,1,0,1:0:0:0:
407,115,18458,1,0,1:0:0:0:
237,318,18611,1,0,1:0:0:0:
469,380,18765,6,0,B|446:340|446:340|494:221|494:221|456:177,1,220,0|0,0:0|0:0,1:0:0:0:
337,23,19227,1,0,0:0:0:0:
306,62,19304,1,0,0:0:0:0:
315,110,19381,1,0,0:0:0:0:
52,156,19534,1,0,0:0:0:0:
83,117,19611,1,0,0:0:0:0:
74,69,19688,1,0,0:0:0:0:
315,110,19842,1,0,0:0:0:0:
283,155,19919,1,0,0:0:0:0:
292,203,19996,1,0,0:0:0:0:
400,270,20150,1,0,0:0:0:0:
350,268,20227,1,0,0:0:0:0:
308,294,20304,1,0,0:0:0:0:
277,333,20381,1,0,0:0:0:0:
263,380,20458,1,0,0:0:0:0:
182,262,20611,5,0,0:0:0:0:
364,357,20765,1,0,0:0:0:0:
179,381,20919,1,0,0:0:0:0:
364,357,21073,1,0,0:0:0:0:
179,381,21227,1,0,0:0:0:0:
364,357,21381,1,0,0:0:0:0:
179,381,21535,6,0,B|102:362|95:305,1,110
56,133,21842,1,0,0:0:0:0:
0,254,21996,2,0,B|112:209,2,110
168,86,22458,1,0,0:0:0:0:
247,201,22611,2,0,B|296:165|291:98,1,110
511,27,22919,2,0,B|462:63|467:130,1,110
378,312,23227,2,0,B|433:336|489:298,2,110,0|0|0,0:0|0:0|0:0,0:0:0:0:
169,187,23688,5,0,0:0:0:0:
293,108,23842,1,0,0:0:0:0:
269,364,23996,2,0,B|318:318|312:251,1,110
356,63,24304,1,0,0:0:0:0:
493,157,24458,1,0,0:0:0:0:
210,253,24611,1,0,0:0:0:0:
269,364,24765,2,0,B|318:318|312:251,1,110
274,63,25073,5,0,0:0:0:0:
137,157,25227,1,0,0:0:0:0:
119,32,25381,1,0,0:0:0:0:
291,177,25535,1,0,0:0:0:0:
38,302,25688,1,0,0:0:0:0:
185,376,25842,1,0,0:0:0:0:
150,149,25996,1,0,0:0:0:0:
38,302,26150,6,0,B|82:246|176:273|201:323|266:277,1,220
496,192,26611,1,0,0:0:0:0:
496,192,26765,1,0,0:0:0:0:
245,288,26919,2,0,B|208:240|240:176,1,110
487,88,27227,2,0,B|524:136|492:200,2,110
365,24,27688,5,0,0:0:0:0:
303,128,27842,1,0,0:0:0:0:
200,63,27996,2,0,B|125:73|113:134,1,110
75,276,28304,1,0,0:0:0:0:
0,195,28458,1,0,0:0:0:0:
199,64,28611,2,0,B|271:118|272:208|233:274,1,220
346,371,29073,1,0,0:0:0:0:
483,275,29227,1,0,0:0:0:0:
346,371,29381,2,0,B|275:389|229:361,2,110
204,169,29842,1,0,0:0:0:0:
303,268,29996,6,0,B|410:216,1,110
401,219,30227,1,0,0:0:0:0:
401,219,30304,1,0,0:0:0:0:
338,72,30458,1,0,0:0:0:0:
209,268,30611,2,0,B|102:216,1,110
111,219,30842,1,0,0:0:0:0:
111,219,30919,1,0,0:0:0:0:
174,72,31073,1,0,0:0:0:0:
174,72,31150,1,0,0:0:0:0:
174,72,31227,1,0,0:0:0:0:
256,160,31381,6,0,B|196:129|144:155,2,110
341,230,31842,1,0,0:0:0:0:
341,230,31996,1,0,0:0:0:0:
278,376,32150,2,0,B|235:333|241:264,1,110
217,45,32458,1,0,0:0:0:0:
106,195,32611,1,0,0:0:0:0:
12,71,32765,2,0,B|66:54|131:79,1,110
404,259,33073,1,0,0:0:0:0:
508,175,33227,1,0,0:0:0:0:
389,97,33381,1,0,0:0:0:0:
510,38,33535,6,0,B|441:8|346:5|290:38,1,220
2,38,33996,2,0,B|71:8|166:5|222:38,1,220
416,192,34458,1,0,0:0:0:0:
256,288,34611,1,0,0:0:0:0:
96,192,34765,1,0,0:0:0:0:
351,351,34919,2,0,B|351:223,1,110
160,32,35227,2,0,B|160:160,1,110
0,250,35535,2,0,B|43:294|105:272,1,110
399,114,35842,1,0,0:0:0:0:
478,212,35996,6,0,B|398:269|324:248|285:204|284:169,1,220
239,28,36458,1,0,0:0:0:0:
239,28,36611,1,0,0:0:0:0:
141,145,36765,2,0,B|87:185|9:148,1,110
367,59,37073,2,0,B|421:19|499:56,2,110
231,154,37535,5,0,0:0:0:0:
93,54,37688,2,0,B|29:79|-1:139|-1:196|56:244,1,220
154,354,38150,1,0,0:0:0:0:
267,234,38304,1,0,0:0:0:0:
359,370,38458,2,0,B|402:330|402:330|347:278|377:192|433:164,1,220
398,18,38919,1,0,0:0:0:0:
282,155,39073,1,0,0:0:0:0:
481,123,39227,2,0,B|405:142|376:95,1,110
380,100,39458,1,0,0:0:0:0:
380,100,39535,1,0,0:0:0:0:
480,256,39688,5,0,0:0:0:0:
416,352,39842,1,0,0:0:0:0:
320,224,39996,1,0,0:0:0:0:
256,352,40150,1,0,0:0:0:0:
160,192,40304,1,0,0:0:0:0:
96,352,40458,1,0,0:0:0:0:
48,363,40535,1,0,0:0:0:0:
13,330,40611,1,0,0:0:0:0:
256,256,40765,1,0,0:0:0:0:
96,352,40919,6,0,B|10:325|6:201|70:160,1,220
105,22,41381,2,0,B|150:16|188:61|182:114,1,110
305,342,41688,1,0,0:0:0:0:
512,264,41842,1,0,0:0:0:0:
442,160,41996,1,0,0:0:0:0:
406,313,42150,1,0,0:0:0:0:
337,180,42304,2,0,B|393:149|454:161,1,110
126,264,42611,2,0,B|70:295|9:283,1,110
208,31,42919,1,0,0:0:0:0:
208,31,43073,2,0,B|229:168,1,110
416,352,43381,6,0,B|502:325|506:201|442:160,1,220
407,22,43842,2,0,B|362:16|324:61|330:114,1,110
236,206,44150,1,0,0:0:0:0:
397,162,44304,2,0,B|403:117|358:79|305:85,1,110
332,85,44535,1,0,0:0:0:0:
332,85,44611,1,0,0:0:0:0:
264,16,44765,1,0,0:0:0:0:
307,162,44919,1,0,0:0:0:0:
467,66,45073,1,0,0:0:0:0:
199,120,45227,1,0,0:0:0:0:
121,27,45381,1,0,0:0:0:0:
121,27,45458,1,0,0:0:0:0:
121,27,45535,1,0,0:0:0:0:
121,27,45611,1,0,0:0:0:0:
121,27,45688,1,0,0:0:0:0:
121,27,45765,1,0,0:0:0:0:
121,27,45842,6,0,B|44:39|44:39|5:76|14:144|61:180,1,220
21,365,46304,2,0,B|81:367|115:310,1,110
400,58,46611,2,0,B|340:56|306:113,1,110
236,296,46919,1,0,0:0:0:0:
511,174,47073,6,0,B|450:114|373:92|288:113,1,220
90,41,47535,2,0,B|70:111|-10:109,1,110
156,360,47842,2,0,B|173:237,1,110
272,28,48150,1,0,0:0:0:0:
378,208,48304,6,0,B|295:266|213:264|153:246,1,220
415,116,48765,2,0,B|449:65|535:75,1,110
316,294,49073,2,0,B|256:188,1,110
171,28,49381,1,0,0:0:0:0:
261,198,49535,6,0,B|179:222|120:212|89:188,1,165
100,195,49842,2,0,B|44:301,1,110
183,321,50150,2,0,B|216:374|282:375,1,110
353,294,50457,2,0,B|413:308|461:262,1,110
381,101,50765,5,0,0:0:0:0:
507,55,50919,1,0,0:0:0:0:
437,180,51073,1,0,0:0:0:0:
302,228,51227,1,0,0:0:0:0:
162,196,51381,1,0,0:0:0:0:
132,55,51535,1,0,0:0:0:0:
21,147,51688,5,0,0:0:0:0:
239,78,51842,1,0,0:0:0:0:
27,253,51996,1,0,0:0:0:0:
96,377,52150,1,0,0:0:0:0:
238,369,52304,5,0,0:0:0:0:
110,287,52458,1,0,0:0:0:0:
122,145,52611,1,0,0:0:0:0:
203,288,52765,5,0,0:0:0:0:
363,328,52919,1,0,0:0:0:0:
224,185,53073,1,0,0:0:0:0:
504,107,53227,1,0,0:0:0:0:
448,256,53381,5,0,0:0:0:0:
352,32,53535,1,0,0:0:0:0:
256,256,53688,1,0,0:0:0:0:
160,64,53842,1,0,0:0:0:0:
384,192,53996,1,0,0:0:0:0:
96,256,54150,1,0,0:0:0:0:
384,192,54304,1,0,0:0:0:0:
96,256,54458,1,0,0:0:0:0:
352,256,54611,5,0,0:0:0:0:
128,192,54765,1,0,0:0:0:0:
305,304,54919,1,0,0:0:0:0:
183,143,55073,1,0,0:0:0:0:
352,32,55227,1,0,0:0:0:0:
128,96,55381,1,0,0:0:0:0:
305,304,55535,1,0,0:0:0:0:
405,112,55688,6,0,B|486:121|509:216|469:295,1,220
472,286,56150,1,0,0:0:0:0:
472,286,56304,1,0,0:0:0:0:
405,376,56458,2,0,B|344:315|242:319|187:378,1,220
203,362,56842,1,0,0:0:0:0:
203,362,56919,6,0,B|148:328|81:341,1,110
9,199,57227,2,0,B|0:347,1,110
181,273,57535,2,0,B|294:245|315:166,1,165
310,180,57842,5,0,0:0:0:0:
431,109,57996,1,0,0:0:0:0:
507,245,58150,1,0,0:0:0:0:
352,320,58304,5,0,0:0:0:0:
352,320,58458,1,0,0:0:0:0:
128,320,58611,1,0,0:0:0:0:
128,320,58765,1,0,0:0:0:0:
416,320,58919,1,0,0:0:0:0:
64,320,59073,1,0,0:0:0:0:
480,320,59227,1,0,0:0:0:0:
0,320,59381,1,0,0:0:0:0:
256,320,59535,5,0,0:0:0:0:
256,320,59842,1,0,0:0:0:0:
256,320,60150,1,0,0:0:0:0:
256,320,60458,1,0,0:0:0:0:
509,121,60765,6,0,B|440:50|351:39|281:76,1,242.000007385254
15,196,61227,1,0,0:0:0:0:
61,84,61381,2,0,B|118:120|127:189,1,121.000003692627
181,368,61689,1,0,0:0:0:0:
279,271,61842,2,0,B|301:333|376:358|464:334,1,181.500005538941
430,340,62150,2,0,B|475:277|449:217,1,121.000003692627
425,18,62458,1,0,0:0:0:0:
497,108,62611,2,0,B|433:152|373:126,1,121.000003692627
46,42,62919,1,0,0:0:0:0:
166,16,63073,6,0,B|192:102|145:172|83:100|47:226,1,242.000007385254
32,363,63535,1,0,0:0:0:0:
113,274,63688,1,0,0:0:0:0:
186,369,63842,2,0,B|202:228,1,121.000003692627
232,21,64150,1,0,0:0:0:0:
426,28,64304,2,0,B|412:221,1,181.500005538941
412,209,64611,2,0,B|294:159,1,121.000003692627
105,19,64919,1,0,0:0:0:0:
99,174,65073,2,0,B|218:225,1,121.000003692627
210,221,65304,1,0,0:0:0:0:
210,221,65381,1,0,0:0:0:0:
83,82,65535,6,0,B|21:104|-4:179|20:267,1,181.500005538941
13,233,65843,2,0,B|76:277|136:251,1,121.000003692627
365,158,66150,1,0,0:0:0:0:
261,326,66304,1,0,0:0:0:0:
143,169,66458,1,0,0:0:0:0:
143,169,66535,1,0,0:0:0:0:
143,169,66611,1,0,0:0:0:0:
306,233,66765,2,0,B|365:276|341:348,1,121.000003692627
165,376,67073,1,0,0:0:0:0:
306,233,67227,2,0,B|365:276|341:348,1,121.000003692627
481,191,67535,5,0,0:0:0:0:
343,339,67688,1,0,0:0:0:0:
227,154,67842,1,0,0:0:0:0:
117,342,67996,2,0,B|22:315|-3:236|7:175|38:136,1,242.000007385254
134,16,68458,1,0,0:0:0:0:
181,165,68611,1,0,0:0:0:0:
448,85,68765,1,0,0:0:0:0:
383,228,68919,1,0,0:0:0:0:
289,101,69073,6,0,B|251:155|275:226,1,121.000003692627
485,307,69381,1,0,0:0:0:0:
477,157,69535,2,0,B|411:168|378:235,1,121.000003692627,0|0,0:0|0:0,0:0:0:0:
222,367,69843,1,0,0:0:0:0:
64,64,69996,1,0,0:0:0:0:
64,64,70150,1,0,0:0:0:0:
448,64,70304,1,0,0:0:0:0:
448,64,70458,1,0,0:0:0:0:
182,12,70611,6,0,B|124:76|99:174|167:247,1,242.000007385254
352,346,71073,2,0,B|292:357|252:337|221:302,1,121.000003692627
0,238,71381,2,0,B|20:366,1,121.000003692627
418,339,71688,2,0,B|398:211,1,121.000003692627
375,17,71996,1,0,0:0:0:0:
266,103,72150,2,0,B|322:139|390:120,1,121.000003692627
382,122,72381,1,0,0:0:0:0:
382,122,72457,1,0,0:0:0:0:
239,5,72611,1,0,0:0:0:0:
88,161,72765,1,0,0:0:0:0:
69,42,72919,6,0,B|135:27|199:83|201:169,1,181.500005538941
211,198,73227,2,0,B|196:284|128:291,1,121.000003692627
0,295,73535,1,0,0:0:0:0:
97,382,73688,1,0,0:0:0:0:
430,189,73842,1,0,0:0:0:0:
383,338,73996,1,0,0:0:0:0:
430,189,74150,6,0,B|365:132|305:161,1,121.000003692627
319,155,74381,1,0,0:0:0:0:
319,155,74458,1,0,0:0:0:0:
256,32,74611,1,0,0:0:0:0:
96,192,74765,1,0,0:0:0:0:
141,175,74842,1,0,0:0:0:0:
187,187,74919,1,0,0:0:0:0:
211,228,74996,1,0,0:0:0:0:
204,276,75073,1,0,0:0:0:0:
243,376,75227,5,0,0:0:0:0:
316,252,75381,2,0,B|342:312|432:322|501:269,1,181.500005538941
474,285,75688,2,0,B|458:153,1,121.000003692627
443,14,75996,1,0,0:0:0:0:
308,151,76150,1,0,0:0:0:0:
236,23,76304,5,0,0:0:0:0:
456,96,76458,1,0,0:0:0:0:
382,187,76611,2,0,B|364:250|401:308,1,121.000003692627
256,96,76919,1,0,0:0:0:0:
256,320,77073,1,0,0:0:0:0:
130,187,77227,2,0,B|148:250|111:308,1,121.000003692627
448,64,77535,1,0,0:0:0:0:
64,64,77689,1,0,0:0:0:0:
256,0,77842,6,0,B|256:192,1,181.500005538941
258,236,78150,2,0,B|302:284|382:273,1,121.000003692627
512,160,78458,1,0,0:0:0:0:
421,50,78611,1,0,0:0:0:0:
425,98,78688,1,0,0:0:0:0:
404,141,78765,1,0,0:0:0:0:
225,104,78919,1,0,0:0:0:0:
144,190,79073,6,0,B|147:270|203:310|254:318,1,181.500005538941
288,323,79381,2,0,B|351:281|334:220,1,121.000003692627
309,47,79688,1,0,0:0:0:0:
230,162,79842,2,0,B|167:120|184:59,1,121.000003692627
380,9,80150,1,0,0:0:0:0:
512,224,80304,1,0,0:0:0:0:
256,192,80381,12,0,81688,0:0:0:0:
96,96,100304,5,0,0:0:0:0:
96,96,100458,2,0,B|141:60|141:60|195:82,1,110
419,163,100765,1,0,0:0:0:0:
419,163,100919,2,0,B|374:127|374:127|320:149,1,110
10,279,101227,1,0,0:0:0:0:
100,182,101381,1,0,0:0:0:0:
116,310,101535,2,0,B|161:350|218:320,1,110
268,197,101842,1,0,0:0:0:0:
169,355,101996,2,0,B|223:382|270:338,1,110
462,216,102304,1,0,0:0:0:0:
498,339,102458,6,0,B|444:365|396:322,1,110
310,137,102765,1,0,0:0:0:0:
320,350,102919,1,0,0:0:0:0:
167,277,103073,1,0,0:0:0:0:
386,226,103227,2,0,B|424:171|398:110,1,110
367,13,103534,5,0,0:0:0:0:
216,161,103688,1,0,0:0:0:0:
164,44,103842,1,0,0:0:0:0:
63,240,103996,1,0,0:0:0:0:
291,214,104150,1,0,0:0:0:0:
81,117,104304,1,0,0:0:0:0:
181,259,104458,1,0,0:0:0:0:
274,115,104611,1,0,0:0:0:0:
359,319,104765,1,0,0:0:0:0:
433,177,104919,6,0,B|352:163|272:233|265:308,1,220
149,382,105381,1,0,0:0:0:0:
99,260,105535,2,0,B|138:312|218:309,1,110
89,134,105842,2,0,B|37:173|40:253,1,110
249,155,106150,2,0,B|210:103|130:106,1,110
306,251,106458,2,0,B|348:116,1,110
396,30,106765,1,0,0:0:0:0:
413,205,106919,2,0,B|538:139,1,110
329,58,107227,1,0,0:0:0:0:
256,192,107381,6,0,B|194:233|123:225|68:169|58:101,1,220
25,35,107842,1,0,0:0:0:0:
25,35,107996,1,0,0:0:0:0:
256,192,108150,2,0,B|297:254|289:325|233:380|165:390,1,220
320,96,108611,1,0,0:0:0:0:
404,255,108765,1,0,0:0:0:0:
512,170,108919,1,0,0:0:0:0:
512,170,109073,1,0,0:0:0:0:
411,58,109227,1,0,0:0:0:0:
318,202,109381,1,0,0:0:0:0:
512,170,109535,1,0,0:0:0:0:
512,170,109689,1,0,0:0:0:0:
312,294,109842,6,0,B|237:265|205:227|202:160|211:96,1,220
144,23,110304,2,0,B|92:65|13:48,1,110
208,123,110611,2,0,B|156:165|77:148,1,110
286,34,110919,1,0,0:0:0:0:
286,34,111073,1,0,0:0:0:0:
208,123,111227,6,0,B|156:165|77:148,1,110
392,53,111535,1,0,0:0:0:0:
392,53,111689,1,0,0:0:0:0:
208,123,111842,6,0,B|156:165|77:148,1,110
470,130,112150,1,0,0:0:0:0:
315,154,112304,2,0,B|265:237|281:308|339:375,1,220
325,358,112765,1,0,0:0:0:0:
325,358,112919,1,0,0:0:0:0:
509,200,113073,2,0,B|474:211|474:211|526:260|469:282,1,110
473,41,113381,1,0,0:0:0:0:
354,76,113535,1,0,0:0:0:0:
408,180,113688,6,0,B|312:195|250:125,1,165
223,95,113996,2,0,B|157:117|157:185,1,110
13,176,114304,2,0,B|17:273|89:318|161:326,1,220
149,324,114688,1,0,0:0:0:0:
149,324,114765,1,0,0:0:0:0:
312,205,114919,5,0,0:0:0:0:
370,288,115073,2,0,B|359:349|293:380,1,110
401,205,115381,2,0,B|489:278,2,110
256,32,115842,2,0,B|189:61|192:128,1,110
66,305,116150,2,0,B|-4:210,1,110
196,264,116458,2,0,B|230:324|200:380,1,110
256,192,116765,1,0,0:0:0:0:
351,359,116919,2,0,B|420:348|457:304,1,110
499,108,117227,6,0,B|513:191|496:279|434:327,1,220
360,187,117688,1,0,0:0:0:0:
303,281,117842,1,0,0:0:0:0:
207,173,117996,2,0,B|185:236|234:291,1,110
19,314,118304,1,0,0:0:0:0:
98,383,118458,2,0,B|142:323|150:262|131:193|77:162,1,220
7,43,118919,1,0,0:0:0:0:
94,109,119073,1,0,0:0:0:0:
203,122,119227,1,0,0:0:0:0:
310,99,119381,1,0,0:0:0:0:
397,31,119535,1,0,0:0:0:0:
397,31,119611,1,0,0:0:0:0:
397,31,119688,6,0,B|431:80|431:80|500:86|490:175|425:220,1,220
366,329,120150,1,0,0:0:0:0:
366,329,120304,1,0,0:0:0:0:
275,265,120458,2,0,B|247:383,1,110
200,122,120765,2,0,B|172:240,1,110
110,46,121073,2,0,B|165:17|241:44,2,110
290,104,121535,1,0,0:0:0:0:
290,104,121688,2,0,B|318:180|400:198|469:189|495:169,1,220
222,280,122150,6,0,B|194:204|112:186|43:195|17:215,1,220
36,205,122611,1,0,0:0:0:0:
36,205,122765,1,0,0:0:0:0:
122,296,122919,2,0,B|107:364|57:381,1,110
226,379,123227,2,0,B|353:340,1,110
512,160,123535,1,0,0:0:0:0:
416,320,123689,1,0,0:0:0:0:
416,320,123842,1,0,0:0:0:0:
219,176,123996,1,0,0:0:0:0:
423,149,124150,1,0,0:0:0:0:
423,149,124227,1,0,0:0:0:0:
423,149,124304,1,0,0:0:0:0:
423,149,124381,1,0,0:0:0:0:
423,149,124458,1,0,0:0:0:0:
423,149,124535,1,0,0:0:0:0:
423,149,124611,6,0,B|382:201|248:210|195:160,1,220
101,44,125073,2,0,B|41:42|7:99,1,110
403,267,125380,2,0,B|463:269|497:212,1,110
275,65,125688,1,0,0:0:0:0:
403,265,125842,6,0,B|342:325|265:347|180:326,1,220
40,195,126304,2,0,B|22:336,1,110
168,33,126611,1,0,0:0:0:0:
168,33,126688,1,0,0:0:0:0:
168,33,126765,1,0,0:0:0:0:
168,33,126842,1,0,0:0:0:0:
168,33,126919,1,0,0:0:0:0:
168,33,126996,1,0,0:0:0:0:
168,33,127073,6,0,B|215:128|170:269,1,220
460,185,127534,2,0,B|426:236|340:226,1,110
309,373,127842,2,0,B|258:339|268:253,1,110
294,15,128150,1,0,0:0:0:0:
231,151,128304,2,0,B|394:98,1,165
387,99,128611,1,0,0:0:0:0:
300,237,128765,1,0,0:0:0:0:
488,294,128919,1,0,0:0:0:0:
352,384,129073,5,0,0:0:0:0:
320,384,129150,1,0,0:0:0:0:
288,384,129227,1,0,0:0:0:0:
256,384,129304,1,0,0:0:0:0:
224,384,129381,1,0,0:0:0:0:
192,384,129458,1,0,0:0:0:0:
160,384,129535,2,0,B|96:384|32:256|96:192,1,220
256,32,129996,1,0,0:0:0:0:
256,32,130150,1,0,0:0:0:0:
320,224,130304,6,0,B|448:224,1,110
192,224,130611,2,0,B|64:224,1,110
384,224,130919,2,0,B|512:224,1,110
128,224,131226,2,0,B|0:224,1,110
256,352,131535,2,0,B|256:224,1,110
256,32,131842,1,0,0:0:0:0:
158,96,131996,6,0,B|182:156|293:160|338:136|359:83,1,220
401,28,132458,1,0,0:0:0:0:
401,28,132611,1,0,0:0:0:0:
507,145,132765,2,0,B|488:206|429:222,1,110
243,349,133073,1,0,0:0:0:0:
170,234,133227,1,0,0:0:0:0:
243,349,133381,2,0,B|312:378|372:309,1,110
170,234,133688,2,0,B|128:281|154:340,1,110
256,64,133996,1,0,0:0:0:0:
96,160,134150,1,0,0:0:0:0:
416,160,134304,1,0,0:0:0:0:
361,275,134458,6,0,B|280:297|233:251|231:179|253:139,1,220
249,145,134919,1,0,0:0:0:0:
249,145,135073,1,0,0:0:0:0:
72,245,135227,1,0,0:0:0:0:
396,44,135381,1,0,0:0:0:0:
396,44,135458,1,0,0:0:0:0:
396,44,135535,1,0,0:0:0:0:
396,44,135611,1,0,0:0:0:0:
396,44,135688,6,0,B|451:102|460:184|447:253|425:264,1,220
322,354,136150,1,0,0:0:0:0:
322,354,136304,2,0,B|278:284|322:208|357:186,1,165
339,201,136611,1,0,0:0:0:0:
187,279,136765,1,0,0:0:0:0:
435,362,136919,1,0,0:0:0:0:
512,192,137073,5,0,0:0:0:0:
496,192,137150,1,0,0:0:0:0:
480,192,137227,1,0,0:0:0:0:
464,192,137304,1,0,0:0:0:0:
448,192,137381,1,0,0:0:0:0:
432,192,137458,1,0,0:0:0:0:
416,192,137535,1,0,0:0:0:0:
400,192,137611,1,0,0:0:0:0:
384,192,137688,1,0,0:0:0:0:
368,192,137765,1,0,0:0:0:0:
352,192,137842,1,0,0:0:0:0:
336,192,137919,1,0,0:0:0:0:
320,192,137996,1,0,0:0:0:0:
304,192,138073,1,0,0:0:0:0:
288,192,138150,1,0,0:0:0:0:
272,192,138227,1,0,0:0:0:0:
256,192,138304,6,0,B|191:195|200:268|157:317|95:330|-14:266|-18:138|4:58|41:42|121:2|200:27|200:27|187:105|187:105|234:112|234:112|277:59|349:69,1,825
326,67,139535,6,0,B|406:84|411:225|330:288,1,242.000007385254
273,374,139996,1,0,0:0:0:0:
348,271,140150,2,0,B|290:222|204:230,1,121.000003692627
101,183,140458,1,0,0:0:0:0:
237,229,140611,2,0,B|234:302|191:353|117:364,1,181.500005538941
78,345,140919,2,0,B|10:325|-2:256,1,121.000003692627
434,345,141227,2,0,B|502:325|514:256,1,121.000003692627
500,136,141535,1,0,0:0:0:0:
333,243,141688,1,0,0:0:0:0:
363,357,141842,6,0,B|268:365|213:260|234:174,1,242.000007385254
255,44,142304,1,0,0:0:0:0:
58,262,142457,1,0,0:0:0:0:
27,128,142611,2,0,B|99:107|161:162,1,121.000003692627
444,285,142919,1,0,0:0:0:0:
335,353,143073,6,0,B|287:282|319:198|384:171|436:186,1,242.000007385254
424,183,143458,1,0,0:0:0:0:
424,183,143535,1,0,0:0:0:0:
292,24,143688,1,0,0:0:0:0:
414,59,143842,2,0,B|410:100|374:125|318:122,1,121.000003692627
325,122,144073,1,0,0:0:0:0:
325,122,144150,1,0,0:0:0:0:
79,31,144304,6,0,B|17:53|-8:128|16:216,1,181.500005538941
15,237,144612,2,0,B|78:281|138:255,1,121.000003692627
328,224,144919,1,0,0:0:0:0:
181,112,145073,1,0,0:0:0:0:
181,112,145227,1,0,0:0:0:0:
323,366,145380,1,0,0:0:0:0:
266,187,145535,6,0,B|187:208|185:280,1,121.000003692627
512,121,145842,1,0,0:0:0:0:
140,348,145996,2,0,B|101:231,1,121.000003692627
65,46,146304,1,0,0:0:0:0:
15,279,146457,1,0,0:0:0:0:
384,192,146611,1,0,0:0:0:0:
256,384,146765,6,0,B|161:357|136:278|146:217|177:178,1,242.000007385254
256,32,147227,1,0,0:0:0:0:
384,192,147381,1,0,0:0:0:0:
480,32,147534,1,0,0:0:0:0:
256,192,147688,1,0,0:0:0:0:
465,128,147842,2,0,B|502:186|475:252,1,121.000003692627
321,37,148150,1,0,0:0:0:0:
478,243,148304,2,0,B|427:293|353:264,1,121.000003692627
97,144,148612,1,0,0:0:0:0:
256,384,148765,1,0,0:0:0:0:
256,32,148919,1,0,0:0:0:0:
64,352,149073,1,0,0:0:0:0:
448,352,149227,1,0,0:0:0:0:
64,352,149381,6,0,B|-5:300|-16:254|-8:175|20:132,1,242.000007385254
130,14,149842,2,0,B|197:50|189:119,1,121.000003692627
294,190,150150,2,0,B|246:249|180:229,1,121.000003692627
352,119,150458,2,0,B|387:61|471:45|524:98,1,181.500005538941
481,29,150765,2,0,B|421:76|441:142,1,121.000003692627
439,134,150996,1,0,0:0:0:0:
439,134,151073,1,0,0:0:0:0:
512,254,151226,1,0,0:0:0:0:
406,353,151380,1,0,0:0:0:0:
271,182,151534,1,0,0:0:0:0:
347,311,151688,6,0,B|309:344|220:364|169:300,1,181.500005538941
147,271,151996,1,0,0:0:0:0:
384,192,152150,1,0,0:0:0:0:
256,384,152304,1,0,0:0:0:0:
331,96,152458,1,4,0:0:0:0:
512,192,152611,1,4,0:0:0:0:
256,288,152765,1,0,0:0:0:0:
0,192,152919,6,0,B|-4:266|55:320,1,121.000003692627
38,303,153150,1,0,0:0:0:0:
38,303,153227,1,0,0:0:0:0:
229,187,153380,1,0,0:0:0:0:
85,99,153534,1,0,0:0:0:0:
68,144,153611,1,0,0:0:0:0:
80,190,153688,1,0,0:0:0:0:
121,214,153765,1,0,0:0:0:0:
169,207,153842,1,0,0:0:0:0:
263,78,153996,1,0,0:0:0:0:
293,244,154150,6,0,B|319:304|409:314|478:261,1,181.500005538941
500,263,154458,2,0,B|463:328|507:384,1,121.000003692627
384,192,154765,1,0,0:0:0:0:
320,352,154919,1,0,0:0:0:0:
256,192,155073,5,0,0:0:0:0:
480,192,155227,1,0,0:0:0:0:
32,192,155381,1,0,0:0:0:0:
96,288,155535,1,0,0:0:0:0:
160,32,155688,5,0,0:0:0:0:
192,352,155842,1,0,0:0:0:0:
256,32,155996,1,0,0:0:0:0:
320,192,156150,1,0,0:0:0:0:
384,32,156304,5,0,0:0:0:0:
416,288,156458,1,0,0:0:0:0:
512,32,156611,2,0,B|512:192,1,121.000003692627
512,192,156842,1,0,0:0:0:0:
512,192,156919,2,0,B|437:164|387:210,1,121.000003692627
79,334,157227,1,0,0:0:0:0:
184,210,157380,1,0,0:0:0:0:
196,250,157457,1,0,0:0:0:0:
210,289,157534,1,0,0:0:0:0:
379,119,157688,1,0,0:0:0:0:
305,227,157842,6,0,B|236:192|238:111,1,121.000003692627
461,259,158150,1,0,0:0:0:0:
473,299,158227,1,0,0:0:0:0:
487,338,158304,1,0,0:0:0:0:
405,42,158457,1,0,0:0:0:0:
256,288,158611,1,0,0:0:0:0:
256,96,158765,1,0,0:0:0:0:
256,128,158842,1,0,0:0:0:0:
256,160,158919,1,0,0:0:0:0:
256,0,159073,1,0,0:0:0:0:
256,192,159227,12,0,160150,0:0:0:0:
389,39,160458,5,0,0:0:0:0:
345,41,160535,1,0,0:0:0:0:
304,56,160611,1,0,0:0:0:0:
270,85,160688,1,0,0:0:0:0:
247,122,160765,1,0,0:0:0:0:
237,165,160842,1,0,0:0:0:0:
244,208,160919,1,0,0:0:0:0:
258,249,160996,1,0,0:0:0:0:
288,280,161073,5,0,0:0:0:0:
327,299,161150,1,0,0:0:0:0:
369,309,161227,1,0,0:0:0:0:
411,299,161304,1,0,0:0:0:0:
447,273,161381,1,0,0:0:0:0:
469,235,161458,1,0,0:0:0:0:
471,191,161534,1,0,0:0:0:0:
449,152,161611,1,0,0:0:0:0:
403,131,161688,6,0,B|371:139|363:178,1,55,0|0,0:0|0:0,0:0:0:0:
371,217,161842,2,0,B|371:241|337:266,1,55
295,244,161996,2,0,B|262:243|244:279,1,55
240,319,162150,2,0,B|233:342|194:357,1,55
151,365,162304,2,0,B|127:358|112:319,1,55
65,317,162458,2,0,B|53:296|69:257,1,55,0|0,0:0|0:0,0:0:0:0:
28,231,162611,2,0,B|51:189|93:190,1,55
125,169,162765,2,0,B|151:242,1,55
183,229,162919,5,0,0:0:0:0:
225,231,162996,1,0,0:0:0:0:
266,215,163073,1,0,0:0:0:0:
291,179,163150,1,0,0:0:0:0:
305,137,163227,1,0,0:0:0:0:
296,93,163304,1,0,0:0:0:0:
272,55,163381,1,0,0:0:0:0:
232,34,163458,1,0,0:0:0:0:
188,28,163535,5,0,0:0:0:0:
148,46,163611,1,0,0:0:0:0:
118,78,163688,1,0,0:0:0:0:
111,121,163765,1,0,0:0:0:0:
111,165,163842,1,0,0:0:0:0:
134,201,163919,1,0,0:0:0:0:
164,232,163996,1,0,0:0:0:0:
202,253,164073,1,0,0:0:0:0:
250,264,164150,6,0,B|266:196,1,55
362,174,164304,2,0,B|346:242,1,55
400,331,164458,6,0,B|416:263,1,55
512,241,164612,2,0,B|496:309,1,55
318,363,164765,2,0,B|334:295,1,55
464,127,164919,2,0,B|448:195,1,55
318,363,165073,6,0,B|334:295,1,55
464,127,165227,2,0,B|448:195,1,55
428,218,165381,5,0,0:0:0:0:
385,230,165458,1,0,0:0:0:0:
341,232,165535,1,0,0:0:0:0:
304,208,165611,1,0,0:0:0:0:
282,169,165688,1,0,0:0:0:0:
273,125,165765,1,0,0:0:0:0:
267,81,165842,1,0,0:0:0:0:
240,45,165919,1,0,0:0:0:0:
203,21,165996,5,0,0:0:0:0:
159,24,166073,1,0,0:0:0:0:
116,37,166150,1,0,0:0:0:0:
83,66,166227,1,0,0:0:0:0:
65,106,166304,1,0,0:0:0:0:
63,150,166381,1,0,0:0:0:0:
85,187,166458,1,0,0:0:0:0:
122,208,166534,1,0,0:0:0:0:
164,220,166611,6,0,B|193:209|207:178,1,55
342,232,166765,2,0,B|313:244|281:232,1,55
162,294,166919,2,0,B|173:323|204:337,1,55
257,384,167073,2,0,B|297:318,1,55
343,231,167227,2,0,B|371:302,1,55
442,228,167381,2,0,B|510:243,1,55
512,310,167534,2,0,B|497:333|466:343,1,55
416,384,167688,2,0,B|393:369|383:338,1,55
363,282,167842,5,0,0:0:0:0:
322,300,167919,1,0,0:0:0:0:
281,282,167996,1,0,0:0:0:0:
261,242,168073,1,0,0:0:0:0:
268,198,168150,1,0,0:0:0:0:
297,165,168227,1,0,0:0:0:0:
339,154,168304,1,0,0:0:0:0:
382,163,168381,1,0,0:0:0:0:
425,159,168458,5,0,0:0:0:0:
467,142,168535,1,0,0:0:0:0:
483,100,168612,1,0,0:0:0:0:
469,57,168689,1,0,0:0:0:0:
433,31,168766,1,0,0:0:0:0:
389,28,168843,1,0,0:0:0:0:
352,50,168920,1,0,0:0:0:0:
328,87,168997,1,0,0:0:0:0:
285,96,169073,5,0,0:0:0:0:
262,74,169150,1,0,0:0:0:0:
239,51,169227,1,0,0:0:0:0:
217,28,169304,1,0,0:0:0:0:
167,71,169381,5,0,0:0:0:0:
190,93,169458,1,0,0:0:0:0:
213,116,169535,1,0,0:0:0:0:
235,139,169612,1,0,0:0:0:0:
190,186,169688,5,0,0:0:0:0:
167,164,169765,1,0,0:0:0:0:
144,141,169842,1,0,0:0:0:0:
122,118,169919,1,0,0:0:0:0:
79,168,169996,5,0,0:0:0:0:
102,190,170073,1,0,0:0:0:0:
125,213,170150,1,0,0:0:0:0:
147,236,170227,1,0,0:0:0:0:
120,264,170304,6,0,B|155:287|128:336,3,55
392,120,170611,2,0,B|357:97|384:48,3,55
209,315,170919,2,0,B|244:338|217:387,3,55
481,171,171226,2,0,B|446:148|473:99,3,55
392,264,171535,6,0,B|357:287|384:336,3,55
120,120,171842,2,0,B|155:97|128:48,3,55
303,315,172150,2,0,B|268:338|295:387,3,55
31,171,172457,2,0,B|66:148|39:99,3,55
398,38,172765,6,0,B|363:61|390:110,3,55
114,346,173073,2,0,B|149:323|122:274,3,55
398,38,173381,6,0,B|363:61|390:110,3,55
114,346,173689,2,0,B|149:323|122:274,3,55
398,38,173996,6,0,B|363:61|390:110,3,55
114,346,174304,2,0,B|149:323|122:274,3,55
398,38,174611,6,0,B|363:61|390:110,5,55
381,135,175073,6,0,B|318:201|235:192|187:132,1,220
107,50,175535,1,0,0:0:0:0:
162,204,175688,1,0,0:0:0:0:
42,317,175842,1,0,0:0:0:0:
247,210,175996,1,0,0:0:0:0:
215,372,176150,1,0,0:0:0:0:
375,334,176304,1,0,0:0:0:0:
128,288,176458,5,0,0:0:0:0:
384,160,176611,1,0,0:0:0:0:
128,96,176765,1,0,0:0:0:0:
384,64,176919,1,0,0:0:0:0:
128,32,177073,1,0,0:0:0:0:
384,64,177227,1,0,0:0:0:0:
128,160,177381,1,0,0:0:0:0:
384,64,177534,1,0,0:0:0:0:
256,352,177688,5,0,0:0:0:0:
256,352,177765,1,0,0:0:0:0:
256,352,177842,1,0,0:0:0:0:
32,192,177996,1,0,0:0:0:0:
480,192,178150,1,0,0:0:0:0:
256,32,178304,1,0,0:0:0:0:
256,224,178458,1,0,0:0:0:0:
256,192,178534,1,0,0:0:0:0:
256,160,178611,1,0,0:0:0:0:
64,320,178764,5,0,0:0:0:0:
416,320,178918,1,0,0:0:0:0:
128,352,179073,1,0,0:0:0:0:
352,352,179227,1,0,0:0:0:0:
256,224,179381,1,0,0:0:0:0:
256,256,179458,1,0,0:0:0:0:
256,288,179534,1,0,0:0:0:0:
256,320,179611,1,0,0:0:0:0:
256,352,179688,1,0,0:0:0:0:
256,32,179842,1,0,0:0:0:0:
438,18,180150,5,0,0:0:0:0:
396,34,180227,1,0,0:0:0:0:
364,65,180304,1,0,0:0:0:0:
345,104,180381,1,0,0:0:0:0:
343,148,180458,1,0,0:0:0:0:
358,188,180534,1,0,0:0:0:0:
390,217,180611,1,0,0:0:0:0:
433,225,180688,1,0,0:0:0:0:
469,250,180765,6,0,B|489:284|468:322,1,55
465,357,180919,2,0,B|431:377|393:356,1,55,0|0,0:0|0:0,0:0:0:0:
377,320,181073,2,0,B|343:300|305:321,1,55,0|0,0:0|0:0,0:0:0:0:
270,327,181227,2,0,B|264:382,3,55
89,201,181534,2,0,B|34:195,3,55
157,210,181842,2,0,B|167:140,1,55
222,222,181996,2,0,B|292:232,1,55
344,236,182150,2,0,B|354:306,1,55
409,224,182304,2,0,B|479:214,1,55
506,162,182458,1,0,0:0:0:0:
506,162,182534,1,0,0:0:0:0:
506,162,182611,5,0,0:0:0:0:
462,156,182688,1,0,0:0:0:0:
418,148,182765,1,0,0:0:0:0:
377,129,182842,1,0,0:0:0:0:
344,99,182919,1,0,0:0:0:0:
318,63,182996,1,0,0:0:0:0:
313,19,183072,1,0,0:0:0:0:
313,19,183149,1,0,0:0:0:0:
313,19,183227,5,0,0:0:0:0:
285,54,183304,1,0,0:0:0:0:
257,89,183381,1,0,0:0:0:0:
220,115,183458,1,0,0:0:0:0:
177,128,183535,1,0,0:0:0:0:
133,133,183612,1,0,0:0:0:0:
92,115,183688,1,0,0:0:0:0:
92,115,183765,1,0,0:0:0:0:
92,115,183841,5,0,0:0:0:0:
52,134,183918,1,0,0:0:0:0:
23,167,183995,1,0,0:0:0:0:
15,210,184073,1,0,0:0:0:0:
32,249,184149,1,0,0:0:0:0:
68,273,184226,1,0,0:0:0:0:
111,278,184303,1,0,0:0:0:0:
151,261,184380,1,0,0:0:0:0:
184,231,184457,5,0,0:0:0:0:
224,214,184534,1,0,0:0:0:0:
267,218,184611,1,0,0:0:0:0:
294,252,184688,1,0,0:0:0:0:
300,297,184765,1,0,0:0:0:0:
278,335,184842,1,0,0:0:0:0:
319,379,184919,5,0,0:0:0:0:
319,379,184996,1,0,0:0:0:0:
319,379,185073,2,0,B|394:358,1,55
478,254,185227,2,0,B|403:275,1,55
361,141,185381,2,0,B|436:120,1,55
463,26,185534,5,0,0:0:0:0:
463,26,185611,1,0,0:0:0:0:
463,26,185688,2,0,B|390:46,1,55
269,98,185842,2,0,B|342:78,1,55
246,24,185996,2,0,B|173:44,1,55
52,96,186150,2,0,B|125:76,1,55
164,101,186304,5,0,0:0:0:0:
192,134,186381,1,0,0:0:0:0:
195,177,186458,1,0,0:0:0:0:
175,215,186534,1,0,0:0:0:0:
143,245,186611,1,0,0:0:0:0:
127,286,186688,1,0,0:0:0:0:
140,327,186765,1,0,0:0:0:0:
166,362,186842,1,0,0:0:0:0:
206,380,186919,6,0,B|248:323,1,55
264,299,187073,1,0,0:0:0:0:
292,265,187149,1,0,0:0:0:0:
325,236,187226,1,0,0:0:0:0:
367,225,187303,1,0,0:0:0:0:
410,219,187380,1,0,0:0:0:0:
453,227,187457,1,0,0:0:0:0:
490,250,187534,6,0,B|520:189,2,55
395,367,187765,2,0,B|367:351|364:309,2,55
239,322,187996,2,0,B|303:315,1,55
228,252,188150,2,0,B|164:259,1,55
220,180,188304,2,0,B|284:173,1,55
209,110,188458,2,0,B|145:117,1,55
87,121,188611,5,0,0:0:0:0:
49,144,188688,1,0,0:0:0:0:
29,183,188765,2,0,B|19:224|53:260,1,55
60,299,188919,2,0,B|19:289|-17:323,1,55
95,357,189073,6,0,B|136:367|172:333,1,55
213,339,189227,2,0,B|229:391,1,55
277,312,189381,2,0,B|253:249,1,55
312,220,189534,2,0,B|268:181,1,55
283,114,189688,2,0,B|218:114,1,55
305,48,189842,6,0,B|338:36|374:70,1,55
405,78,189996,1,0,0:0:0:0:
438,107,190073,1,0,0:0:0:0:
456,146,190150,1,0,0:0:0:0:
458,189,190227,1,0,0:0:0:0:
438,228,190304,1,0,0:0:0:0:
397,245,190381,1,0,0:0:0:0:
353,249,190458,2,0,B|354:304,1,55
349,373,190611,6,0,B|294:374,1,55
246,355,190766,1,0,0:0:0:0:
225,316,190843,1,0,0:0:0:0:
192,285,190920,1,0,0:0:0:0:
148,282,190996,1,0,0:0:0:0:
108,301,191073,2,0,B|88:321|94:374,1,55
33,246,191227,2,0,B|13:266|19:319,1,55
120,182,191381,2,0,B|100:202|106:255,1,55
45,127,191535,2,0,B|25:147|31:200,1,55
128,72,191688,5,0,0:0:0:0:
160,42,191765,1,0,0:0:0:0:
202,29,191842,1,0,0:0:0:0:
245,25,191919,1,0,0:0:0:0:
287,36,191996,1,0,0:0:0:0:
316,68,192073,1,0,0:0:0:0:
327,110,192150,1,0,0:0:0:0:
312,151,192227,1,0,0:0:0:0:
288,192,192304,6,0,B|288:272,1,55
416,144,192458,2,0,B|416:224,1,55
224,112,192611,2,0,B|224:192,1,55
496,80,192765,6,0,B|496:160,1,55
224,288,192919,2,0,B|224:368,1,55
64,144,193073,2,0,B|64:224,1,55
384,240,193227,2,0,B|384:320,1,55
16,288,193380,2,0,B|16:368,1,55
336,112,193534,6,0,B|432:112,1,55
176,112,193688,2,0,B|112:112,1,55
400,32,193842,2,0,B|496:32,1,55
112,32,193996,2,0,B|48:32,1,55
256,0,194150,5,0,0:0:0:0:
256,48,194227,1,0,0:0:0:0:
256,96,194304,1,0,0:0:0:0:
256,144,194380,1,0,0:0:0:0:
256,192,194457,1,0,0:0:0:0:
256,240,194534,1,0,0:0:0:0:
256,288,194611,1,0,0:0:0:0:
256,336,194688,1,0,0:0:0:0:
256,384,194765,6,0,B|288:384|320:352,1,55
256,384,194919,2,0,B|224:384|192:352,1,55
352,304,195073,2,0,B|384:304|416:272,1,55
160,304,195227,2,0,B|128:304|96:272,1,55
63,215,195381,5,0,0:0:0:0:
63,215,195458,1,0,0:0:0:0:
63,215,195534,1,0,0:0:0:0:
63,215,195611,1,0,0:0:0:0:
63,215,195688,2,0,B|105:152,1,55
143,81,195842,2,0,B|177:93|188:132,1,55
231,166,195996,2,0,B|243:132|282:121,1,55
331,114,196150,2,0,B|365:126|376:165,3,55
512,229,196458,2,0,B|500:263|461:274,3,55
403,237,196765,2,0,B|374:257|373:314,1,55
360,348,196919,2,0,B|285:326,1,55
244,313,197073,2,0,B|215:333|214:390,1,55
163,379,197227,5,0,0:0:0:0:
121,363,197304,1,0,0:0:0:0:
90,331,197381,1,0,0:0:0:0:
88,287,197457,1,0,0:0:0:0:
103,245,197534,1,0,0:0:0:0:
134,213,197611,1,0,0:0:0:0:
175,199,197688,1,0,0:0:0:0:
217,208,197765,1,0,0:0:0:0:
258,221,197842,5,0,0:0:0:0:
289,190,197919,1,0,0:0:0:0:
308,150,197996,1,0,0:0:0:0:
303,106,198072,1,0,0:0:0:0:
277,70,198149,1,0,0:0:0:0:
243,99,198226,1,0,0:0:0:0:
197,107,198303,1,0,0:0:0:0:
161,81,198380,1,0,0:0:0:0:
159,37,198458,5,0,0:0:0:0:
192,8,198535,1,0,0:0:0:0:
235,5,198611,2,0,B|275:12|271:52,13,55
64,96,199688,5,0,0:0:0:0:
448,96,199842,1,0,0:0:0:0:
256,352,199996,1,0,0:0:0:0:
256,352,200073,1,0,0:0:0:0:
256,352,200150,1,0,0:0:0:0:
64,288,200304,1,0,0:0:0:0:
256,352,200458,6,0,B|334:357|403:324|439:260|444:205,1,242.000007385254
462,26,200919,1,0,0:0:0:0:
370,135,201073,2,0,B|375:206|449:229,1,121.000003692627
306,25,201381,1,0,0:0:0:0:
131,150,201535,2,0,B|33:74,2,121.000003692627
288,301,201996,1,0,0:0:0:0:
128,256,202150,6,0,B|58:284|66:368,1,121.000003692627
374,182,202458,1,0,0:0:0:0:
213,331,202611,2,0,B|138:322|124:238,1,121.000003692627
391,84,202919,2,0,B|465:92|479:176,1,121.000003692627
320,0,203227,1,0,0:0:0:0:
475,158,203380,6,0,B|394:223|274:184|217:152,1,242.000007385254
244,165,203765,1,0,0:0:0:0:
244,165,203842,1,0,0:0:0:0:
143,50,203996,1,0,0:0:0:0:
27,104,204149,1,0,0:0:0:0:
47,141,204226,1,0,0:0:0:0:
22,175,204303,1,0,0:0:0:0:
39,213,204380,1,0,0:0:0:0:
20,251,204457,1,0,0:0:0:0:
40,288,204534,1,0,0:0:0:0:
13,328,204611,6,0,B|94:392|214:353|271:321,1,242.000007385254
351,189,205072,1,0,0:0:0:0:
243,334,205226,2,0,B|186:270|212:195,1,121.000003692627
256,32,205534,1,0,0:0:0:0:
96,288,205688,1,0,0:0:0:0:
416,288,205842,1,0,0:0:0:0:
256,384,205996,2,0,B|256:160,1,181.500005538941
256,202,206303,5,0,0:0:0:0:
128,192,206457,1,0,0:0:0:0:
384,192,206611,1,0,0:0:0:0:
64,128,206765,1,0,0:0:0:0:
448,128,206919,1,0,0:0:0:0:
128,64,207072,6,0,B|0:64,2,121.000003692627
512,64,207534,1,0,0:0:0:0:
128,288,207688,2,0,B|0:288,2,121.000003692627
512,288,208149,1,0,0:0:0:0:
384,64,208303,1,0,0:0:0:0:
320,288,208457,1,0,0:0:0:0:
512,160,208611,1,0,0:0:0:0:
32,160,208765,1,0,0:0:0:0:
96,352,208919,1,0,0:0:0:0:
224,256,209072,1,0,0:0:0:0:
224,256,209149,1,0,0:0:0:0:
224,256,209226,1,0,0:0:0:0:
288,384,209380,1,0,0:0:0:0:
416,288,209534,1,0,0:0:0:0:
288,384,209688,6,0,B|196:377|128:309|126:212,1,242.000007385254
155,22,210149,1,0,0:0:0:0:
238,155,210303,2,0,B|361:135,1,121.000003692627
136,115,210611,1,0,0:0:0:0:
136,115,210765,2,0,B|55:108|-8:160|-29:217|-1:266|18:312,1,242.000007385254
0,266,211149,1,0,0:0:0:0:
0,266,211226,1,0,0:0:0:0:
155,212,211380,1,0,0:0:0:0:
167,258,211457,1,0,0:0:0:0:
181,304,211534,1,0,0:0:0:0:
333,288,211688,1,0,0:0:0:0:
225,379,211842,1,0,0:0:0:0:
333,288,211996,6,0,B|451:322|509:249|510:173,1,242.000007385254
487,26,212457,1,0,0:0:0:0:
487,26,212611,1,0,0:0:0:0:
372,161,212765,2,0,B|297:122|316:29,1,121.000003692627
250,298,213072,1,0,0:0:0:0:
32,155,213226,5,0,0:0:0:0:
32,155,213303,1,0,0:0:0:0:
32,155,213380,2,0,B|39:221|102:246,1,121.000003692627
256,384,213688,2,0,B|255:219,1,121.000003692627
480,155,213996,2,0,B|473:221|410:246,1,121.000003692627
410,245,214226,1,0,0:0:0:0:
410,245,214303,1,0,0:0:0:0:
372,357,214457,2,0,B|273:314|229:236|242:147,1,242.000007385254
251,20,214919,1,0,0:0:0:0:
300,139,215072,2,0,B|350:102|443:105,1,121.000003692627
54,50,215380,5,0,0:0:0:0:
54,50,215457,1,0,0:0:0:0:
54,50,215534,1,0,0:0:0:0:
54,50,215611,1,0,0:0:0:0:
54,50,215688,1,0,0:0:0:0:
256,352,215842,1,0,0:0:0:0:
458,50,215996,1,0,0:0:0:0:
458,50,216073,1,0,0:0:0:0:
458,50,216150,1,0,0:0:0:0:
458,50,216227,1,0,0:0:0:0:
458,50,216304,1,0,0:0:0:0:
64,192,216457,5,0,0:0:0:0:
416,192,216611,1,0,0:0:0:0:
256,384,216765,1,0,0:0:0:0:
256,32,216919,2,0,B|256:288,1,242.000007385254
32,128,217380,1,0,0:0:0:0:
480,128,217534,1,0,0:0:0:0:
256,384,217688,2,0,B|256:256,1,121.000003692627
256,13,217996,1,0,0:0:0:0:
256,195,218149,6,0,B|256:-29,1,181.500005538941
64,224,218457,1,0,0:0:0:0:
416,224,218611,1,0,0:0:0:0:
256,64,218765,1,0,0:0:0:0:
256,320,218919,6,0,B|256:192,1,121.000003692627
256,199,219149,1,0,0:0:0:0:
256,199,219226,1,0,0:0:0:0:
480,384,219380,1,0,0:0:0:0:
480,96,219534,5,0,0:0:0:0:
480,96,219611,1,0,0:0:0:0:
480,96,219688,1,0,0:0:0:0:
32,96,219842,5,0,0:0:0:0:
32,96,219919,1,0,0:0:0:0:
32,96,219996,1,0,0:0:0:0:
32,96,220072,1,0,0:0:0:0:
32,96,220149,1,0,0:0:0:0:
480,96,220303,5,0,0:0:0:0:
32,96,220457,5,0,0:0:0:0:
32,96,220534,1,0,0:0:0:0:
32,96,220611,1,0,0:0:0:0:
32,96,220687,1,0,0:0:0:0:
32,96,220764,1,0,0:0:0:0:
32,96,220842,1,0,0:0:0:0:
32,96,220919,1,0,0:0:0:0:
480,96,221072,5,0,0:0:0:0:
32,96,221226,1,0,0:0:0:0:
480,96,221380,1,0,0:0:0:0:
480,96,221457,1,0,0:0:0:0:
480,96,221534,1,0,0:0:0:0:
32,96,221688,1,0,0:0:0:0:
32,96,221842,6,0,B|32:352,1,242.000007385254
448,352,222303,1,0,0:0:0:0:
96,320,222457,1,0,0:0:0:0:
448,288,222611,1,0,0:0:0:0:
96,256,222765,1,0,0:0:0:0:
448,224,222919,1,0,0:0:0:0:
96,192,223072,1,0,0:0:0:0:
448,160,223226,6,0,B|448:32,1,121.000003692627
96,192,223534,2,0,B|96:320,1,121.000003692627
448,160,223842,2,0,B|448:32,1,121.000003692627
32,32,224149,5,0,0:0:0:0:
32,32,224226,1,0,0:0:0:0:
32,32,224303,2,0,B|32:224,1,181.500005538941
31,262,224611,2,0,B|51:342|146:307,1,121.000003692627
448,192,224919,1,0,0:0:0:0:
256,96,225072,5,0,0:0:0:0:
256,96,225149,1,0,0:0:0:0:
256,96,225226,1,0,0:0:0:0:
256,96,225303,1,0,0:0:0:0:
256,96,225380,1,0,0:0:0:0:
256,96,225457,1,0,0:0:0:0:
256,96,225534,1,0,0:0:0:0:
256,96,225611,1,0,0:0:0:0:
256,96,225688,1,0,0:0:0:0:
256,96,225765,1,0,0:0:0:0:
256,96,225842,1,0,0:0:0:0:
256,96,225919,1,0,0:0:0:0:
256,96,225996,1,0,0:0:0:0:
256,96,226072,1,0,0:0:0:0:
256,96,226149,1,0,0:0:0:0:
256,192,226303,5,0,0:0:0:0:
352,96,226457,1,0,0:0:0:0:
160,288,226611,1,0,0:0:0:0:
416,32,226765,1,0,0:0:0:0:
416,32,226842,1,0,0:0:0:0:
416,32,226919,1,0,0:0:0:0:
64,352,227072,1,0,0:0:0:0:
320,128,227226,1,0,0:0:0:0:
64,352,227380,1,0,0:0:0:0:
480,192,227534,6,0,B|352:192,1,121.000003692627
32,192,227842,2,0,B|160:192,1,121.000003692627
192,192,228072,1,0,0:0:0:0:
192,192,228149,2,0,B|224:256,1,60.5000018463135
224,96,228303,2,0,B|256:160,1,60.5000018463135
288,224,228457,2,0,B|320:288,1,60.5000018463135
320,128,228611,2,0,B|352:192,1,60.5000018463135
384,256,228765,2,0,B|416:320,1,60.5000018463135
416,160,228919,2,0,B|448:224,1,60.5000018463135
480,288,229072,2,0,B|512:352,1,60.5000018463135
512,192,229226,5,0,0:0:0:0:
512,192,229303,1,0,0:0:0:0:
512,192,229380,1,0,0:0:0:0:
512,192,229457,1,0,0:0:0:0:
512,192,229534,1,0,0:0:0:0:
96,192,229688,5,0,0:0:0:0:
512,192,229842,1,0,0:0:0:0:
96,192,229996,5,0,0:0:0:0:
96,192,230072,1,0,0:0:0:0:
96,192,230149,1,0,0:0:0:0:
512,192,230303,1,0,0:0:0:0:
96,192,230456,5,0,0:0:0:0:
96,192,230534,1,0,0:0:0:0:
96,192,230611,1,0,0:0:0:0:
96,192,230688,1,0,0:0:0:0:
96,192,230764,1,0,0:0:0:0:
512,192,230919,5,0,0:0:0:0:
96,192,231072,1,0,0:0:0:0:
512,192,231226,1,0,0:0:0:0:
96,192,231380,5,0,0:0:0:0:
96,192,231457,1,0,0:0:0:0:
96,192,231534,1,0,0:0:0:0:
96,192,231611,1,0,0:0:0:0:
96,192,231688,1,0,0:0:0:0:
512,192,231842,5,0,0:0:0:0:
96,192,231996,6,0,B|224:192,1,121.000003692627
512,192,232303,1,0,0:0:0:0:
128,64,232457,2,0,B|384:64,1,242.000007385254
512,64,232919,1,0,0:0:0:0:
32,160,233072,1,0,0:0:0:0:
352,256,233226,1,0,0:0:0:0:
96,320,233380,2,0,B|224:320,1,121.000003692627
416,64,233688,2,0,B|288:64,1,121.000003692627
96,320,233996,2,0,B|224:320,1,121.000003692627
480,320,234303,5,0,0:0:0:0:
160,192,234457,1,0,0:0:0:0:
416,128,234611,1,0,0:0:0:0:
416,128,234688,1,0,0:0:0:0:
416,128,234765,1,0,0:0:0:0:
96,128,234919,1,0,0:0:0:0:
96,128,234996,1,0,0:0:0:0:
96,128,235073,1,0,0:0:0:0:
416,128,235226,1,0,0:0:0:0:
416,128,235303,1,0,0:0:0:0:
416,128,235380,1,0,0:0:0:0:
96,128,235534,5,0,0:0:0:0:
416,128,235688,1,0,0:0:0:0:
96,128,235842,2,0,B|96:256,1,121.000003692627
256,32,236149,1,0,0:0:0:0:
416,256,236303,2,0,B|416:128,1,121.000003692627
256,32,236611,6,0,B|256:288,1,242.000007385254
448,128,237072,1,0,0:0:0:0:
96,320,237226,1,0,0:0:0:0:
96,320,237303,1,0,0:0:0:0:
96,320,237380,1,0,0:0:0:0:
384,64,237534,2,0,B|384:224,1,121.000003692627
320,352,237842,1,0,0:0:0:0:
256,32,237996,2,0,B|256:320,1,242.000007385254
32,96,238457,1,0,0:0:0:0:
480,96,238611,2,0,B|480:256,1,121.000003692627
256,320,238919,5,0,0:0:0:0:
480,320,239072,1,0,0:0:0:0:
160,256,239226,1,0,0:0:0:0:
384,256,239380,1,0,0:0:0:0:
64,192,239534,1,0,0:0:0:0:
64,192,239611,1,0,0:0:0:0:
64,192,239688,1,0,0:0:0:0:
320,192,239842,1,0,0:0:0:0:
320,192,239919,1,0,0:0:0:0:
320,192,239996,1,0,0:0:0:0:
0,128,240149,1,0,0:0:0:0:
0,128,240226,1,0,0:0:0:0:
0,128,240303,1,0,0:0:0:0:
256,128,240457,5,0,0:0:0:0:
64,64,240611,1,0,0:0:0:0:
448,64,240765,1,0,0:0:0:0:
384,192,240919,1,0,0:0:0:0:
256,32,241072,1,0,0:0:0:0:
128,352,241226,1,0,0:0:0:0:
384,352,241380,1,0,0:0:0:0:
256,192,241534,1,0,0:0:0:0:
