osu file format v14

[General]
AudioFilename: audio.mp3
AudioLeadIn: 0
PreviewTime: 51488
Countdown: 0
SampleSet: Soft
StackLeniency: 0.4
Mode: 0
LetterboxInBreaks: 0
WidescreenStoryboard: 1

[Editor]
DistanceSpacing: 1
BeatDivisor: 2
GridSize: 4
TimelineZoom: 1

[Metadata]
Title:Xiao Yu
TitleUnicode:小雨
Artist:Huang Ling
ArtistUnicode:黄龄
Creator:Sandrew
Version:Normal
Source:
Tags:Isabelle Huang yellow zero chinese pop 花&色 hua and se flower to be
BeatmapID:4522999
BeatmapSetID:2142247

[Difficulty]
HPDrainRate:3
CircleSize:3
OverallDifficulty:4
ApproachRate:5
SliderMultiplier:1.1
SliderTickRate:1

[Events]
//Background and Video events
0,0,"iBqn5F4V.jpg",0,0
//Break Periods
2,82153,86567
//Storyboard Layer 0 (Background)
//Storyboard Layer 1 (Fail)
//Storyboard Layer 2 (Pass)
//Storyboard Layer 3 (Foreground)
//Storyboard Layer 4 (Overlay)
//Storyboard Sound Samples

[TimingPoints]
326,465.116279069767,4,1,0,100,1,0
7535,-100,4,2,1,50,0,0
37535,-100,4,2,1,40,0,0
51488,-100,4,2,1,40,0,0
52419,-100,4,2,1,70,0,1
66837,-100,4,2,1,70,0,0
67302,-100,4,2,1,70,0,1
82186,-100,4,2,1,70,0,0
87767,-100,4,2,2,40,0,0
95209,-100,4,2,2,50,0,0
110093,-100,4,2,1,60,0,0
123116,-100,4,2,1,50,0,0
124046,-100,4,2,1,50,0,0
124977,-100,4,2,1,70,0,1
139395,-100,4,2,1,70,0,0
139860,-100,4,2,1,70,0,1
154744,-100,4,2,1,70,0,0

[Colours]
Combo1 : 43,213,213
Combo2 : 16,112,16
Combo3 : 23,121,168
Combo4 : 128,213,43

[HitObjects]
45,50,7767,6,0,P|98:56|153:40,1,110,2|0,0:0|0:0,0:0:0:0:
203,60,8465,1,0,0:0:0:0:
203,60,8698,2,0,P|261:45|314:56,1,110,2|0,0:0|0:0,0:0:0:0:
418,44,9628,2,0,L|412:164,1,110,2|0,0:0|0:0,0:0:0:0:
415,208,10325,2,0,L|483:201,1,55,0|2,0:0|0:0,0:0:0:0:
481,311,11023,1,0,0:0:0:0:
378,349,11488,6,0,P|325:343|270:359,1,110,2|0,0:0|0:0,0:0:0:0:
208,267,12419,1,2,0:0:0:0:
122,198,12884,1,0,0:0:0:0:
12,215,13349,2,0,B|24:242|24:242|7:344,2,110,2|0|2,0:0|0:0|0:0,0:0:0:0:
33,107,14744,1,0,0:0:0:0:
127,50,15209,6,0,B|113:129|113:129|125:156,1,110,2|0,0:0|0:0,0:0:0:0:
156,201,15907,1,0,0:0:0:0:
156,201,16139,2,0,B|168:228|168:228|154:307,1,110,2|0,0:0|0:0,0:0:0:0:
293,340,17070,2,0,B|281:313|281:313|294:233,1,110,2|0,0:0|0:0,0:0:0:0:
297,178,17767,2,0,L|368:187,1,55,0|2,0:0|0:0,0:0:0:0:
379,291,18465,1,0,0:0:0:0:
467,225,18930,6,0,P|474:162|459:99,1,110,2|0,0:0|0:0,0:0:0:0:
450,70,19628,1,0,0:0:0:0:
450,70,19860,2,0,P|393:47|336:50,1,110,2|0,0:0|0:0,0:0:0:0:
250,104,20791,2,0,P|195:103|145:81,1,110,2|0,0:0|0:0,0:0:0:0:
46,32,21721,2,0,B|66:55|66:55|48:200,1,165,2|0,0:0|0:0,0:0:0:0:
45,243,22651,6,0,P|97:229|167:243,1,110,4|0,0:1|0:0,0:0:0:0:
207,260,23349,1,0,0:0:0:0:
207,260,23581,2,0,L|194:371,1,110,2|0,0:0|0:0,0:0:0:0:
300,339,24512,2,0,L|312:229,1,110,2|0,0:0|0:0,0:0:0:0:
285,182,25209,2,0,L|222:165,1,55,0|2,0:0|0:0,0:0:0:0:
121,164,25907,1,0,0:0:0:0:
13,190,26372,6,0,P|27:227|17:315,1,110,2|0,0:0|0:0,0:0:0:0:
121,347,27302,1,2,0:0:0:0:
229,327,27767,1,0,0:0:0:0:
336,349,28232,2,0,P|386:338|455:351,1,110,2|0,0:0|0:0,0:0:0:0:
478,303,28930,1,0,0:0:0:0:
478,303,29163,2,0,L|490:174,1,110,2|0,0:0|0:0,0:0:0:0:
485,83,30093,6,0,P|433:69|363:83,1,110,2|0,0:0|0:0,0:0:0:0:
330,102,30791,1,0,0:0:0:0:
330,102,31023,2,0,L|343:213,1,110,2|0,0:0|0:0,0:0:0:0:
236,186,31954,2,0,L|223:76,1,110,2|0,0:0|0:0,0:0:0:0:
193,30,32651,2,0,L|133:27,1,55,0|2,0:0|0:0,0:0:0:0:
28,33,33349,1,0,0:0:0:0:
19,142,33814,6,0,L|147:135,1,110,2|0,0:0|0:0,0:0:0:0:
179,158,34512,1,0,0:0:0:0:
179,158,34744,2,0,P|188:210|178:279,1,110,2|0,0:0|0:0,0:0:0:0:
75,236,35674,2,0,P|68:290|77:344,1,110,2|0,0:0|0:0,0:0:0:0:
186,353,36605,2,0,P|261:351|274:271,1,165,2|0,0:0|0:0,0:0:0:0:
222,265,37535,6,0,L|216:202,1,55,2|0,0:0|0:0,0:0:0:0:
193,160,38000,2,0,L|187:97,1,55,0|0,0:0|0:0,0:0:0:0:
182,50,38465,1,8,0:0:0:0:
291,41,38930,1,0,0:0:0:0:
400,34,39395,2,0,L|525:24,2,110,2|0|8,0:0|0:0|0:0,0:0:0:0:
370,140,40791,2,0,L|439:133,1,55,0|0,0:0|0:0,0:0:0:0:
478,123,41256,6,0,L|468:206,1,55,2|0,0:0|0:0,0:0:0:0:
480,231,41721,2,0,L|470:314,1,55,0|0,0:0|0:0,0:0:0:0:
470,340,42186,1,8,0:0:0:0:
360,345,42651,1,0,0:0:0:0:
251,360,43116,2,0,L|122:365,2,110,2|0|8,0:0|0:0|0:0,0:0:0:0:
280,313,44279,2,0,L|287:241,1,55,0|0,0:0|0:0,0:0:0:0:
175,234,44977,6,0,L|168:162,1,55,2|0,0:0|0:0,0:0:0:0:
195,130,45442,2,0,L|188:58,1,55,0|0,0:0|0:0,0:0:0:0:
186,20,45907,1,8,0:0:0:0:
76,28,46372,2,0,L|11:30,1,55,0|0,0:0|0:0,0:0:0:0:
17,84,46837,2,0,L|24:156,1,55,2|0,0:0|0:0,0:0:0:0:
26,193,47302,1,0,0:0:0:0:
18,302,47767,1,8,0:0:0:0:
119,344,48232,2,0,L|177:339,1,55,0|0,0:0|0:0,0:0:0:0:
227,324,48698,6,0,B|224:223|224:223|196:192|196:192|196:102,1,220,2|8,0:0|0:0,0:0:0:0:
284,49,50093,1,0,0:0:0:0:
393,34,50558,2,0,P|436:75|490:50,1,110,2|0,0:0|0:0,0:0:0:0:
467,345,52419,6,0,P|459:286|488:219,1,110,4|2,0:1|0:0,0:0:0:0:
436,207,53116,1,4,0:3:0:0:
436,207,53349,2,0,L|355:197,1,55,8|0,0:0|0:0,0:0:0:0:
326,196,53814,1,2,0:0:0:0:
253,278,54279,2,0,L|172:288,1,55,8|2,0:3|0:0,0:0:0:0:
153,316,54744,2,0,P|98:326|24:301,1,110,2|8,0:3|0:0,0:0:0:0:
15,274,55442,1,4,0:3:0:0:
15,274,55674,2,0,L|22:204,1,55,2|4,0:3|0:3,0:0:0:0:
27,164,56139,6,0,P|84:169|150:147,1,110,8|2,0:3|0:0,0:0:0:0:
191,145,56837,1,4,0:3:0:0:
191,145,57070,1,8,0:0:0:0:
239,46,57535,1,2,0:0:0:0:
298,138,58000,2,0,L|288:209,1,55,8|2,0:3|0:0,0:0:0:0:
254,234,58465,2,0,L|244:305,1,55,2|2,0:3|0:0,0:0:0:0:
217,335,58930,1,8,0:0:0:0:
217,335,59163,2,0,L|140:341,2,55,4|4|4,0:3|0:3|0:3,0:0:0:0:
271,333,59860,6,0,P|324:325|403:357,1,110,8|2,0:3|0:0,0:0:0:0:
432,347,60558,1,4,0:3:0:0:
432,347,60791,2,0,L|425:275,1,55,8|0,0:0|0:0,0:0:0:0:
421,237,61256,1,2,0:0:0:0:
321,191,61721,2,0,L|240:181,1,55,8|2,0:3|0:0,0:0:0:0:
216,160,62186,2,0,P|166:146|83:164,1,110,2|8,0:3|0:0,0:0:0:0:
55,137,62884,1,4,0:3:0:0:
55,137,63116,2,0,L|46:62,1,55,2|4,3:0|0:3,0:0:0:0:
47,27,63581,6,0,P|104:32|170:10,1,110,8|2,0:3|0:0,0:0:0:0:
211,20,64279,1,4,0:3:0:0:
211,20,64512,1,8,0:0:0:0:
318,40,64977,1,2,0:0:0:0:
297,148,65442,2,0,L|210:126,1,55,8|0,0:3|0:0,0:0:0:0:
190,118,65907,1,2,0:3:0:0:
223,222,66372,2,0,L|226:287,1,55,8|4,0:0|0:3,0:0:0:0:
178,311,66837,1,4,0:3:0:0:
178,311,67070,1,4,0:3:0:0:
178,311,67302,6,0,P|124:307|47:344,1,110,4|2,0:1|0:0,0:0:0:0:
21,302,68000,1,4,0:3:0:0:
21,302,68232,2,0,L|30:237,1,55,8|0,0:0|0:0,0:0:0:0:
40,193,68698,1,2,0:0:0:0:
147,171,69163,2,0,L|228:161,1,55,8|2,0:3|0:0,0:0:0:0:
252,143,69628,2,0,P|307:154|379:124,1,110,2|8,0:3|0:0,0:0:0:0:
414,161,70325,1,4,0:3:0:0:
414,161,70558,2,0,L|407:231,1,55,2|4,0:3|0:3,0:0:0:0:
402,271,71023,6,0,P|345:266|279:288,1,110,8|2,0:3|0:0,0:0:0:0:
238,290,71721,1,4,0:3:0:0:
238,290,71954,1,8,0:0:0:0:
151,358,72419,1,2,0:0:0:0:
140,248,72884,2,0,L|130:177,1,55,8|2,0:3|0:0,0:0:0:0:
96,152,73349,2,0,L|86:81,1,55,2|2,0:3|0:0,0:0:0:0:
59,51,73814,1,8,0:0:0:0:
59,51,74047,2,0,L|-18:45,2,55,4|4|4,0:3|0:3|0:3,0:0:0:0:
113,53,74744,6,0,P|166:61|245:29,1,110,8|2,0:3|0:0,0:0:0:0:
274,39,75442,1,4,0:3:0:0:
274,39,75674,2,0,L|288:108,1,55,8|0,0:0|0:0,0:0:0:0:
297,146,76139,1,2,0:0:0:0:
188,163,76605,2,0,L|198:234,1,55,8|2,0:3|0:0,0:0:0:0:
226,265,77070,2,0,P|240:318|288:349,1,110,2|8,0:3|0:0,0:0:0:0:
344,359,77767,1,4,0:3:0:0:
344,359,78000,2,0,L|418:350,1,55,2|4,0:3|0:3,0:0:0:0:
451,335,78465,6,0,P|448:279|481:221,1,110,8|2,0:3|0:0,0:0:0:0:
492,180,79163,1,4,0:3:0:0:
492,180,79395,1,8,0:0:0:0:
495,70,79860,2,0,P|439:67|390:33,1,110,2|8,0:0|0:3,0:0:0:0:
284,32,80791,2,0,B|231:135|320:135|270:260,1,220,2|4,0:0|0:3,0:0:0:0:
271,299,81953,1,4,0:3:0:0:
472,338,87767,6,0,L|333:344,1,110,2|0,0:0|0:0,0:0:0:0:
307,346,88465,1,8,0:0:0:0:
365,252,88930,2,0,L|457:247,1,55,8|0,0:0|0:0,0:0:0:0:
475,154,89628,1,2,0:0:0:0:
310,160,90325,1,8,0:0:0:0:
333,52,90791,2,0,L|442:47,1,110,8|0,0:0|0:0,0:0:0:0:
478,89,91488,6,0,L|464:209,1,110,2|0,0:0|0:0,0:0:0:0:
460,253,92186,1,8,0:0:0:0:
390,338,92651,1,0,0:0:0:0:
335,248,93116,1,0,0:0:0:0:
335,248,93349,2,0,L|206:241,1,110,2|0,0:0|0:0,0:0:0:0:
170,239,94046,1,8,0:0:0:0:
114,334,94512,2,0,L|169:329,2,55,0|0|0,0:0|0:0|0:0,0:0:0:0:
59,325,95209,6,0,P|56:266|29:199,1,110,2|8,0:0|0:0,0:0:0:0:
45,167,95907,1,0,0:0:0:0:
45,167,96139,2,0,P|96:147|170:151,1,110,0|8,0:0|0:0,0:0:0:0:
245,89,97070,2,0,L|251:213,1,110,2|8,0:0|0:0,0:0:0:0:
230,249,97767,2,0,L|161:244,1,55,0|0,0:0|0:0,0:0:0:0:
219,345,98465,2,0,L|298:337,1,55,8|0,0:0|0:0,0:0:0:0:
327,327,98930,6,0,P|316:270|339:213,1,110,2|8,0:0|0:0,0:0:0:0:
318,168,99628,2,0,L|239:173,1,55,0|0,0:0|0:0,0:0:0:0:
268,61,100325,2,0,L|322:57,1,55,8|0,0:0|0:0,0:0:0:0:
374,36,100791,2,0,L|428:32,1,55,2|0,0:0|0:0,0:0:0:0:
477,58,101256,2,0,L|471:128,1,55,8|0,0:0|0:0,0:0:0:0:
469,167,101721,2,0,B|463:235|463:235|471:254|471:254|461:344,1,165,0|0,0:0|0:0,0:0:0:0:
409,345,102651,6,0,P|348:325|284:340,1,110,4|8,0:1|0:0,0:0:0:0:
256,314,103349,1,0,0:0:0:0:
256,314,103581,2,0,P|255:250|279:197,1,110,0|8,0:0|0:0,0:0:0:0:
376,173,104512,2,0,P|390:124|359:53,1,110,2|8,0:0|0:0,0:0:0:0:
323,45,105209,2,0,L|254:36,1,55,0|0,0:0|0:0,0:0:0:0:
159,56,105907,2,0,L|104:48,1,55,8|0,0:0|0:0,0:0:0:0:
49,42,106372,5,2,0:0:0:0:
38,151,106837,1,8,0:0:0:0:
147,165,107302,1,0,0:0:0:0:
138,274,107767,2,0,L|52:262,1,55,8|0,0:0|0:0,0:0:0:0:
31,260,108232,2,0,L|38:150,1,110,2|8,0:0|0:0,0:0:0:0:
41,40,109163,1,0,0:0:0:0:
151,46,109628,2,0,L|213:45,1,55,8|0,0:0|0:0,0:0:0:0:
255,68,110093,6,0,P|241:124|253:210,1,110,4|4,0:0|0:3,0:0:0:0:
253,229,110791,1,2,0:3:0:0:
231,341,111256,1,0,0:0:0:0:
231,341,111488,2,0,L|308:335,1,55,0|4,3:0|0:3,0:0:0:0:
338,320,111953,2,0,L|347:254,1,55,8|0,0:3|3:0,0:0:0:0:
352,210,112419,2,0,L|343:144,1,55,2|0,0:3|3:0,0:0:0:0:
332,101,112884,1,0,3:0:0:0:
404,18,113349,2,0,L|466:16,1,55,0|4,3:0|0:3,0:0:0:0:
493,58,113814,6,0,P|478:113|493:176,1,110,8|0,0:3|3:0,0:0:0:0:
447,201,114512,2,0,L|392:199,1,55,2|0,0:3|3:0,0:0:0:0:
289,159,115209,2,0,L|234:157,1,55,0|4,3:0|0:3,0:0:0:0:
179,153,115674,1,8,0:3:0:0:
77,194,116139,1,2,0:3:0:0:
134,287,116605,2,0,L|267:283,1,110,0|4,3:0|0:3,0:0:0:0:
284,242,117302,1,2,0:3:0:0:
284,242,117535,6,0,P|274:179|298:118,1,110,8|4,0:3|0:3,0:0:0:0:
300,82,118232,1,2,0:3:0:0:
197,41,118698,1,0,0:0:0:0:
197,41,118930,2,0,L|118:33,1,55,0|4,3:0|0:3,0:0:0:0:
91,55,119395,2,0,P|77:107|88:161,1,110,8|2,0:3|0:3,0:0:0:0:
98,215,120093,1,4,0:3:0:0:
98,215,120325,1,0,0:0:0:0:
79,326,120791,2,0,L|159:318,1,55,0|2,3:0|3:0,0:0:0:0:
185,301,121256,6,0,P|198:248|187:194,1,110,8|0,0:3|3:0,0:0:0:0:
218,150,121953,1,2,0:3:0:0:
218,150,122186,2,0,P|272:150|330:126,1,110,4|2,0:3|0:3,0:0:0:0:
335,188,122884,1,0,3:0:0:0:
335,188,123116,2,0,L|321:322,1,110,4|0,0:3|0:0,0:0:0:0:
417,353,124046,2,0,B|423:287|423:287|457:259|457:259|463:183,1,165,0|0,0:0|0:0,0:0:0:0:
427,160,124977,6,0,P|366:167|309:131,1,110,4|2,0:1|0:0,0:0:0:0:
281,181,125674,1,4,0:3:0:0:
281,181,125907,2,0,L|272:255,1,55,8|0,0:0|0:0,0:0:0:0:
269,290,126372,1,2,0:0:0:0:
171,341,126837,2,0,L|177:286,1,55,8|2,0:3|0:0,0:0:0:0:
190,232,127302,2,0,P|231:179|296:174,1,110,2|8,0:3|0:0,0:0:0:0:
328,187,128000,1,4,0:3:0:0:
328,187,128232,2,0,L|411:184,1,55,2|4,0:3|0:3,0:0:0:0:
437,173,128698,6,0,P|436:109|465:59,1,110,8|2,0:3|0:0,0:0:0:0:
481,22,129395,1,4,0:3:0:0:
481,22,129628,1,8,0:0:0:0:
371,27,130093,1,2,0:0:0:0:
317,122,130558,2,0,L|310:176,1,55,8|2,0:3|0:0,0:0:0:0:
281,223,131023,2,0,L|274:277,1,55,2|2,0:3|0:0,0:0:0:0:
291,329,131488,1,8,0:0:0:0:
291,329,131721,2,0,L|356:331,2,55,4|4|4,0:3|0:3|0:3,0:0:0:0:
235,329,132419,6,0,P|172:328|95:362,1,110,8|2,0:3|0:0,0:0:0:0:
73,333,133116,1,4,0:3:0:0:
73,333,133349,2,0,L|60:265,1,55,8|0,0:0|0:0,0:0:0:0:
54,224,133814,1,2,0:0:0:0:
147,166,134279,2,0,L|201:159,1,55,8|2,0:3|0:0,0:0:0:0:
251,136,134744,2,0,P|304:139|346:186,1,110,2|8,0:3|0:0,0:0:0:0:
339,236,135442,1,4,0:3:0:0:
339,236,135674,2,0,L|348:329,1,55,2|4,0:3|0:3,0:0:0:0:
356,344,136139,6,0,P|424:348|477:317,1,110,8|2,0:3|0:0,0:0:0:0:
503,296,136837,1,4,0:3:0:0:
503,296,137070,1,8,0:0:0:0:
479,188,137535,1,2,0:0:0:0:
374,154,138000,2,0,L|367:229,1,55,8|0,0:3|0:0,0:0:0:0:
362,263,138465,1,2,0:0:0:0:
272,199,138930,2,0,L|194:194,1,55,8|4,0:0|0:3,0:0:0:0:
195,146,139395,1,4,0:3:0:0:
195,146,139628,1,4,0:3:0:0:
195,146,139860,6,0,P|203:92|172:30,1,110,4|2,0:1|0:0,0:0:0:0:
129,27,140558,1,4,0:3:0:0:
129,27,140791,2,0,L|51:22,1,55,8|0,0:0|0:0,0:0:0:0:
42,68,141256,1,2,0:0:0:0:
129,134,141721,2,0,L|184:140,1,55,8|2,0:3|0:0,0:0:0:0:
236,154,142186,2,0,P|281:171|307:248,1,110,2|8,0:3|0:0,0:0:0:0:
312,283,142884,1,4,0:3:0:0:
312,283,143116,2,0,L|302:367,1,55,2|4,0:3|0:3,0:0:0:0:
254,357,143581,6,0,P|201:330|121:347,1,110,8|2,0:3|0:0,0:0:0:0:
102,348,144279,1,4,0:3:0:0:
102,348,144512,1,8,0:0:0:0:
67,243,144977,1,2,0:0:0:0:
169,204,145442,2,0,L|253:194,1,55,8|2,0:3|0:0,0:0:0:0:
258,154,145907,2,0,L|342:144,1,55,2|2,0:3|0:0,0:0:0:0:
363,125,146372,1,8,0:0:0:0:
363,125,146605,2,0,L|370:50,2,55,4|4|4,0:3|0:3|0:3,0:0:0:0:
349,178,147302,6,0,P|330:232|347:297,1,110,8|2,0:3|0:0,0:0:0:0:
352,341,148000,1,4,0:3:0:0:
352,341,148232,2,0,L|425:342,1,55,8|0,0:0|0:0,0:0:0:0:
461,352,148698,1,2,0:0:0:0:
468,241,149163,2,0,L|474:158,1,55,8|2,0:3|0:0,0:0:0:0:
445,137,149628,2,0,P|427:77|385:42,1,110,2|8,0:3|0:0,0:0:0:0:
343,60,150325,1,4,0:3:0:0:
343,60,150558,2,0,L|272:54,1,55,2|4,0:3|0:3,0:0:0:0:
246,91,151023,6,0,P|228:156|245:204,1,110,8|2,0:3|0:0,0:0:0:0:
260,251,151721,1,4,0:3:0:0:
260,251,151953,1,8,0:0:0:0:
200,343,152419,2,0,L|329:352,1,110,2|0,0:0|0:0,0:0:0:0:
419,353,153349,2,0,B|433:266|433:266|456:237|456:237|473:144,1,220,2|4,0:0|0:3,0:0:0:0:
479,88,154512,1,4,0:3:0:0:
