osu file format v14

[General]
AudioFilename: audio.mp3
AudioLeadIn: 0
PreviewTime: 63810
Countdown: 0
SampleSet: Soft
StackLeniency: 0.6
Mode: 0
LetterboxInBreaks: 0
WidescreenStoryboard: 0

[Editor]
Bookmarks: 7856,13383,14172,26804,39435,63810,64106,64698,72790,74172,74567,89962,102593,140488,149962,165751,178383,179962,186277,201672,202067,217856,219337,219435,230488
DistanceSpacing: 1.4
BeatDivisor: 4
GridSize: 4
TimelineZoom: 2.5

[Metadata]
Title:Deng Dai
TitleUnicode:等待
Artist:Huang Ling
ArtistUnicode:黄龄
Creator:Bellicose
Version:GodKei's Hard
Source:镇魂街
Tags:Zhen Hun Jie Rakshasa Street chinese anime ending full version rock AIR godkei
BeatmapID:2300003
BeatmapSetID:1094296

[Difficulty]
HPDrainRate:5
CircleSize:3.5
OverallDifficulty:6
ApproachRate:8
SliderMultiplier:1.4
SliderTickRate:1

[Events]
//Background and Video events
0,0,"321.jpg",0,0
//Break Periods
2,192793,201317
//Storyboard Layer 0 (Background)
//Storyboard Layer 1 (Fail)
//Storyboard Layer 2 (Pass)
//Storyboard Layer 3 (Foreground)
//Storyboard Layer 4 (Overlay)
//Storyboard Sound Samples

[TimingPoints]
1541,394.736842105263,4,2,3,50,1,0
1541,-133.333333333333,4,2,3,50,0,0
7856,-125,4,2,3,55,0,0
11804,-125,4,2,3,60,0,0
12593,-125,4,3,0,50,0,0
13383,-100,4,2,3,50,0,0
14172,-100,4,2,1,70,0,0
26804,-100,4,2,3,40,0,0
39435,-142.857142857143,4,2,3,40,0,0
50290,-142.857142857143,4,2,2,50,0,0
51277,-142.857142857143,4,2,2,30,0,0
51672,-142.857142857143,4,2,2,50,0,0
51968,-142.857142857143,4,2,3,5,0,0
52067,-111.111111111111,4,2,2,60,0,0
56212,-100,4,2,1,60,0,0
56409,-100,4,2,2,60,0,0
56606,-111.111111111111,4,2,1,60,0,0
57100,-100,4,2,2,60,0,0
57396,-100,4,2,1,60,0,0
57593,-111.111111111111,4,2,2,60,0,0
57790,-100,4,2,1,60,0,0
58383,-111.111111111111,4,2,1,70,0,0
59764,-111.111111111111,4,2,1,70,0,0
62922,-100,4,2,1,80,0,0
63810,-499.999999999995,4,2,3,50,0,0
63909,-100,4,2,1,60,0,0
64698,-83.3333333333333,4,2,1,80,0,1
72198,-83.3333333333333,4,2,1,80,0,1
72396,-83.3333333333333,4,2,1,80,0,1
72692,-83.3333333333333,4,2,1,5,0,1
72790,-83.3333333333333,4,2,1,50,0,1
72988,-83.3333333333333,4,2,1,80,0,1
73185,-83.3333333333333,4,2,1,80,0,1
73777,-83.3333333333333,4,2,1,80,0,1
74172,-71.4285714285714,4,2,1,80,0,1
75356,-83.3333333333333,4,2,1,80,0,1
75554,-83.3333333333333,4,2,1,90,0,1
75751,-83.3333333333333,4,2,1,80,0,1
75948,-83.3333333333333,4,2,1,90,0,1
76146,-83.3333333333333,4,2,1,80,0,1
76343,-83.3333333333333,4,2,1,90,0,1
76738,-83.3333333333333,4,2,1,80,0,1
77330,-83.3333333333333,4,2,1,80,0,1
84830,-83.3333333333333,4,2,1,80,0,1
85027,-83.3333333333333,4,2,1,80,0,1
85323,-83.3333333333333,4,2,1,5,0,1
85422,-83.3333333333333,4,2,1,80,0,1
85619,-83.3333333333333,4,2,1,80,0,1
85817,-83.3333333333333,4,2,1,80,0,1
86409,-83.3333333333333,4,2,1,80,0,1
86804,-83.3333333333333,4,2,1,80,0,1
88383,-83.3333333333333,4,2,1,80,0,1
89962,-100,4,2,1,60,0,0
91343,-100,4,2,1,60,0,0
92527,-100,4,2,1,60,0,0
94501,-100,4,2,1,60,0,0
96277,-100,4,2,1,60,0,0
97659,-100,4,2,1,60,0,0
101212,-100,4,2,3,50,0,0
102593,-111.111111111111,4,2,3,50,0,0
108317,-111.111111111111,4,2,1,50,0,0
110093,-111.111111111111,4,2,3,50,0,0
111475,-111.111111111111,4,2,1,50,0,0
113646,-111.111111111111,4,2,1,60,0,0
115126,-111.111111111111,4,2,3,5,0,0
115225,-111.111111111111,4,2,4,50,0,0
126179,-111.111111111111,4,2,2,50,0,0
126672,-111.111111111111,4,2,1,50,0,0
127462,-111.111111111111,4,2,2,50,0,0
128251,-111.111111111111,4,2,3,50,0,0
130619,-111.111111111111,4,2,1,50,0,0
131014,-111.111111111111,4,2,4,50,0,0
132790,-111.111111111111,4,2,2,60,0,0
133383,-111.111111111111,4,2,1,60,0,0
133679,-111.111111111111,4,2,2,60,0,0
134172,-111.111111111111,4,2,1,70,0,0
135554,-111.111111111111,4,2,1,70,0,0
138712,-111.111111111111,4,2,1,80,0,0
139501,-111.111111111111,4,2,1,60,0,0
140488,-83.3333333333333,4,2,1,80,0,1
147988,-83.3333333333333,4,2,1,80,0,1
148185,-83.3333333333333,4,2,1,80,0,1
148481,-83.3333333333333,4,2,1,5,0,1
148580,-83.3333333333333,4,2,1,50,0,1
148777,-83.3333333333333,4,2,1,80,0,1
148975,-83.3333333333333,4,2,1,80,0,1
149567,-83.3333333333333,4,2,1,80,0,1
149962,-71.4285714285714,4,2,1,80,0,1
151146,-83.3333333333333,4,2,1,80,0,1
151343,-83.3333333333333,4,2,1,90,0,1
151540,-83.3333333333333,4,2,1,90,0,1
151738,-83.3333333333333,4,2,1,90,0,1
151935,-83.3333333333333,4,2,1,90,0,1
152133,-83.3333333333333,4,2,1,90,0,1
152527,-83.3333333333333,4,2,1,80,0,1
153119,-83.3333333333333,4,2,1,80,0,1
160619,-83.3333333333333,4,2,1,80,0,1
160817,-83.3333333333333,4,2,1,80,0,1
161113,-83.3333333333333,4,2,1,5,0,1
161212,-83.3333333333333,4,2,1,80,0,1
161409,-83.3333333333333,4,2,1,80,0,1
161606,-83.3333333333333,4,2,1,80,0,1
162198,-83.3333333333333,4,2,1,80,0,1
162593,-83.3333333333333,4,2,1,80,0,1
164172,-83.3333333333333,4,2,1,80,0,1
165751,-200,4,2,1,50,0,0
172067,-200,4,2,1,40,0,0
186277,-166.666666666667,4,2,3,50,0,0
189435,-166.666666666667,4,2,1,50,0,0
192593,-166.666666666667,4,2,1,30,0,0
201672,-100,4,2,1,70,0,0
202067,-100,4,2,1,50,0,0
203251,-100,4,2,1,70,0,0
203448,-100,4,2,1,90,0,0
204633,-83.3333333333333,4,2,1,80,0,0
205027,-100,4,2,1,50,0,0
205225,-166.666666666667,4,2,3,50,0,0
205619,-83.3333333333333,4,2,1,80,0,1
206014,-83.3333333333333,4,2,1,80,0,1
212725,-83.3333333333333,4,2,1,80,0,1
212922,-83.3333333333333,4,2,1,80,0,1
213218,-83.3333333333333,4,2,1,5,0,1
213317,-83.3333333333333,4,2,1,50,0,1
213514,-83.3333333333333,4,2,1,80,0,1
213712,-83.3333333333333,4,2,1,80,0,1
214304,-83.3333333333333,4,2,1,80,0,1
214698,-83.3333333333333,4,2,1,80,0,1
216277,-83.3333333333333,4,2,1,80,0,1
217462,-83.3333333333333,4,2,1,60,0,1
217856,-142.857142857143,4,2,2,50,0,0
219337,-142.857142857143,4,2,2,5,0,0
219435,-142.857142857143,4,2,2,50,0,0
223383,-142.857142857143,4,2,1,50,0,0
224172,-142.857142857143,4,2,2,50,0,0
228119,-142.857142857143,4,2,1,50,0,0
228712,-142.857142857143,4,2,1,50,0,0
235225,-142.857142857143,4,2,1,5,0,0

[Colours]
Combo1 : 230,222,128
Combo2 : 122,230,235

[HitObjects]
182,0,7856,6,0,P|121:13|193:102,1,224,2|8,0:0|0:0,0:0:0:0:
300,40,9040,1,2,0:0:0:0:
300,40,9435,6,0,P|361:53|289:142,1,224,2|2,0:0|0:0,0:0:0:0:
12,191,11014,6,0,P|79:193|138:211,1,112,2|0,0:0|0:0,0:0:0:0:
210,313,11804,1,2,0:0:0:0:
210,313,12001,2,0,P|254:273|258:206,1,112,2|2,0:0|0:0,0:0:0:0:
338,212,12593,6,0,P|332:188|307:158,2,56,2|2|2,0:0|0:0|0:0,0:0:0:0:
396,277,13185,1,2,0:0:0:0:
433,200,13383,2,0,L|451:146,3,35,2|2|2|2,0:0|0:0|0:0|0:0,0:0:0:0:
419,124,13777,2,0,L|401:70,3,35,2|2|2|2,0:0|0:0|0:0|0:0,0:0:0:0:
375,54,14172,6,0,P|310:51|232:40,1,140,4|2,3:0|0:1,0:0:0:0:
43,83,14962,1,8,0:0:0:0:
130,126,15159,1,2,0:3:0:0:
79,315,15554,2,0,P|91:233|134:231,1,140,4|0,3:0|3:0,0:0:0:0:
302,131,16343,2,0,L|325:214,1,70,0|8,3:0|0:0,0:0:0:0:
250,267,16738,1,0,0:0:0:0:
340,304,16935,1,8,0:0:0:0:
411,235,17133,1,0,3:0:0:0:
356,77,17330,6,0,P|289:55|232:96,1,140,4|2,3:0|0:1,0:0:0:0:
168,262,18119,1,8,0:0:0:0:
215,175,18317,1,2,0:3:0:0:
146,105,18514,1,2,0:3:0:0:
0,206,18712,6,0,L|172:182,1,140,4|8,3:0|3:2,0:0:0:0:
217,335,19501,1,8,0:3:0:0:
288,268,19698,2,0,L|291:215,3,35,8|8|8|8,0:0|0:0|0:0|0:0,0:0:0:0:
299,152,20093,1,8,0:3:0:0:
331,163,20191,1,8,0:3:0:0:
357,186,20290,1,8,0:1:0:0:
370,218,20389,1,8,0:1:0:0:
369,253,20488,6,0,L|381:95,1,140,4|2,3:0|0:1,0:0:0:0:
435,33,21080,1,0,3:0:0:0:
483,117,21277,2,0,L|491:206,1,70,8|0,0:0|0:0,0:0:0:0:
491,382,21869,6,0,P|452:343|369:332,1,140,4|0,3:0|0:0,0:0:0:0:
174,317,22659,1,0,3:0:0:0:
174,317,22856,2,0,P|227:290|268:285,1,70,8|0,0:0|0:0,0:0:0:0:
110,378,23251,2,0,P|57:351|16:346,1,70,8|0,0:0|3:0,0:0:0:0:
100,265,23646,6,0,P|51:237|62:153,1,140,4|0,3:0|3:0,0:0:0:0:
86,70,24238,1,0,3:0:0:0:
86,70,24435,2,0,P|29:63|-7:60,1,70,8|2,0:0|0:3,0:0:0:0:
138,141,24830,1,8,0:0:0:0:
177,51,25027,6,0,P|221:56|342:39,1,140,4|8,3:0|0:0,0:0:0:0:
491,134,25817,2,0,P|444:105|415:98,1,70,0|8,3:0|3:2,0:0:0:0:
344,148,26212,1,8,3:2:0:0:
400,227,26409,1,8,3:2:0:0:
203,316,26804,5,2,0:0:0:0:
396,125,29962,5,2,0:0:0:0:
115,184,33119,5,2,0:0:0:0:
399,195,36277,5,2,0:0:0:0:
48,142,39435,6,0,L|35:33,2,97.9999970092774,2|10|10,0:0|0:0|0:0,0:0:0:0:
116,261,40619,1,2,0:0:0:0:
116,261,40817,2,0,P|160:245|182:245,1,48.9999985046387,10|0,0:0|0:0,0:0:0:0:
165,166,41212,2,0,P|200:175|241:228,2,97.9999970092774,2|2|2,0:0|0:0|0:0,0:0:0:0:
91,141,42198,1,8,0:0:0:0:
91,141,42593,6,0,P|113:106|176:88,1,97.9999970092774,2|10,0:0|0:0,0:0:0:0:
221,32,43185,1,2,0:0:0:0:
221,32,43383,2,0,L|276:32,1,48.9999985046387,10|2,0:0|0:0,0:0:0:0:
396,125,43975,2,0,P|338:122|298:143,1,97.9999970092774,10|0,0:0|0:0,0:0:0:0:
287,215,44567,1,10,0:0:0:0:
287,215,44764,2,0,P|254:201|238:185,2,48.9999985046387,2|2|0,0:0|0:0|0:0,0:0:0:0:
365,204,45356,1,10,0:0:0:0:
365,204,45751,6,0,P|404:250|415:296,1,97.9999970092774,2|10,0:0|0:0,0:0:0:0:
364,346,46343,1,2,0:0:0:0:
301,299,46540,1,10,0:0:0:0:
301,299,46738,2,0,P|234:306|206:323,1,97.9999970092774,2|8,0:0|0:0,0:0:0:0:
145,368,47330,6,0,P|134:342|133:307,1,48.9999985046387,2|0,0:0|0:0,0:0:0:0:
64,280,47725,2,0,P|81:257|110:239,1,48.9999985046387,2|2,0:0|0:0,0:0:0:0:
102,166,48119,2,0,P|149:179|180:237,1,97.9999970092774,2|2,0:0|0:0,0:0:0:0:
238,259,48712,6,0,P|272:234|298:224,1,48.9999985046387,2|2,0:0|0:0,0:0:0:0:
345,190,49106,1,2,0:0:0:0:
345,190,49304,2,0,P|306:155|256:152,1,97.9999970092774,2|8,0:0|0:0,0:0:0:0:
200,102,49896,1,2,0:0:0:0:
350,60,50290,1,8,0:0:0:0:
350,60,50389,1,0,0:0:0:0:
350,60,50488,6,0,P|389:70|408:78,1,48.9999985046387,2|2,0:1|0:1,0:0:0:0:
439,139,50883,2,0,P|413:169|406:193,1,48.9999985046387,8|0,0:0|0:0,0:0:0:0:
426,253,51277,2,0,L|471:253,3,24.4999992523194,2|2|2|2,0:1|0:1|0:1|0:1,0:0:0:0:
388,291,51672,2,0,L|477:318,1,73.4999977569581,4|0,0:1|0:0,0:0:0:0:
449,350,52067,6,0,L|303:352,1,125.999996154785,6|0,3:0|0:0,0:0:0:0:
166,265,52856,2,0,P|124:282|103:357,1,125.999996154785,10|2,0:2|1:2,0:0:0:0:
203,354,53448,1,0,0:0:0:0:
203,354,53646,6,0,P|231:317|261:292,1,62.9999980773926,0|0,1:0|1:0,0:0:0:0:
294,234,54040,2,0,P|323:265|337:305,1,62.9999980773926,2|2,0:1|3:1,0:0:0:0:
285,150,54435,2,0,P|243:167|212:254,1,125.999996154785,12|0,0:1|0:0,0:0:0:0:
209,236,55225,6,0,P|186:215|98:170,1,125.999996154785,0|2,3:0|0:0,0:0:0:0:
44,99,55817,1,2,3:0:0:0:
125,65,56014,2,0,P|164:45|267:30,1,125.999996154785,10|2,0:2|0:0,0:0:0:0:
303,94,56606,1,8,0:0:0:0:
303,94,56705,1,8,0:0:0:0:
303,94,56804,6,0,P|348:90|372:96,1,62.9999980773926,10|8,3:2|0:0,0:0:0:0:
430,21,57198,1,2,0:1:0:0:
468,111,57396,1,8,0:0:0:0:
398,174,57593,2,0,L|393:242,1,62.9999980773926,12|0,0:1|3:0,0:0:0:0:
447,309,57988,1,8,0:3:0:0:
447,309,58383,6,0,P|395:330|325:294,1,125.999996154785,6|2,3:2|0:0,0:0:0:0:
262,347,58975,1,8,0:3:0:0:
262,347,59073,1,8,0:3:0:0:
262,347,59172,2,0,L|231:273,1,62.9999980773926,8|8,0:0|0:3,0:0:0:0:
287,215,59567,1,2,0:3:0:0:
143,332,59764,6,0,L|147:202,1,125.999996154785,6|2,3:2|3:2,0:0:0:0:
176,126,60356,1,2,0:1:0:0:
176,126,60554,2,0,P|140:99|103:88,1,62.9999980773926,2|8,3:2|0:0,0:0:0:0:
42,57,60948,1,8,0:3:0:0:
113,4,61146,1,8,0:1:0:0:
204,39,61343,1,8,0:0:0:0:
204,39,61442,1,8,0:0:0:0:
204,39,61540,6,0,L|283:36,1,62.9999980773926,2|2,3:2|0:0,0:0:0:0:
308,114,61935,2,0,P|273:127|239:153,1,62.9999980773926,8|2,0:0|3:2,0:0:0:0:
260,229,62330,1,8,0:0:0:0:
189,282,62527,1,8,0:3:0:0:
273,310,62725,1,2,0:3:0:0:
109,251,62922,5,6,3:2:0:0:
99,275,64698,6,0,L|54:109,2,167.999994873047,6|8|2,3:2|0:0|0:1,0:0:0:0:
152,361,65685,1,0,3:0:0:0:
220,286,65883,1,10,0:0:0:0:
279,367,66080,6,0,P|316:328|379:317,1,83.9999974365235,2|2,3:2|0:1,0:0:0:0:
431,367,66475,1,2,3:2:0:0:
500,294,66672,2,0,L|485:120,1,167.999994873047,8|2,0:0|0:1,0:0:0:0:
405,65,67264,5,2,3:2:0:0:
303,65,67462,1,10,0:0:0:0:
405,65,67659,2,0,P|451:53|497:49,1,83.9999974365235,2|2,0:0|3:1,0:0:0:0:
302,161,68054,5,2,0:0:0:0:
404,161,68252,1,10,0:0:0:0:
302,161,68449,2,0,P|256:149|210:145,1,83.9999974365235,2|2,3:2|0:1,0:0:0:0:
124,113,68843,1,0,3:0:0:0:
64,194,69040,1,10,0:0:0:0:
152,242,69238,6,0,P|214:260|322:294,2,167.999994873047,2|2|2,3:2|3:2|3:2,0:0:0:0:
64,194,70225,2,0,L|93:89,1,83.9999974365235,2|0,0:1|3:0,0:0:0:0:
154,39,70619,1,8,0:0:0:0:
55,17,70817,1,8,0:0:0:0:
169,136,71014,6,0,P|230:137|339:127,1,167.999994873047,4|10,3:0|0:0,0:0:0:0:
315,226,71606,1,2,3:2:0:0:
407,260,71804,2,0,P|462:256|498:261,1,83.9999974365235,2|2,0:0|3:2,0:0:0:0:
440,346,72198,1,10,0:0:0:0:
343,316,72396,6,0,B|296:300|296:300|201:343,1,125.999996154785,6|0,3:2|0:0,0:0:0:0:
198,373,72790,1,2,3:2:0:0:
165,277,72988,1,8,0:0:0:0:
85,338,73185,2,0,P|67:279|24:237,1,83.9999974365235,6|0,3:2|0:0,0:0:0:0:
5,174,73580,1,0,3:0:0:0:
5,174,73679,1,0,3:0:0:0:
5,174,73777,2,0,P|26:169|47:169,3,41.9999987182618,8|8|8|8,0:3|0:3|0:3|0:3,0:0:0:0:
68,143,74172,6,0,B|125:141|125:141|181:34,1,146.999995513916,6|0,3:2|3:0,0:0:0:0:
216,29,74567,1,10,0:0:0:0:
266,134,74764,2,0,B|232:182|232:182|240:341,1,195.999994018555,2|2,3:2|3:2,0:0:0:0:
340,379,75356,1,8,0:0:0:0:
414,287,75554,5,6,3:2:0:0:
184,235,75948,5,6,3:2:0:0:
411,174,76343,5,6,3:2:0:0:
212,137,76738,5,2,0:0:0:0:
129,79,76935,2,0,L|167:61,3,41.9999987182618,10|10|10|10,0:0|0:0|0:0|0:0,0:0:0:0:
203,26,77330,6,0,P|274:31|327:115,2,167.999994873047,4|8|2,3:0|0:0|0:1,0:0:0:0:
155,115,78317,1,0,3:0:0:0:
99,199,78515,1,10,0:0:0:0:
143,289,78712,6,0,P|206:283|251:305,1,83.9999974365235,2|2,3:2|0:1,0:0:0:0:
273,377,79107,1,2,3:3:0:0:
355,319,79304,2,0,P|330:241|406:238,1,167.999994873047,8|2,0:0|0:1,0:0:0:0:
300,145,79896,5,2,3:2:0:0:
402,145,80094,1,10,0:0:0:0:
300,145,80291,2,0,P|254:157|208:161,1,83.9999974365235,2|0,0:0|3:0,0:0:0:0:
403,49,80686,5,2,0:0:0:0:
301,49,80884,1,10,0:0:0:0:
403,49,81081,2,0,P|449:61|495:65,1,83.9999974365235,2|2,3:2|0:1,0:0:0:0:
435,152,81475,1,2,3:2:0:0:
506,223,81672,1,10,0:0:0:0:
419,275,81870,6,0,P|338:249|258:226,2,167.999994873047,6|2|2,3:2|3:2|3:2,0:0:0:0:
326,343,82856,2,0,L|218:356,1,83.9999974365235,2|0,0:1|3:0,0:0:0:0:
155,302,83251,1,8,0:0:0:0:
73,362,83449,1,8,0:0:0:0:
242,353,83646,6,0,L|233:181,1,167.999994873047,4|10,3:0|0:0,0:0:0:0:
138,220,84238,1,2,3:2:0:0:
124,130,84435,2,0,P|177:112|215:103,1,83.9999974365235,2|2,0:0|3:2,0:0:0:0:
272,30,84830,1,10,0:0:0:0:
335,96,85027,6,0,P|292:145|317:231,1,125.999996154785,6|2,3:2|3:2,0:0:0:0:
334,234,85422,1,2,3:2:0:0:
250,289,85619,1,8,0:0:0:0:
328,351,85817,2,0,P|379:339|430:332,2,83.9999974365235,6|0|2,3:2|0:0|3:2,0:0:0:0:
233,320,86409,1,10,0:0:0:0:
137,286,86606,1,10,0:0:0:0:
68,366,86804,6,0,P|88:274|152:311,1,167.999994873047,6|2,3:2|0:1,0:0:0:0:
234,264,87396,2,0,P|213:172|150:209,1,167.999994873047,2|2,0:3|0:0,0:0:0:0:
61,203,87988,1,10,0:0:0:0:
92,107,88185,1,2,0:0:0:0:
188,135,88383,5,8,3:2:0:0:
2,79,88580,1,8,3:2:0:0:
244,14,89962,6,0,L|326:22,1,70,2|0,0:3|0:0,0:0:0:0:
268,107,90356,2,0,L|173:96,1,70,2|0,0:3|0:0,0:0:0:0:
117,35,90751,5,8,3:2:0:0:
145,183,90948,1,2,3:2:0:0:
74,123,91343,6,0,L|18:206,1,70,6|0,3:2|0:0,0:0:0:0:
176,246,91738,2,0,L|132:156,1,70,10|0,0:3|0:0,0:0:0:0:
18,273,92133,2,0,L|117:279,1,70,2|8,3:2|0:0,0:0:0:0:
199,343,92527,1,2,0:3:0:0:
268,273,92725,1,8,3:2:0:0:
324,353,92922,1,2,0:0:0:0:
324,353,93119,6,0,P|353:324|471:313,1,140,4|2,3:0|0:1,0:0:0:0:
439,153,93909,2,8,P|416:180|405:214,1,70,8|0,0:0|3:0,0:0:0:0:
339,138,94304,1,8,0:3:0:0:
339,138,94501,6,0,P|291:112|258:114,1,70,2|0,3:2|0:0,0:0:0:0:
220,237,94896,2,0,P|266:208|281:178,1,70,2|0,3:2|0:0,0:0:0:0:
194,84,95290,2,0,P|195:138|213:166,1,70,10|0,3:2|0:0,0:0:0:0:
220,237,95685,1,2,3:2:0:0:
133,284,95883,2,0,L|138:249,3,35,8|8|10|0,0:0|0:0|0:3|0:0,0:0:0:0:
104,214,96277,6,0,P|69:161|106:89,1,140,4|2,3:0|0:1,0:0:0:0:
140,7,96869,1,2,0:0:0:0:
244,14,97067,2,0,P|283:18|332:18,1,70,10|2,0:0|3:2,0:0:0:0:
324,118,97462,1,2,0:1:0:0:
324,118,97659,6,0,L|261:164,1,70,2|2,3:2|0:1,0:0:0:0:
420,152,98054,2,0,L|411:74,1,70,10|2,3:2|0:1,0:0:0:0:
343,218,98448,2,0,L|414:249,1,70,2|8,3:2|0:0,0:0:0:0:
360,332,98843,1,0,3:0:0:0:
277,280,99040,1,8,0:3:0:0:
311,188,99238,1,2,0:0:0:0:
234,361,99435,6,0,P|176:342|77:368,1,140,6|8,3:2|0:0,0:0:0:0:
31,300,100027,1,0,3:0:0:0:
31,300,100126,1,8,0:0:0:0:
31,300,100225,2,0,P|78:269|99:235,1,70,8|8,0:0|0:3,0:0:0:0:
139,176,100619,1,8,0:1:0:0:
66,109,100817,1,6,3:2:0:0:
77,82,102198,5,4,0:3:0:0:
77,82,102593,6,0,L|47:22,2,62.9999980773926,6|2|2,3:3|0:3|0:3,0:0:0:0:
107,281,103383,2,0,P|126:217|176:156,1,125.999996154785,10|0,0:0|0:0,0:0:0:0:
229,95,103975,1,10,0:0:0:0:
251,131,104369,1,2,0:0:0:0:
273,95,104764,1,0,3:0:0:0:
273,95,105554,1,0,3:0:0:0:
273,95,105652,1,0,3:0:0:0:
273,95,105751,6,0,P|339:91|355:166,1,125.999996154785,2|2,3:2|3:2,0:0:0:0:
418,206,106343,2,0,L|398:346,1,125.999996154785,2|0,0:0|3:0,0:0:0:0:
308,357,106935,1,2,3:2:0:0:
308,357,107330,2,0,L|325:277,2,62.9999980773926,2|2|8,0:0|0:0|0:0,0:0:0:0:
221,374,107922,1,2,0:0:0:0:
153,318,108119,2,0,P|107:317|74:328,1,62.9999980773926,2|0,0:3|3:0,0:0:0:0:
35,251,108514,1,8,0:0:0:0:
35,251,108909,6,0,L|17:171,2,62.9999980773926,2|2|2,3:3|0:3|0:3,0:0:0:0:
126,239,109501,1,2,0:0:0:0:
126,239,109698,2,0,P|192:233|266:235,1,125.999996154785,10|2,0:0|0:0,0:0:0:0:
287,153,110290,2,0,P|326:194|336:222,1,62.9999980773926,10|2,0:0|0:3,0:0:0:0:
416,192,110685,2,0,P|399:246|380:268,1,62.9999980773926,2|0,0:0|3:0,0:0:0:0:
446,323,111080,2,0,P|390:336|361:330,1,62.9999980773926,2|2,0:0|0:3,0:0:0:0:
306,295,111475,1,0,3:0:0:0:
245,358,111672,1,8,0:0:0:0:
245,358,112067,6,0,P|189:319|108:318,2,125.999996154785,2|2|10,3:3|0:3|0:0,0:0:0:0:
336,207,113251,2,0,L|409:204,1,62.9999980773926,2|2,0:3|0:0,0:0:0:0:
453,275,113646,5,6,3:2:0:0:
453,275,113843,2,0,P|487:227|471:152,1,125.999996154785,2|2,0:0|3:2,0:0:0:0:
461,76,114435,1,8,0:0:0:0:
396,136,114633,1,8,0:3:0:0:
361,55,114830,2,0,P|320:36|252:31,1,94.499997116089,8|0,0:0|0:0,0:0:0:0:
243,63,115225,5,4,0:3:0:0:
243,63,115619,2,0,L|229:217,1,125.999996154785,2|10,0:0|0:0,0:0:0:0:
154,296,116409,1,2,0:0:0:0:
154,296,116606,2,0,L|144:148,1,125.999996154785,2|2,3:2|0:0,0:0:0:0:
76,114,117198,1,0,0:0:0:0:
156,76,117396,1,0,3:0:0:0:
223,132,117593,2,0,P|262:119|290:85,1,62.9999980773926,0|2,1:0|0:3,0:0:0:0:
325,30,117988,1,2,0:1:0:0:
325,30,118383,6,0,P|378:41|425:123,1,125.999996154785,0|2,3:0|0:0,0:0:0:0:
486,154,118975,1,2,0:0:0:0:
411,200,119172,2,0,P|372:178|342:175,2,62.9999980773926,2|2|0,0:0|0:0|0:0,0:0:0:0:
477,257,119764,2,0,P|439:277|482:344,1,125.999996154785,2|2,3:2|0:1,0:0:0:0:
384,378,120356,1,8,0:0:0:0:
384,378,120554,1,0,3:0:0:0:
316,321,120751,2,0,P|265:332|242:355,1,62.9999980773926,0|0,1:0|3:0,0:0:0:0:
175,372,121146,1,8,0:0:0:0:
175,372,121540,6,0,L|194:247,1,125.999996154785,0|2,3:0|0:0,0:0:0:0:
256,184,122133,1,2,0:0:0:0:
256,184,122330,2,0,P|202:162|173:167,1,62.9999980773926,2|2,1:2|0:0,0:0:0:0:
48,69,122922,2,0,P|103:55|191:46,1,125.999996154785,2|0,3:2|0:0,0:0:0:0:
245,94,123514,2,0,L|311:81,1,62.9999980773926,2|0,0:0|3:0,0:0:0:0:
377,28,123909,2,0,L|443:34,1,62.9999980773926,2|0,0:1|3:0,0:0:0:0:
474,114,124304,2,0,P|443:148|434:181,1,62.9999980773926,2|0,1:2|0:0,0:0:0:0:
492,232,124698,6,0,P|454:201|371:225,1,125.999996154785,2|2,3:2|0:0,0:0:0:0:
342,292,125290,1,0,3:0:0:0:
284,224,125488,2,0,P|270:191|261:155,1,62.9999980773926,2|2,1:2|0:1,0:0:0:0:
210,93,125883,2,0,P|179:126|171:160,1,62.9999980773926,0|2,0:0|0:0,0:0:0:0:
174,186,126179,1,2,0:1:0:0:
174,186,126277,5,2,3:1:0:0:
97,140,126475,1,2,0:1:0:0:
76,225,126672,1,8,0:0:0:0:
76,225,126869,2,0,L|52:288,1,62.9999980773926,2|0,3:1|0:0,0:0:0:0:
101,358,127264,1,8,0:0:0:0:
164,295,127462,2,0,P|178:263|191:228,1,62.9999980773926,2|8,0:1|0:3,0:0:0:0:
231,365,127856,6,0,L|278:242,1,125.999996154785,4|0,3:1|0:0,0:0:0:0:
454,121,128646,2,0,L|320:57,1,125.999996154785,10|2,0:0|0:0,0:0:0:0:
252,72,129238,1,0,0:0:0:0:
307,142,129435,6,0,B|407:187|407:187|452:276,1,188.999994232178,2|2,0:0|0:0,0:0:0:0:
409,339,130225,2,0,B|451:341|485:343,1,62.9999980773926,2|0,0:3|0:0,0:0:0:0:
352,253,130619,2,0,B|310:255|276:257,1,62.9999980773926,2|0,0:1|0:0,0:0:0:0:
248,334,131014,6,0,P|204:318|111:314,1,125.999996154785,0|2,3:0|0:0,0:0:0:0:
48,267,131606,1,2,3:2:0:0:
73,182,131804,2,0,P|53:128|-18:84,1,125.999996154785,10|2,0:0|0:0,0:0:0:0:
65,29,132396,1,2,3:2:0:0:
65,29,132593,6,0,P|116:31|155:39,1,62.9999980773926,0|2,3:0|0:0,0:0:0:0:
177,105,132988,2,0,P|207:86|239:77,1,62.9999980773926,12|0,0:1|3:0,0:0:0:0:
315,45,133383,1,8,0:0:0:0:
315,133,133580,1,8,0:3:0:0:
377,195,133777,1,2,3:1:0:0:
439,132,133975,1,2,0:1:0:0:
377,195,134172,6,0,P|440:234|435:297,1,125.999996154785,6|2,3:2|0:0,0:0:0:0:
432,374,134764,1,8,0:3:0:0:
432,374,134863,1,8,0:3:0:0:
432,374,134962,2,0,P|385:341|364:335,1,62.9999980773926,8|2,0:0|0:0,0:0:0:0:
312,283,135356,1,8,0:3:0:0:
249,345,135554,6,0,P|188:328|119:325,1,125.999996154785,6|2,3:2|3:2,0:0:0:0:
53,272,136146,1,2,0:1:0:0:
130,230,136343,2,0,B|181:215|218:211,1,62.9999980773926,2|8,3:2|0:0,0:0:0:0:
258,271,136738,1,8,0:3:0:0:
326,216,136935,1,8,0:1:0:0:
269,156,137133,1,8,0:0:0:0:
269,156,137231,1,8,0:0:0:0:
269,156,137330,6,0,P|228:134|197:129,1,62.9999980773926,6|2,3:2|0:0,0:0:0:0:
129,99,137725,1,8,0:0:0:0:
205,55,137922,1,2,3:2:0:0:
205,55,138021,1,8,0:0:0:0:
205,55,138119,1,8,0:0:0:0:
258,125,138317,1,8,0:3:0:0:
302,49,138514,1,8,0:1:0:0:
113,14,138712,5,6,3:2:0:0:
113,14,139698,6,0,P|152:18|183:39,1,62.9999980773926,10|0,0:0|3:0,0:0:0:0:
185,77,139994,1,8,0:0:0:0:
185,77,140093,2,0,L|224:86,3,31.4999990386963,8|8|8|8,0:0|0:0|0:3|0:3,0:0:0:0:
251,119,140488,6,0,L|425:68,2,167.999994873047,6|8|2,3:2|0:0|0:1,0:0:0:0:
190,199,141475,1,0,3:0:0:0:
112,134,141673,1,10,0:0:0:0:
92,232,141870,6,0,P|54:249|27:281,1,83.9999974365235,2|2,3:2|0:1,0:0:0:0:
98,353,142265,1,2,3:2:0:0:
197,337,142462,2,0,L|230:162,1,167.999994873047,8|2,0:0|0:1,0:0:0:0:
273,83,143054,5,2,3:2:0:0:
171,83,143252,1,10,0:0:0:0:
273,83,143449,2,0,P|319:71|365:67,1,83.9999974365235,2|2,0:0|3:1,0:0:0:0:
228,171,143844,5,2,0:0:0:0:
330,171,144040,1,10,0:0:0:0:
228,171,144239,2,0,P|182:159|136:155,1,83.9999974365235,2|2,3:2|0:1,0:0:0:0:
59,207,144633,1,0,3:0:0:0:
70,306,144830,1,10,0:0:0:0:
159,258,145028,6,0,P|221:276|329:310,2,167.999994873047,2|2|2,3:2|3:2|3:2,0:0:0:0:
71,207,146015,2,0,L|100:102,1,83.9999974365235,2|0,0:1|3:0,0:0:0:0:
175,67,146409,1,8,0:0:0:0:
80,29,146607,1,2,0:3:0:0:
167,156,146804,6,0,P|216:143|337:123,1,167.999994873047,4|10,3:0|0:0,0:0:0:0:
432,114,147396,1,2,3:2:0:0:
421,214,147594,2,0,P|379:210|337:214,1,83.9999974365235,2|2,0:0|3:2,0:0:0:0:
246,248,147988,1,10,0:0:0:0:
183,326,148186,6,0,B|151:256|151:256|167:209,1,125.999996154785,6|0,3:2|0:0,0:0:0:0:
206,181,148580,1,2,3:2:0:0:
276,108,148778,1,8,0:0:0:0:
195,36,148975,2,0,P|148:30|114:43,1,83.9999974365235,6|0,3:2|0:0,0:0:0:0:
139,142,149370,1,8,0:1:0:0:
139,142,149469,1,8,0:1:0:0:
139,142,149567,2,0,L|126:197,3,41.9999987182618,8|8|8|8,0:3|0:3|0:3|0:3,0:0:0:0:
97,209,149962,6,0,B|40:211|40:211|-16:318,1,146.999995513916,6|0,3:2|3:0,0:0:0:0:
14,329,150357,1,10,0:0:0:0:
136,287,150554,2,0,B|199:319|199:319|329:286,1,195.999994018555,2|2,3:2|3:2,0:0:0:0:
393,351,151146,1,8,0:0:0:0:
386,232,151344,5,6,3:2:0:0:
184,352,151738,5,6,3:2:0:0:
163,117,152133,5,6,3:2:0:0:
275,284,152528,5,2,0:0:0:0:
397,288,152725,2,0,L|346:281,3,41.9999987182618,10|10|10|10,0:0|0:0|0:0|0:0,0:0:0:0:
343,233,153119,6,0,L|520:190,2,167.999994873047,4|8|2,3:0|0:0|0:1,0:0:0:0:
255,182,154107,1,0,3:0:0:0:
319,103,154305,1,10,0:0:0:0:
230,54,154502,6,0,P|189:45|148:54,1,83.9999974365235,2|2,3:2|0:1,0:0:0:0:
58,100,154897,1,2,3:3:0:0:
129,171,155094,2,0,L|311:180,1,167.999994873047,8|2,0:0|0:1,0:0:0:0:
277,281,155686,5,2,3:2:0:0:
379,281,155884,1,10,0:0:0:0:
277,281,156081,2,0,P|231:293|185:297,1,83.9999974365235,2|4,0:0|0:3,0:0:0:0:
296,179,156476,5,2,0:0:0:0:
194,179,156672,1,10,0:0:0:0:
296,179,156869,2,0,P|342:191|388:195,1,83.9999974365235,2|2,3:2|0:1,0:0:0:0:
456,131,157265,1,2,3:2:0:0:
388,56,157462,1,10,0:0:0:0:
292,90,157660,6,0,P|211:64|131:41,2,167.999994873047,6|2|2,3:2|3:2|3:2,0:0:0:0:
235,174,158646,2,0,L|127:187,1,83.9999974365235,2|0,0:1|3:0,0:0:0:0:
90,264,159041,1,8,0:0:0:0:
49,171,159239,1,8,0:0:0:0:
176,268,159436,6,0,L|367:261,1,167.999994873047,4|10,3:0|0:0,0:0:0:0:
423,324,160028,1,2,3:2:0:0:
485,239,160225,2,0,P|467:186|458:148,1,83.9999974365235,2|2,0:0|3:2,0:0:0:0:
491,62,160620,1,10,0:0:0:0:
390,65,160817,6,0,P|348:110|375:197,1,125.999996154785,6|2,3:2|3:2,0:0:0:0:
370,217,161212,1,2,3:2:0:0:
279,280,161409,1,8,0:0:0:0:
362,336,161607,2,0,P|413:324|464:317,2,83.9999974365235,6|0|2,3:2|0:0|3:2,0:0:0:0:
263,360,162199,1,10,0:0:0:0:
186,294,162396,1,10,0:0:0:0:
117,374,162594,6,0,P|137:282|201:319,1,167.999994873047,6|2,3:2|0:1,0:0:0:0:
281,263,163186,2,0,P|260:171|197:208,1,167.999994873047,2|2,0:3|0:0,0:0:0:0:
112,197,163778,1,10,0:0:0:0:
141,100,163975,1,2,0:0:0:0:
236,133,164173,5,8,3:2:0:0:
46,67,164369,1,8,3:2:0:0:
272,132,165751,6,0,B|292:122|301:175|301:175|332:217|456:261|548:161|556:16|477:-13|348:-8|381:84,1,525,2|0,0:0|0:0,0:0:0:0:
256,192,168909,12,0,171672,0:0:0:0:
96,317,172067,6,0,B|152:299|196:328|196:328|311:322,1,210,2|0,0:0|0:0,0:0:0:0:
286,237,173646,6,0,B|358:231|384:298|384:298|458:205,1,245,2|0,0:0|0:0,0:0:0:0:
256,192,175225,12,0,176804,0:0:0:0:
256,192,176902,12,0,178383,0:0:0:0:
256,192,178481,12,2,179962,0:0:0:0:
124,114,181146,5,2,0:0:0:0:
124,114,181540,2,0,P|191:137|201:206,1,140,2|0,0:0|0:0,0:0:0:0:
203,198,183119,5,2,0:0:0:0:
311,258,184304,5,2,0:0:0:0:
311,258,184698,2,0,P|244:281|234:350,1,140,2|0,0:0|0:0,0:0:0:0:
231,343,186277,1,2,0:0:0:0:
296,179,187462,5,2,0:0:0:0:
296,179,187856,2,0,P|363:156|361:58,1,167.999994873047,2|0,0:0|0:0,0:0:0:0:
369,68,189435,5,2,0:0:0:0:
380,353,190225,1,2,0:0:0:0:
380,353,190422,1,2,0:0:0:0:
300,290,190817,5,2,0:0:0:0:
256,192,191014,12,4,192593,0:1:0:0:
216,216,202067,6,0,P|173:188|79:167,1,140,2|2,0:0|0:0,0:0:0:0:
48,76,202659,1,2,0:0:0:0:
48,76,203054,2,0,P|87:76|138:73,1,70,10|8,0:0|0:3,0:0:0:0:
212,49,203448,5,2,3:2:0:0:
195,244,203843,5,2,3:2:0:0:
373,162,204238,5,2,3:2:0:0:
101,27,204830,6,0,P|162:59|202:114,1,125.999996154785,10|0,0:0|0:0,0:0:0:0:
194,128,205225,6,0,L|142:188,1,62.9999980773926,2|0,0:0|0:0,0:0:0:0:
112,145,205619,6,0,P|44:128|11:231,1,167.999994873047,4|2,3:0|0:1,0:0:0:0:
35,297,206212,1,0,3:0:0:0:
125,257,206409,1,10,0:0:0:0:
169,347,206606,6,0,P|232:342|264:341,1,83.9999974365235,2|2,3:2|0:1,0:0:0:0:
334,281,207001,1,2,3:2:0:0:
396,360,207198,2,0,L|390:188,1,167.999994873047,8|2,0:0|0:1,0:0:0:0:
385,95,207790,5,2,3:2:0:0:
283,95,207988,1,10,0:0:0:0:
385,95,208185,2,0,P|431:83|477:79,1,83.9999974365235,2|2,0:0|3:1,0:0:0:0:
288,192,208580,5,2,0:0:0:0:
390,192,208778,1,10,0:0:0:0:
288,192,208975,2,0,P|242:180|196:176,1,83.9999974365235,2|2,3:2|0:1,0:0:0:0:
125,236,209369,1,2,3:2:0:0:
158,330,209566,1,10,0:0:0:0:
247,282,209764,6,0,P|309:300|417:334,2,167.999994873047,6|2|2,3:2|3:2|3:2,0:0:0:0:
158,330,210751,2,0,P|108:332|66:312,1,83.9999974365235,2|0,0:1|3:0,0:0:0:0:
79,219,211145,1,8,0:0:0:0:
0,289,211343,1,8,0:0:0:0:
0,135,211540,6,0,L|168:127,1,167.999994873047,4|10,3:0|0:0,0:0:0:0:
268,117,212132,1,2,3:2:0:0:
260,214,212330,2,0,P|219:210|150:208,1,83.9999974365235,2|2,0:0|3:2,0:0:0:0:
118,290,212724,1,10,0:0:0:0:
204,342,212922,6,0,B|275:336|275:336|344:351,1,125.999996154785,6|0,3:2|0:0,0:0:0:0:
362,310,213316,1,2,3:2:0:0:
439,375,213514,1,8,0:0:0:0:
491,288,213711,2,0,P|433:251|488:166,1,167.999994873047,6|2,3:2|3:2,0:0:0:0:
377,119,214304,1,10,0:0:0:0:
324,204,214501,1,10,0:0:0:0:
267,120,214698,6,0,P|247:71|120:54,1,167.999994873047,6|2,3:2|0:1,0:0:0:0:
110,136,215290,2,0,B|167:147|167:147|188:285,1,167.999994873047,2|2,0:3|0:0,0:0:0:0:
274,301,215883,1,10,0:0:0:0:
347,232,216080,1,2,0:0:0:0:
252,196,216277,5,8,3:2:0:0:
369,337,216475,1,8,3:2:0:0:
368,135,217462,5,2,0:1:0:0:
368,135,217856,6,0,P|293:98|211:80,1,146.999995513916,0|2,3:0|0:0,0:0:0:0:
155,65,218646,1,8,0:0:0:0:
155,65,219040,2,0,P|109:96|93:124,1,73.4999977569581,2|0,0:0|0:0,0:0:0:0:
69,136,219435,6,0,P|108:145|139:205,1,97.9999970092774,2|2,0:0|0:0,0:0:0:0:
128,269,220027,1,2,3:2:0:0:
128,269,220225,2,0,L|242:291,1,97.9999970092774,8|0,0:0|0:0,0:0:0:0:
254,199,221014,2,0,P|300:225|305:329,1,146.999995513916,0|2,3:0|0:0,0:0:0:0:
385,357,221804,1,8,0:0:0:0:
385,357,222001,2,0,L|426:255,1,97.9999970092774,2|0,0:0|3:0,0:0:0:0:
495,231,222593,6,0,P|459:194|405:184,1,97.9999970092774,2|2,0:0|0:0,0:0:0:0:
407,100,223185,1,2,3:2:0:0:
407,100,223383,2,0,P|359:113|330:167,1,97.9999970092774,8|0,0:0|3:0,0:0:0:0:
276,208,223975,1,0,0:0:0:0:
276,208,224172,6,0,P|235:161|199:125,2,97.9999970092774,2|2|8,3:2|0:0|0:0,0:0:0:0:
265,285,225159,2,0,L|200:296,1,48.9999985046387,2|0,0:0|0:0,0:0:0:0:
150,343,225554,6,0,P|140:259|197:212,1,146.999995513916,2|0,3:2|0:0,0:0:0:0:
11,130,226540,2,0,P|55:135|65:196,1,97.9999970092774,8|0,0:0|0:0,0:0:0:0:
5,41,227330,6,0,P|99:66|159:156,1,195.999994018555,2|8,3:2|0:0,0:0:0:0:
236,97,228317,1,8,0:3:0:0:
236,97,228712,6,0,P|282:79|345:92,1,97.9999970092774,2|8,3:2|0:3,0:0:0:0:
394,141,229304,2,0,L|415:188,1,48.9999985046387,8|0,0:1|3:0,0:0:0:0:
366,248,229698,1,10,0:0:0:0:
366,248,229896,2,0,P|324:239|301:239,1,48.9999985046387,8|8,0:3|0:1,0:0:0:0:
261,292,230290,1,6,3:2:0:0:
256,192,230488,12,0,235225,0:0:0:0:
