osu file format v14

[General]
AudioFilename: audio.mp3
AudioLeadIn: 0
PreviewTime: 63810
Countdown: 0
SampleSet: Soft
StackLeniency: 0.6
Mode: 0
LetterboxInBreaks: 0
WidescreenStoryboard: 0

[Editor]
DistanceSpacing: 1.2
BeatDivisor: 4
GridSize: 32
TimelineZoom: 2.5

[Metadata]
Title:Deng Dai
TitleUnicode:等待
Artist:Huang Ling
ArtistUnicode:黄龄
Creator:Bellicose
Version:AIR's Insane
Source:镇魂街
Tags:Zhen Hun Jie Rakshasa Street chinese anime ending full version rock AIR godkei
BeatmapID:2294800
BeatmapSetID:1094296

[Difficulty]
HPDrainRate:5
CircleSize:4
OverallDifficulty:8
ApproachRate:9
SliderMultiplier:1.6
SliderTickRate:1

[Events]
//Background and Video events
0,0,"321.jpg",0,0
//Break Periods
2,165751,171467
2,180162,185677
//Storyboard Layer 0 (Background)
//Storyboard Layer 1 (Fail)
//Storyboard Layer 2 (Pass)
//Storyboard Layer 3 (Foreground)
//Storyboard Layer 4 (Overlay)
//Storyboard Sound Samples

[TimingPoints]
1541,394.736842105263,4,2,3,50,1,0
1541,-133.333333333333,4,2,3,50,0,0
7856,-117.647058823529,4,2,3,55,0,0
11804,-117.647058823529,4,2,3,60,0,0
12593,-100,4,3,0,50,0,0
14172,-90.9090909090909,4,2,1,70,0,0
26804,-133.333333333333,4,2,3,40,0,0
50290,-133.333333333333,4,2,2,50,0,0
50340,-133.333333333333,4,2,2,30,0,0
50488,-133.333333333333,4,2,2,50,0,0
51277,-100,4,2,2,30,0,0
51672,-100,4,2,2,50,0,0
52067,-111.111111111111,4,2,2,60,0,0
56212,-111.111111111111,4,2,1,60,0,0
56409,-111.111111111111,4,2,2,60,0,0
56606,-111.111111111111,4,2,1,60,0,0
57100,-111.111111111111,4,2,2,60,0,0
57396,-111.111111111111,4,2,1,60,0,0
57593,-100,4,2,2,60,0,0
57790,-100,4,2,1,60,0,0
58383,-100,4,2,1,70,0,0
59764,-90.9090909090909,4,2,1,70,0,0
62922,-83.3333333333333,4,2,1,80,0,0
63909,-142.857142857143,4,2,1,60,0,0
64304,-111.111111111111,4,2,1,60,0,0
64698,-90.9090909090909,4,2,1,80,0,1
72198,-90.9090909090909,4,2,1,80,0,0
72396,-90.9090909090909,4,2,1,80,0,1
72988,-90.9090909090909,4,2,1,80,0,0
73185,-90.9090909090909,4,2,1,80,0,1
73777,-90.9090909090909,4,2,1,80,0,0
74172,-83.3333333333333,4,2,1,80,0,1
75356,-83.3333333333333,4,2,1,80,0,0
75554,-83.3333333333333,4,2,1,90,0,1
75751,-83.3333333333333,4,2,1,80,0,0
75948,-83.3333333333333,4,2,1,90,0,1
76146,-83.3333333333333,4,2,1,80,0,0
76343,-250,4,2,1,90,0,1
76738,-83.3333333333333,4,2,1,80,0,0
77330,-90.9090909090909,4,2,1,80,0,1
84830,-90.9090909090909,4,2,1,80,0,0
85027,-90.9090909090909,4,2,1,80,0,1
85619,-90.9090909090909,4,2,1,80,0,0
85817,-90.9090909090909,4,2,1,80,0,1
86409,-90.9090909090909,4,2,1,80,0,0
86804,-100,4,2,1,80,0,1
88383,-100,4,2,1,80,0,0
89962,-133.333333333333,4,2,1,60,0,0
91343,-100,4,2,1,60,0,0
92527,-133.333333333333,4,2,1,60,0,0
94501,-100,4,2,1,60,0,0
96277,-133.333333333333,4,2,1,60,0,0
97659,-100,4,2,1,60,0,0
101212,-133.333333333333,4,2,3,50,0,0
108317,-133.333333333333,4,2,1,50,0,0
110093,-133.333333333333,4,2,3,50,0,0
111475,-133.333333333333,4,2,1,50,0,0
113646,-100,4,2,1,60,0,0
115225,-133.333333333333,4,2,4,50,0,0
126179,-133.333333333333,4,2,2,50,0,0
126672,-133.333333333333,4,2,1,50,0,0
127462,-133.333333333333,4,2,2,50,0,0
128251,-133.333333333333,4,2,3,50,0,0
130619,-133.333333333333,4,2,1,50,0,0
131014,-133.333333333333,4,2,4,50,0,0
132790,-100,4,2,2,60,0,0
133383,-100,4,2,1,60,0,0
133679,-100,4,2,2,60,0,0
134172,-100,4,2,1,70,0,0
135554,-90.9090909090909,4,2,1,70,0,0
138712,-83.3333333333333,4,2,1,80,0,0
139501,-66.6666666666667,4,2,1,60,0,0
140488,-90.9090909090909,4,2,1,80,0,1
147988,-90.9090909090909,4,2,1,80,0,0
148185,-90.9090909090909,4,2,1,80,0,1
148777,-90.9090909090909,4,2,1,80,0,0
148975,-90.9090909090909,4,2,1,80,0,1
149567,-90.9090909090909,4,2,1,80,0,0
149962,-83.3333333333333,4,2,1,80,0,1
151146,-83.3333333333333,4,2,1,80,0,0
151343,-83.3333333333333,4,2,1,90,0,1
151540,-83.3333333333333,4,2,1,90,0,0
151738,-83.3333333333333,4,2,1,90,0,1
151935,-83.3333333333333,4,2,1,90,0,0
152133,-250,4,2,1,90,0,1
152527,-83.3333333333333,4,2,1,80,0,0
153119,-90.9090909090909,4,2,1,80,0,1
160619,-90.9090909090909,4,2,1,80,0,0
160817,-90.9090909090909,4,2,1,80,0,1
161409,-90.9090909090909,4,2,1,80,0,0
161606,-90.9090909090909,4,2,1,80,0,1
162198,-90.9090909090909,4,2,1,80,0,0
162593,-100,4,2,1,80,0,1
164172,-100,4,2,1,80,0,0
165751,-200,4,2,1,50,0,0
172067,-200,4,2,1,40,0,0
189435,-133.333333333333,4,2,1,50,0,0
201672,-133.333333333333,4,2,1,70,0,0
203251,-83.3333333333333,4,2,1,70,0,0
203448,-83.3333333333333,4,2,1,90,0,0
204633,-83.3333333333333,4,2,1,80,0,0
205027,-333.333333333333,4,2,1,50,0,0
205619,-76.9230769230769,4,2,1,80,0,1
206014,-90.9090909090909,4,2,1,80,0,1
212725,-90.9090909090909,4,2,1,80,0,0
212922,-90.9090909090909,4,2,1,80,0,1
213514,-90.9090909090909,4,2,1,80,0,0
213712,-90.9090909090909,4,2,1,80,0,1
214304,-90.9090909090909,4,2,1,80,0,0
214698,-100,4,2,1,80,0,1
216277,-100,4,2,1,80,0,0
217462,-100,4,2,1,60,0,0
217856,-200,4,2,2,50,0,0
223383,-200,4,2,1,50,0,0
224172,-200,4,2,2,50,0,0
228119,-200,4,2,1,50,0,0
228712,-133.333333333333,4,2,1,50,0,0
235225,-133.333333333333,4,2,1,5,0,0

[Colours]
Combo1 : 230,222,128
Combo2 : 122,230,235

[HitObjects]
112,207,1541,5,2,0:0:0:0:
112,207,1738,2,0,P|130:227|101:252,1,60.0000022888184,0|10,0:0|0:0,0:0:0:0:
21,229,2133,1,2,0:0:0:0:
459,247,2527,2,0,L|482:126,1,120.000004577637,2|8,0:0|0:0,0:0:0:0:
394,156,3119,1,2,0:0:0:0:
224,116,3317,1,0,0:0:0:0:
288,156,3514,1,2,0:0:0:0:
331,92,3712,2,0,P|358:62|312:90,1,180.000006866455,2|0,0:0|0:0,0:0:0:0:
366,340,4698,5,2,0:0:0:0:
285,309,4896,2,0,P|247:301|251:333,1,60.0000022888184,0|8,0:0|0:0,0:0:0:0:
366,340,5290,1,2,0:0:0:0:
106,147,5685,2,0,L|73:5,1,120.000004577637,2|8,0:0|0:0,0:0:0:0:
169,33,6277,1,2,0:0:0:0:
226,103,6475,1,0,0:0:0:0:
201,192,6672,1,2,0:0:0:0:
122,240,6869,2,0,P|83:252|64:381,1,180.000006866455,2|8,0:0|0:0,0:0:0:0:
460,370,7856,6,0,B|442:350|451:315|451:315|432:289|444:253|444:253|418:207|455:166,1,204.000003890991,2|2,0:0|0:0,0:0:0:0:
167,57,8843,1,2,0:0:0:0:
86,69,9040,2,0,P|44:71|36:39,1,68.0000012969971,2|8,0:0|0:0,0:0:0:0:
167,57,9435,2,0,P|207:69|209:167,1,136.000002593994,2|0,0:0|0:0,0:0:0:0:
141,139,10027,1,2,0:0:0:0:
221,145,10225,2,0,B|227:109|256:88|256:88|228:153|248:228,1,204.000003890991,2|0,0:0|0:0,0:0:0:0:
336,245,11014,5,2,0:0:0:0:
493,24,11409,2,0,L|419:35,1,68.0000012969971,0|2,0:0|0:0,0:0:0:0:
493,24,11804,1,2,0:0:0:0:
459,121,12001,2,0,B|484:145|484:145|501:111,1,68.0000012969971,2|0,0:0|0:0,0:0:0:0:
377,130,12396,1,2,0:0:0:0:
459,121,12593,5,2,0:0:0:0:
368,240,12790,1,2,0:0:0:0:
377,130,12988,1,2,0:0:0:0:
456,232,13185,1,2,0:0:0:0:
368,240,13383,6,0,L|362:318,1,40,2|2,0:0|0:0,0:0:0:0:
272,227,13580,2,0,L|321:220,1,40,2|2,0:0|0:0,0:0:0:0:
244,299,13777,2,0,L|189:304,1,40,2|2,0:0|0:0,0:0:0:0:
147,279,13975,2,0,L|144:240,1,40,2|2,0:0|0:0,0:0:0:0:
61,160,14172,6,0,B|54:144|54:144|2:255|2:255|23:309,1,176.000005371094,4|2,3:0|0:1,0:0:0:0:
71,168,14764,1,2,0:0:0:0:
0,65,14962,1,8,0:0:0:0:
155,55,15159,2,0,B|201:51|201:51|163:30,1,88.000002685547,2|2,0:3|0:1,0:0:0:0:
327,10,15554,2,0,B|332:32|332:32|326:47|326:47|332:61|332:61|329:77|329:77|336:88|336:88|331:109|331:109|338:121|338:121|336:141|336:141|341:154|341:154|340:186,1,176.000005371094,4|0,3:0|3:0,0:0:0:0:
462,78,16146,2,0,P|443:91|451:52,1,88.000002685547,2|0,0:1|3:0,0:0:0:0:
251,133,16540,1,8,0:0:0:0:
417,212,16738,1,0,0:0:0:0:
346,288,16935,2,0,B|333:314|333:314|335:374,1,88.000002685547,8|0,0:0|3:0,0:0:0:0:
158,323,17330,6,0,P|88:339|58:290,1,132.00000402832,4|0,3:0|0:0,0:0:0:0:
56,238,17725,2,0,B|56:213|56:213|-5:261,1,88.000002685547,2|0,0:1|0:0,0:0:0:0:
188,319,18119,1,8,0:0:0:0:
239,255,18317,1,2,0:3:0:0:
242,176,18514,1,2,0:3:0:0:
443,214,18712,2,0,B|407:221|407:221|475:162|475:162|450:114,1,176.000005371094,4|8,3:0|3:2,0:0:0:0:
461,227,19304,1,2,0:1:0:0:
316,41,19501,1,8,0:3:0:0:
169,87,19698,5,8,0:0:0:0:
138,78,19797,1,8,0:0:0:0:
109,86,19896,1,8,0:0:0:0:
76,77,19994,1,8,0:0:0:0:
37,85,20093,2,0,B|18:74|18:74|54:69,1,44.0000013427735,8|8,0:3|0:3,0:0:0:0:
192,72,20290,2,0,L|190:137,1,44.0000013427735,8|8,0:1|0:1,0:0:0:0:
107,200,20488,6,0,B|103:236|103:236|88:256|88:256|78:383,1,176.000005371094,4|2,3:0|0:1,0:0:0:0:
11,208,21080,1,0,3:0:0:0:
164,313,21277,2,0,B|214:313|214:313|169:323,1,88.000002685547,8|0,0:0|0:0,0:0:0:0:
279,378,21672,1,2,0:1:0:0:
377,321,21869,2,0,P|381:270|461:313,1,176.000005371094,4|0,3:0|0:0,0:0:0:0:
315,291,22462,2,0,P|366:278|377:324,1,88.000002685547,2|0,0:1|3:0,0:0:0:0:
163,167,22856,1,8,0:0:0:0:
386,113,23054,1,0,3:0:0:0:
161,91,23251,1,8,0:0:0:0:
313,115,23448,1,0,3:0:0:0:
88,128,23646,6,0,B|51:131|51:131|52:14,1,132.00000402832,4|0,3:0|0:0,0:0:0:0:
52,14,24040,2,0,B|96:14|96:14|44:30,1,88.000002685547,0|0,3:0|3:0,0:0:0:0:
221,10,24435,1,8,0:0:0:0:
279,75,24633,1,2,0:3:0:0:
257,158,24830,1,8,0:0:0:0:
451,199,25027,2,0,P|486:161|416:108,1,132.00000402832,4|0,3:0|0:0,0:0:0:0:
416,108,25422,2,0,P|387:88|426:83,1,88.000002685547,8|0,0:0|0:0,0:0:0:0:
421,285,25817,1,0,3:0:0:0:
354,183,26014,2,0,L|307:190,1,44.0000013427735,8|0,3:2|0:0,0:0:0:0:
408,275,26212,2,0,L|455:286,1,44.0000013427735,8|0,3:2|0:0,0:0:0:0:
347,362,26409,2,0,L|300:369,1,44.0000013427735,8|0,3:2|0:0,0:0:0:0:
198,310,26804,6,0,B|118:321|164:278|69:295,1,120.000004577637,2|8,0:0|0:0,0:0:0:0:
7,316,27396,1,2,0:0:0:0:
77,219,27593,1,10,0:0:0:0:
4,200,27790,2,0,P|10:175|4:137,1,60.0000022888184,2|0,0:0|0:0,0:0:0:0:
77,219,28185,2,0,P|92:195|176:176,1,120.000004577637,10|2,0:0|0:0,0:0:0:0:
403,69,28975,2,0,P|346:75|316:18,1,120.000004577637,2|0,0:0|0:0,0:0:0:0:
211,42,29567,1,0,0:0:0:0:
133,19,29764,1,10,0:0:0:0:
133,19,29863,1,2,0:0:0:0:
133,19,29962,6,0,L|54:28,1,60.0000022888184,2|0,0:0|0:0,0:0:0:0:
159,98,30356,1,10,0:0:0:0:
247,123,30554,2,0,L|236:253,1,120.000004577637,2|2,0:0|0:0,0:0:0:0:
196,315,31146,1,2,0:0:0:0:
303,372,31343,1,10,0:0:0:0:
415,318,31540,1,2,0:0:0:0:
343,284,31738,2,0,L|344:216,1,60.0000022888184,2|8,0:0|0:0,0:0:0:0:
499,238,32133,2,0,P|512:204|461:242,1,180.000006866455,2|8,0:0|0:0,0:0:0:0:
501,319,32922,1,0,0:0:0:0:
501,319,33021,1,0,0:0:0:0:
501,319,33119,5,2,0:0:0:0:
153,102,33514,2,0,L|228:113,1,60.0000022888184,8|2,0:0|0:0,0:0:0:0:
157,187,33909,1,10,0:0:0:0:
66,134,34106,2,0,P|47:163|27:148,1,60.0000022888184,2|0,0:0|0:0,0:0:0:0:
11,52,34501,2,0,P|64:45|93:102,1,120.000004577637,10|2,0:0|0:0,0:0:0:0:
181,376,35290,2,0,P|133:368|136:299,1,120.000004577637,2|0,0:0|0:0,0:0:0:0:
216,275,35883,1,8,0:0:0:0:
135,229,36080,1,10,0:0:0:0:
135,229,36179,1,2,0:0:0:0:
135,229,36277,6,0,P|183:196|183:178,1,60.0000022888184,2|0,0:0|0:0,0:0:0:0:
348,232,36672,2,0,P|294:227|290:192,1,90.0000034332277,2|0,0:0|0:0,0:0:0:0:
287,163,37067,2,0,L|269:85,1,60.0000022888184,10|2,0:0|0:0,0:0:0:0:
193,20,37462,1,2,0:0:0:0:
318,38,37659,1,10,0:0:0:0:
318,38,37758,1,2,0:0:0:0:
318,38,37856,1,2,0:0:0:0:
417,64,38054,2,0,B|445:53|445:53|421:7,1,60.0000022888184,2|8,0:0|0:0,0:0:0:0:
496,126,38448,2,0,P|485:162|464:249,1,120.000004577637,2|0,0:0|0:0,0:0:0:0:
486,341,39040,1,8,0:0:0:0:
24,352,39435,6,0,B|41:325|41:325|49:225,1,120.000004577637,2|10,0:0|0:0,0:0:0:0:
459,193,40225,1,10,0:0:0:0:
33,110,40619,1,2,0:0:0:0:
96,57,40817,2,0,L|161:58,1,60.0000022888184,10|0,0:0|0:0,0:0:0:0:
257,19,41212,2,0,B|257:36|257:36|255:50|255:50|258:64|258:64|255:79|255:79|257:92|257:92|254:107|254:107|258:151,1,120.000004577637,2|2,0:0|0:0,0:0:0:0:
200,205,41804,1,0,0:0:0:0:
277,222,42001,1,2,0:0:0:0:
324,288,42198,1,0,0:0:0:0:
228,334,42396,1,2,0:0:0:0:
228,334,42494,1,2,0:0:0:0:
228,334,42593,5,2,0:0:0:0:
477,164,42988,2,0,P|501:138|468:132,1,60.0000022888184,10|2,0:0|0:0,0:0:0:0:
379,128,43383,2,0,P|400:75|400:26,1,90.0000034332277,10|0,0:0|0:0,0:0:0:0:
413,52,43777,2,0,P|442:23|458:-5,1,60.0000022888184,0|10,0:0|0:0,0:0:0:0:
321,57,44172,1,2,0:0:0:0:
245,20,44369,1,0,0:0:0:0:
170,62,44567,1,10,0:0:0:0:
228,119,44764,1,2,0:0:0:0:
137,195,44962,2,0,L|78:178,1,60.0000022888184,2|0,0:0|0:0,0:0:0:0:
20,112,45356,2,0,L|-1:15,1,90.0000034332277,10|0,0:0|0:0,0:0:0:0:
28,10,45751,6,0,P|71:34|46:108,1,120.000004577637,2|10,0:0|0:0,0:0:0:0:
17,195,46343,1,2,0:0:0:0:
79,252,46540,1,10,0:0:0:0:
87,335,46738,2,0,L|45:380,1,60.0000022888184,2|0,0:0|0:0,0:0:0:0:
481,198,47330,1,2,0:0:0:0:
115,134,47725,1,2,0:0:0:0:
501,34,48119,2,0,P|426:17|421:2,1,90.0000034332277,2|0,0:0|0:0,0:0:0:0:
395,11,48514,2,0,L|391:79,1,60.0000022888184,2|2,0:0|0:0,0:0:0:0:
291,156,48909,5,2,0:0:0:0:
228,112,49106,1,2,0:0:0:0:
247,39,49304,1,0,0:0:0:0:
370,143,49501,2,0,P|379:196|395:265,1,120.000004577637,2|2,0:0|0:0,0:0:0:0:
313,311,50093,1,0,0:0:0:0:
235,291,50290,6,0,L|218:286,4,15.0000005722046,8|2|2|2|2,0:0|0:1|0:1|0:1|0:1,0:0:0:0:
143,307,50685,1,2,0:1:0:0:
313,311,51129,5,2,0:1:0:0:
394,203,51277,2,0,L|418:203,7,20,2|2|2|2|2|2|2|2,0:1|0:1|0:1|0:1|0:1|0:1|0:1|0:1,0:1:0:0:
368,204,51672,6,0,L|226:209,1,120,4|0,0:1|0:0,0:0:0:0:
186,210,52067,6,0,B|159:159|159:159|171:160|171:160|138:90,1,143.999995605469,6|0,3:0|0:0,0:0:0:0:
51,73,52659,2,0,P|13:42|-6:14,1,71.9999978027344,2|10,0:0|0:2,0:0:0:0:
23,309,53251,2,0,P|62:291|88:269,1,71.9999978027344,2|0,1:2|0:0,0:0:0:0:
13,226,53646,1,0,1:0:0:0:
171,281,53843,2,0,P|223:293|252:290,1,71.9999978027344,0|2,1:0|0:1,0:0:0:0:
200,372,54238,1,2,3:1:0:0:
334,318,54435,2,0,B|377:319|377:319|403:333|403:333|494:337,1,143.999995605469,12|0,0:1|0:0,0:0:0:0:
479,47,55225,6,0,P|451:31|471:-2,1,71.9999978027344,0|0,3:0|0:0,0:0:0:0:
400,124,55619,1,2,0:0:0:0:
474,157,55817,1,2,3:0:0:0:
484,238,56014,2,0,L|393:227,1,71.9999978027344,10|2,0:2|0:3,0:0:0:0:
236,133,56409,1,2,0:0:0:0:
190,207,56606,1,8,0:0:0:0:
190,207,56705,1,8,0:0:0:0:
190,207,56804,5,10,3:2:0:0:
104,171,57001,2,0,B|80:141|80:141|128:143,1,71.9999978027344,8|2,0:0|0:1,0:0:0:0:
287,63,57396,1,8,0:0:0:0:
176,33,57593,1,12,0:1:0:0:
366,17,57790,2,0,L|353:111,1,80,0|8,3:0|0:3,0:0:0:0:
412,184,58185,1,2,0:0:0:0:
412,184,58284,1,2,0:0:0:0:
412,184,58383,6,0,P|454:214|452:319,1,160,6|2,3:2|0:0,0:0:0:0:
318,213,58975,2,0,B|313:233|313:233|320:255,2,40,8|8|8,0:3|0:3|0:0,0:0:0:0:
197,196,59369,1,8,0:3:0:0:
302,342,59567,1,2,0:3:0:0:
138,262,59764,6,0,B|102:266|102:266|87:271|87:271|56:270|56:270|8:275,1,132.00000402832,6|0,3:2|0:0,0:0:0:0:
6,300,60159,2,0,B|22:346|22:346|51:310,1,88.000002685547,2|2,3:2|0:1,0:0:0:0:
171,139,60554,1,2,3:2:0:0:
85,94,60751,2,0,L|-14:98,1,88.000002685547,8|8,0:0|0:3,0:0:0:0:
173,38,61146,2,0,B|205:0|205:0|159:13,1,88.000002685547,8|8,0:1|0:0,0:0:0:0:
151,17,61442,1,8,0:0:0:0:
136,24,61540,6,0,L|231:104,1,88.000002685547,2|2,3:2|0:0,0:0:0:0:
395,90,61935,2,0,L|292:116,1,88.000002685547,8|2,0:0|3:2,0:0:0:0:
477,238,62330,2,0,L|411:166,1,88.000002685547,8|8,0:0|0:3,0:0:0:0:
496,34,62725,1,2,0:3:0:0:
285,205,62922,6,0,P|231:234|288:167,1,287.999991210938,6|0,3:2|0:0,0:0:0:0:
287,166,63909,6,0,P|299:193|284:244,1,83.9999974365235,2|0,0:0|0:0,0:0:0:0:
252,273,64304,6,2,P|183:273|152:222,1,107.999996704102,2|0,0:0|0:0,0:0:0:0:
125,170,64698,6,0,P|136:119|211:106,1,132.00000402832,6|0,3:2|0:0,0:0:0:0:
215,114,65093,1,8,0:0:0:0:
110,33,65290,2,0,L|16:19,1,88.000002685547,0|2,3:0|0:1,0:0:0:0:
240,12,65685,1,0,3:0:0:0:
73,127,65883,1,10,0:0:0:0:
111,210,66080,2,0,B|132:248|132:248|122:357,1,132.00000402832,2|0,3:2|0:0,0:0:0:0:
90,348,66475,2,0,B|45:361|45:361|74:327,1,88.000002685547,2|8,3:2|0:0,0:0:0:0:
311,327,66869,2,0,L|396:352,1,88.000002685547,2|0,3:2|0:0,0:0:0:0:
267,242,67264,1,2,3:2:0:0:
471,211,67462,1,10,0:0:0:0:
296,150,67659,1,2,0:0:0:0:
296,150,67758,1,2,0:0:0:0:
296,150,67856,5,2,3:1:0:0:
443,97,68054,2,0,P|487:79|485:37,1,88.000002685547,2|10,0:0|0:0,0:0:0:0:
311,8,68448,2,0,P|244:16|216:122,1,176.000005371094,2|0,3:2|3:0,0:0:0:0:
344,77,69040,1,10,0:0:0:0:
144,14,69238,2,0,L|46:11,1,88.000002685547,2|0,3:2|0:0,0:0:0:0:
148,203,69633,2,0,L|273:207,1,88.000002685547,2|8,3:2|0:0,0:0:0:0:
78,312,70027,2,0,B|30:332|30:332|81:207,1,176.000005371094,2|0,3:2|3:0,0:0:0:0:
2,144,70619,1,8,0:0:0:0:
129,123,70817,1,8,0:0:0:0:
129,123,70915,1,8,0:0:0:0:
129,123,71014,5,4,3:0:0:0:
320,363,71409,1,10,0:0:0:0:
234,336,71606,1,2,3:2:0:0:
405,308,71804,2,0,B|443:338|443:338|402:368,1,88.000002685547,2|2,0:0|3:2,0:0:0:0:
478,243,72198,1,10,0:0:0:0:
321,207,72396,2,0,B|276:168|276:168|280:68,1,132.00000402832,6|0,3:2|0:0,0:0:0:0:
307,73,72790,2,0,B|353:85|353:85|306:97,1,88.000002685547,2|8,3:2|0:0,0:0:0:0:
400,11,73185,2,0,L|197:19,1,176.000005371094,6|0,3:2|3:0,0:0:0:0:
59,110,73777,2,0,L|74:152,1,44.0000013427735,8|8,0:3|0:3,0:0:0:0:
73,151,73975,2,0,L|124:155,1,44.0000013427735,8|8,0:3|0:3,0:0:0:0:
125,156,74172,6,0,B|150:109|150:109|100:12,1,143.999995605469,6|0,3:2|3:0,0:0:0:0:
59,24,74567,1,10,0:0:0:0:
221,170,74764,2,0,L|211:273,1,95.9999970703126,2|0,3:2|0:0,0:0:0:0:
101,323,75159,2,0,P|51:333|58:296,1,95.9999970703126,2|8,3:2|0:0,0:0:0:0:
204,277,75554,6,0,P|268:308|282:378,1,143.999995605469,6|0,3:2|0:0,0:0:0:0:
303,379,75948,2,0,P|316:325|360:316,1,95.9999970703126,6|0,3:2|0:0,0:0:0:0:
496,101,76343,6,0,L|431:105,1,64,6|2,3:2|0:0,0:0:0:0:
123,142,76935,1,10,0:0:0:0:
106,119,77034,1,10,0:0:0:0:
110,95,77133,1,10,0:0:0:0:
128,83,77231,1,10,0:0:0:0:
171,87,77330,6,0,P|81:122|39:50,1,176.000005371094,4|8,3:0|0:0,0:0:0:0:
249,10,77922,1,0,3:0:0:0:
236,169,78119,2,0,L|236:271,1,88.000002685547,2|0,0:0|3:0,0:0:0:0:
121,234,78514,1,10,0:0:0:0:
350,252,78712,2,0,B|380:230|380:230|296:228,1,88.000002685547,2|2,3:2|0:1,0:0:0:0:
333,336,79106,1,2,3:3:0:0:
335,148,79304,1,8,0:0:0:0:
447,224,79501,2,0,L|254:235,1,176.000005371094,2|2,3:2|3:2,0:0:0:0:
164,357,80093,1,10,0:0:0:0:
48,274,80290,1,2,0:0:0:0:
48,274,80389,1,2,0:0:0:0:
48,274,80488,5,0,3:0:0:0:
163,159,80685,2,0,P|190:125|159:103,1,88.000002685547,2|10,0:0|0:0,0:0:0:0:
35,38,81080,2,0,B|162:61|72:-12|228:31,1,176.000005371094,2|2,3:2|3:2,0:0:0:0:
386,12,81672,1,10,0:0:0:0:
293,153,81869,1,6,3:2:0:0:
400,19,82264,2,0,P|383:73|400:112,1,88.000002685547,2|8,3:2|0:0,0:0:0:0:
496,241,82659,2,0,P|443:228|499:276,1,176.000005371094,2|0,3:2|3:0,0:0:0:0:
180,364,83251,1,8,0:0:0:0:
333,341,83448,1,8,0:0:0:0:
133,301,83646,6,0,B|100:295|100:295|84:188,1,132.00000402832,4|0,3:0|0:0,0:0:0:0:
120,166,84040,1,10,0:0:0:0:
15,87,84238,1,2,3:2:0:0:
129,69,84435,2,0,B|164:53|164:53|120:24,1,88.000002685547,2|2,0:0|3:2,0:0:0:0:
15,87,84830,1,10,0:0:0:0:
120,166,85027,2,0,B|196:155|196:155|213:159|213:159|307:145,1,176.000005371094,6|2,3:2|3:2,0:0:0:0:
246,271,85619,1,8,0:0:0:0:
311,146,85817,2,0,P|340:94|251:96,1,176.000005371094,6|2,3:2|3:2,0:0:0:0:
461,120,86409,2,0,P|479:133|496:118,1,44.0000013427735,10|0,0:0|0:0,0:0:0:0:
476,53,86606,2,0,P|450:64|449:87,1,44.0000013427735,10|0,0:0|0:0,0:0:0:0:
432,212,86804,6,0,P|463:277|504:379,1,160,6|2,3:2|0:1,0:0:0:0:
509,212,87396,1,2,0:3:0:0:
9,242,87790,1,2,0:0:0:0:
82,273,87988,1,10,0:0:0:0:
127,202,88185,1,2,0:0:0:0:
127,202,88284,1,2,0:0:0:0:
127,202,88383,2,0,L|176:215,1,40,8|0,3:2|0:0,0:0:0:0:
265,283,88580,2,0,L|314:296,1,40,8|0,3:2|0:0,0:0:0:0:
81,192,89962,5,2,0:3:0:0:
30,137,90159,1,0,0:0:0:0:
103,122,90356,1,2,0:3:0:0:
81,192,90554,1,0,0:0:0:0:
30,137,90751,5,8,3:2:0:0:
256,192,90948,1,2,3:2:0:0:
270,186,91343,6,0,B|293:137|293:137|201:144,1,120,6|0,3:2|0:0,0:0:0:0:
200,144,91738,2,0,L|164:232,1,80,10|0,0:3|0:0,0:0:0:0:
331,324,92133,1,2,3:2:0:0:
401,271,92330,2,0,L|490:268,1,80,8|2,0:0|0:3,0:0:0:0:
355,138,92725,1,8,3:2:0:0:
440,28,92922,1,2,0:0:0:0:
310,11,93119,6,0,L|246:0,1,60.0000022888184,4|2,3:0|0:0,0:0:0:0:
156,116,93514,2,0,P|175:132|179:106,1,60.0000022888184,2|2,0:1|0:0,0:0:0:0:
169,104,93810,1,2,0:0:0:0:
154,106,93909,2,8,L|126:179,1,60.0000022888184,10|0,0:0|3:0,0:0:0:0:
8,142,94304,1,8,0:3:0:0:
218,197,94501,1,2,3:2:0:0:
208,204,94896,6,0,L|383:188,1,160,2|10,3:2|3:2,0:0:0:0:
69,365,95685,2,0,L|52:321,1,40,2|0,3:2|0:0,0:0:0:0:
52,321,95883,2,0,L|102:288,1,40,8|8,0:0|0:0,0:0:0:0:
102,288,96080,2,0,L|146:326,1,40,10|0,0:3|0:0,0:0:0:0:
146,326,96277,6,0,B|208:323|208:323|217:326|217:326|294:321,1,120.000004577637,4|2,3:0|0:1,0:0:0:0:
376,370,96869,1,2,0:0:0:0:
326,236,97067,1,10,0:0:0:0:
433,135,97264,2,0,B|478:122|478:122|454:115,1,60.0000022888184,2|2,3:2|0:1,0:0:0:0:
285,72,97659,2,0,B|241:67|241:67|197:51|197:51|120:44,1,160,2|10,3:2|3:2,0:0:0:0:
137,160,98251,2,0,P|151:175|138:148,1,80,2|2,0:1|3:2,0:0:0:0:
49,128,98646,1,8,0:0:0:0:
251,164,98843,1,0,3:0:0:0:
108,283,99040,2,0,B|128:267|141:242|141:242|84:277|51:278,1,120,8|2,0:3|0:0,0:0:0:0:
40,268,99435,6,0,L|206:277,1,160,6|8,3:2|0:0,0:0:0:0:
116,370,100027,2,0,L|76:363,2,40,0|8|8,3:0|0:0|0:0,0:0:0:0:
358,227,100422,2,0,L|401:228,2,40,8|8|8,0:3|0:3|0:0,0:0:0:0:
140,34,100817,2,0,L|95:36,1,40,6|0,3:2|0:0,0:0:0:0:
313,131,101212,5,0,0:0:0:0:
257,83,101409,1,0,0:0:0:0:
202,134,101606,1,2,0:0:0:0:
408,60,102001,2,0,P|430:70|417:48,1,60.0000022888184,2|4,0:0|0:3,0:0:0:0:
57,237,102593,6,0,L|46:306,1,60.0000022888184,6|2,3:3|0:3,0:0:0:0:
149,227,102988,2,0,L|151:348,1,120.000004577637,2|10,0:3|0:0,0:0:0:0:
230,265,103580,1,2,0:0:0:0:
21,69,103975,1,10,0:0:0:0:
501,150,104369,2,0,L|504:221,1,60.0000022888184,2|0,0:0|0:0,0:0:0:0:
418,130,104764,2,0,L|415:257,1,120.000004577637,0|0,3:0|3:0,0:0:0:0:
335,150,105356,2,0,L|330:221,1,60.0000022888184,0|0,3:0|3:0,0:0:0:0:
236,96,105751,6,0,B|196:84|196:84|284:77,1,120.000004577637,2|2,3:2|3:2,0:0:0:0:
125,32,106343,2,0,L|109:115,1,60.0000022888184,2|8,0:0|0:0,0:0:0:0:
329,365,106935,1,2,3:2:0:0:
402,293,107133,1,10,0:0:0:0:
284,283,107330,1,2,0:0:0:0:
207,323,107527,2,0,L|218:381,1,60.0000022888184,2|8,0:0|0:0,0:0:0:0:
117,275,107922,2,0,B|81:268|81:268|106:257,1,60.0000022888184,2|2,0:0|0:3,0:0:0:0:
8,191,108317,1,0,3:0:0:0:
235,145,108514,1,8,0:0:0:0:
97,248,108712,1,0,3:0:0:0:
51,93,108909,6,0,L|58:25,1,60.0000022888184,2|2,3:3|0:3,0:0:0:0:
131,137,109304,2,0,L|144:8,1,120.000004577637,2|10,0:3|0:0,0:0:0:0:
231,60,109896,1,2,0:0:0:0:
0,364,110290,1,10,0:0:0:0:
496,332,110685,2,0,L|488:268,1,60.0000022888184,2|0,0:0|3:0,0:0:0:0:
406,366,111080,2,0,L|412:235,1,120.000004577637,2|0,0:0|3:0,0:0:0:0:
328,327,111672,2,0,L|321:265,1,60.0000022888184,8|2,0:0|3:2,0:0:0:0:
215,350,112067,6,0,P|183:330|152:331,1,60.0000022888184,2|2,3:3|0:3,0:0:0:0:
288,187,112462,2,0,P|323:160|329:141,1,60.0000022888184,2|0,0:3|3:0,0:0:0:0:
455,7,112856,2,0,B|481:37|481:37|466:121,1,120.000004577637,10|2,0:0|0:3,0:0:0:0:
362,36,113448,1,2,0:0:0:0:
150,81,113646,5,6,3:2:0:0:
234,84,113843,1,2,0:0:0:0:
234,84,113942,1,2,0:0:0:0:
234,84,114040,1,2,0:3:0:0:
56,47,114238,1,2,3:2:0:0:
114,207,114435,1,8,0:0:0:0:
150,81,114633,1,8,0:3:0:0:
32,162,114830,2,0,B|22:181|22:181|28:204|28:204|22:214|22:214|44:310,1,120,8|0,0:0|0:0,0:0:0:0:
48,329,115225,6,0,L|187:332,1,120.000004577637,4|2,0:3|0:0,0:0:0:0:
493,116,116014,2,0,P|467:93|436:104,1,60.0000022888184,10|2,0:0|0:3,0:0:0:0:
493,197,116409,1,2,0:0:0:0:
355,129,116606,2,0,L|224:157,1,120.000004577637,2|2,3:2|0:0,0:0:0:0:
139,122,117198,1,2,0:1:0:0:
87,61,117396,1,0,3:0:0:0:
151,21,117593,2,0,L|219:36,1,60.0000022888184,0|2,1:0|0:3,0:0:0:0:
175,210,117988,2,0,L|244:226,1,60.0000022888184,2|2,0:1|0:3,0:0:0:0:
288,372,118383,5,0,3:0:0:0:
5,233,118777,1,2,0:0:0:0:
141,260,118975,1,2,0:0:0:0:
45,297,119172,1,2,0:0:0:0:
57,153,119369,2,0,B|65:112|65:112|47:128,1,60.0000022888184,2|0,0:0|0:0,0:0:0:0:
45,297,119764,1,2,3:2:0:0:
141,260,119962,2,0,L|212:255,1,60.0000022888184,0|2,3:0|0:1,0:0:0:0:
354,181,120356,2,0,L|283:187,1,60.0000022888184,8|0,0:0|3:0,0:0:0:0:
429,109,120751,2,0,L|508:103,1,60.0000022888184,0|0,1:0|3:0,0:0:0:0:
304,27,121146,1,8,0:0:0:0:
388,43,121343,1,0,3:0:0:0:
388,43,121442,1,0,3:0:0:0:
388,43,121540,5,0,3:0:0:0:
9,192,121935,1,2,0:0:0:0:
97,228,122133,1,2,0:0:0:0:
98,139,122330,1,2,1:2:0:0:
214,200,122527,2,0,L|282:200,1,60.0000022888184,2|0,0:0|0:0,0:0:0:0:
405,173,122922,1,2,3:2:0:0:
371,288,123119,2,0,P|360:333|412:385,1,120.000004577637,0|2,3:0|0:0,0:0:0:0:
471,262,123712,1,0,3:0:0:0:
405,173,123909,2,0,L|410:107,1,60.0000022888184,2|0,0:1|3:0,0:0:0:0:
231,26,124304,2,0,B|200:22|200:22|221:89,1,90.0000034332277,2|0,1:2|0:0,0:0:0:0:
206,112,124698,6,0,L|132:117,1,60.0000022888184,2|0,3:2|0:0,0:0:0:0:
301,64,125093,1,2,0:0:0:0:
116,42,125290,1,0,3:0:0:0:
138,124,125488,2,0,L|159:206,1,60.0000022888184,2|2,1:2|0:1,0:0:0:0:
20,146,125883,1,0,0:0:0:0:
71,225,126080,2,0,L|62:245,4,15.0000005722046,2|0|2|2|2,0:0|0:0|0:1|0:1|3:1,0:0:0:0:
8,309,126475,1,2,0:1:0:0:
170,230,126672,5,8,0:0:0:0:
20,146,126869,1,2,3:1:0:0:
8,309,127067,2,0,P|49:297|64:314,1,60.0000022888184,0|8,0:0|0:0,0:0:0:0:
170,230,127462,2,0,L|148:223,4,15.0000005722046,2|2|2|2|8,0:1|0:1|0:1|0:1|0:3,0:3:0:0:
300,142,127856,6,0,B|306:165|306:165|305:176|305:176|307:187|307:187|306:199|306:199|309:213|309:213|308:223|308:223|311:236|311:236|311:264,1,120.000004577637,4|0,3:1|0:0,0:0:0:0:
396,312,128448,2,0,P|430:324|419:292,1,60.0000022888184,2|10,0:0|0:0,0:0:0:0:
163,61,129040,2,0,P|130:53|126:72,1,60.0000022888184,2|0,0:0|0:0,0:0:0:0:
249,97,129435,2,0,B|279:93|279:93|321:23|321:23|312:23,1,120.000004577637,2|0,0:0|0:0,0:0:0:0:
386,61,130027,1,2,0:0:0:0:
386,61,130225,2,0,L|449:55,1,60.0000022888184,2|0,0:3|0:0,0:0:0:0:
291,180,130619,2,0,L|188:190,1,90.0000034332277,2|0,0:1|0:0,0:0:0:0:
151,192,131014,6,0,P|150:231|141:319,1,120.000004577637,0|2,3:0|0:0,0:0:0:0:
69,181,131606,1,2,3:2:0:0:
135,313,131804,2,0,P|119:337|153:350,1,60.0000022888184,10|2,0:0|0:3,0:0:0:0:
286,367,132198,1,2,0:0:0:0:
149,350,132396,2,0,P|181:321|153:241,1,120.000004577637,2|2,3:2|0:0,0:0:0:0:
43,304,132988,2,0,P|43:319|51:320,1,20,12|0,0:1|0:0,0:0:0:0:
5,205,133185,1,0,3:0:0:0:
95,236,133383,1,8,0:0:0:0:
23,89,133580,1,8,0:3:0:0:
234,113,133777,2,0,B|275:107|275:107|236:93,1,80,2|2,3:1|0:1,0:0:0:0:
376,166,134172,6,0,P|423:98|411:50,1,120,6|0,3:2|0:0,0:0:0:0:
389,22,134567,1,2,0:0:0:0:
510,138,134764,1,8,0:3:0:0:
510,138,134863,1,8,0:3:0:0:
510,138,134962,1,8,0:0:0:0:
468,243,135159,2,0,L|464:329,1,80,2|8,0:0|0:3,0:0:0:0:
268,304,135554,6,0,B|246:324|246:324|232:312|232:312|107:325,1,132.00000402832,6|0,3:2|0:0,0:0:0:0:
100,325,135948,2,0,B|79:305|79:305|91:287|91:287|85:196,1,132.00000402832,2|0,3:2|0:0,0:0:0:0:
121,209,136343,1,2,3:2:0:0:
15,62,136540,1,8,0:0:0:0:
224,51,136738,1,8,0:3:0:0:
85,205,136935,1,8,0:1:0:0:
117,104,137133,1,8,0:0:0:0:
117,104,137231,1,8,0:0:0:0:
117,104,137330,5,6,3:2:0:0:
231,165,137527,2,0,L|227:253,1,88.000002685547,2|8,0:0|0:0,0:0:0:0:
339,55,137922,1,2,3:2:0:0:
141,173,138119,1,8,0:0:0:0:
315,290,138317,2,0,L|312:404,1,88.000002685547,8|8,0:3|0:1,0:0:0:0:
469,312,138712,6,0,P|487:266|451:312,1,167.999994873047,6|0,3:2|0:0,0:0:0:0:
483,168,139501,5,2,0:1:0:0:
200,172,139698,1,10,0:0:0:0:
325,158,139896,1,0,3:0:0:0:
342,132,139994,1,8,0:0:0:0:
339,98,140093,1,8,0:0:0:0:
306,78,140192,1,8,0:0:0:0:
271,88,140290,1,8,0:3:0:0:
265,120,140389,1,8,0:3:0:0:
283,133,140488,6,0,B|374:138|302:78|426:96,1,132.00000402832,6|0,3:2|0:0,0:0:0:0:
436,101,140883,1,8,0:0:0:0:
221,30,141080,2,0,L|129:31,1,88.000002685547,0|2,3:0|0:1,0:0:0:0:
236,197,141475,1,0,3:0:0:0:
147,253,141672,1,10,0:0:0:0:
281,286,141869,2,0,B|298:307|298:307|287:376,1,88.000002685547,2|2,3:2|0:1,0:0:0:0:
411,220,142264,2,0,L|506:195,1,88.000002685547,2|8,3:2|0:0,0:0:0:0:
324,134,142659,2,0,P|292:92|337:129,1,176.000005371094,0|2,3:0|3:2,0:0:0:0:
421,7,143251,1,10,0:0:0:0:
229,51,143448,1,2,0:0:0:0:
352,215,143646,5,2,3:1:0:0:
362,115,143843,1,2,0:0:0:0:
362,115,143942,1,2,0:0:0:0:
362,115,144040,1,10,0:0:0:0:
225,261,144238,1,2,3:2:0:0:
161,152,144435,2,0,L|123:248,1,88.000002685547,2|0,0:1|3:0,0:0:0:0:
225,261,144830,1,10,0:0:0:0:
23,234,145027,1,2,3:2:0:0:
491,188,145422,5,2,3:2:0:0:
370,171,145619,1,8,0:0:0:0:
424,253,145817,2,0,L|432:357,1,88.000002685547,2|0,3:2|0:0,0:0:0:0:
491,188,146212,1,0,3:0:0:0:
338,266,146409,1,8,0:0:0:0:
257,226,146606,1,2,0:3:0:0:
257,226,146705,1,2,0:3:0:0:
257,226,146804,1,4,3:0:0:0:
93,114,147198,5,10,0:0:0:0:
163,83,147396,1,2,3:2:0:0:
59,44,147593,2,0,B|15:37|15:37|60:25,1,88.000002685547,2|2,0:0|3:2,0:0:0:0:
93,114,147988,1,10,0:0:0:0:
251,21,148185,2,0,L|346:16,1,88.000002685547,6|0,3:2|0:0,0:0:0:0:
253,186,148580,2,0,L|139:194,1,88.000002685547,2|8,3:2|0:0,0:0:0:0:
37,325,148975,2,0,B|114:321|114:321|119:302|119:302|214:339,1,176.000005371094,6|8,3:2|0:1,0:0:0:0:
336,303,149567,1,8,0:3:0:0:
369,330,149665,1,8,0:3:0:0:
405,338,149764,1,8,0:3:0:0:
443,334,149863,1,8,0:3:0:0:
475,306,149962,6,0,B|498:262|498:262|375:277,1,143.999995605469,6|0,3:2|3:0,0:0:0:0:
385,255,150356,2,0,L|438:243,1,47.9999985351563,10|0,0:0|0:0,0:0:0:0:
481,123,150554,2,0,L|384:121,1,95.9999970703126,2|2,3:2|0:1,0:0:0:0:
231,42,150948,2,0,L|106:38,1,95.9999970703126,2|8,3:2|0:0,0:0:0:0:
286,136,151343,6,0,B|289:103|311:70|311:70|260:103|270:192,1,191.999994140625,6|6,3:2|3:2,0:0:0:0:
271,186,152133,6,0,P|284:214|280:248,1,64,6|2,3:2|0:0,0:0:0:0:
55,308,152725,1,10,0:0:0:0:
22,288,152823,1,10,0:0:0:0:
8,245,152922,1,10,0:0:0:0:
20,200,153021,1,10,0:0:0:0:
59,173,153119,6,0,B|124:181|124:181|116:97|116:97|88:103,1,176.000005371094,4|8,3:0|0:0,0:0:0:0:
217,86,153712,1,0,3:0:0:0:
80,103,153909,2,0,B|37:109|37:109|51:49,1,88.000002685547,2|0,0:0|3:0,0:0:0:0:
217,86,154304,1,10,0:0:0:0:
315,48,154501,2,0,L|315:140,1,88.000002685547,2|2,3:2|0:1,0:0:0:0:
483,155,154896,1,2,3:3:0:0:
418,18,155093,1,8,0:0:0:0:
315,136,155290,2,0,P|289:92|327:136,1,176.000005371094,2|2,3:2|3:2,0:0:0:0:
196,280,155883,1,10,0:0:0:0:
334,248,156080,1,2,0:0:0:0:
334,248,156179,1,2,0:0:0:0:
334,248,156277,5,4,0:3:0:0:
215,365,156475,2,0,P|167:363|143:316,1,88.000002685547,2|10,0:0|0:0,0:0:0:0:
334,248,156869,2,0,P|357:309|437:250,1,176.000005371094,2|2,3:2|3:2,0:0:0:0:
509,216,157462,1,10,0:0:0:0:
255,227,157659,1,6,3:2:0:0:
240,14,158054,2,0,P|264:42|233:37,1,88.000002685547,2|8,3:2|0:0,0:0:0:0:
165,123,158448,2,0,B|35:84|125:168|-6:128,1,176.000005371094,2|0,3:2|3:0,0:0:0:0:
26,42,159040,1,8,0:0:0:0:
134,198,159238,1,8,0:0:0:0:
3,126,159435,6,0,B|35:118|35:118|30:243,1,132.00000402832,4|0,3:0|0:0,0:0:0:0:
4,241,159830,1,10,0:0:0:0:
179,240,160027,1,2,3:2:0:0:
129,166,160225,2,0,L|33:167,1,88.000002685547,2|2,0:0|3:2,0:0:0:0:
119,363,160619,1,10,0:0:0:0:
179,240,160817,2,0,B|254:255|254:255|260:246|260:246|358:255,1,176.000005371094,6|2,3:2|3:2,0:0:0:0:
227,171,161409,1,8,0:0:0:0:
247,367,161606,2,0,P|186:348|189:245,1,176.000005371094,6|2,3:2|3:2,0:0:0:0:
305,97,162198,2,0,B|321:81|321:81|286:69,1,44.0000013427735,10|0,0:0|0:0,0:0:0:0:
209,38,162396,2,0,B|187:28|187:28|218:11,1,44.0000013427735,10|0,0:0|0:0,0:0:0:0:
230,113,162593,6,0,P|276:88|391:64,1,160,6|2,3:2|0:1,0:0:0:0:
444,122,163185,1,2,0:3:0:0:
0,104,163580,1,2,0:0:0:0:
103,72,163777,1,10,0:0:0:0:
47,176,163975,1,2,0:0:0:0:
47,176,164073,1,2,0:0:0:0:
47,176,164172,2,0,L|88:171,1,40,8|0,3:2|0:0,0:0:0:0:
186,207,164369,2,0,L|127:214,1,40,8|0,3:2|0:0,0:0:0:0:
127,330,172067,6,0,L|46:330,1,80,2|0,0:0|0:0,0:0:0:0:
186,278,172659,1,0,0:0:0:0:
133,227,172856,2,0,L|216:227,1,80,2|0,0:0|0:0,0:0:0:0:
87,168,173448,1,0,0:0:0:0:
249,165,173646,6,0,B|264:148|405:167|259:329|176:181|255:101|399:126|384:238|342:262,1,280,2|2,0:0|0:0,0:0:0:0:
359,265,175126,1,0,0:0:0:0:
364,279,175225,6,0,L|364:324,1,40,2|0,0:0|0:0,0:0:0:0:
448,250,175619,2,0,L|491:250,1,40,2|0,0:0|0:0,0:0:0:0:
503,127,176014,2,0,L|503:172,1,40,2|0,0:0|0:0,0:0:0:0:
396,106,176409,2,0,L|447:106,1,40,2|0,0:0|0:0,0:0:0:0:
240,126,176804,6,0,P|204:98|269:126,1,320,2|0,0:0|0:0,0:0:0:0:
256,192,178481,12,2,179962,0:0:0:0:
90,248,186277,6,0,P|117:203|83:133,1,120,2|0,0:0|0:0,0:0:0:0:
463,145,187264,1,0,0:0:0:0:
393,195,187462,2,0,L|380:149,1,40,0|0,0:0|0:0,0:0:0:0:
463,145,187856,2,0,L|490:239,1,80,2|0,0:0|0:0,0:0:0:0:
253,303,188646,2,0,L|254:216,1,80,2|0,0:0|0:0,0:0:0:0:
3,106,189435,5,2,0:0:0:0:
423,69,190225,1,2,0:0:0:0:
334,26,190422,2,0,B|300:24|300:24|333:14,1,60.0000022888184,2|0,0:0|0:0,0:0:0:0:
225,88,190817,2,0,B|210:114|210:114|206:125|206:125|161:208,1,120.000004577637,2|0,0:0|0:0,0:0:0:0:
70,233,191409,2,0,P|57:226|4:245,1,60.0000022888184,2|0,0:0|0:0,0:0:0:0:
151,277,191804,2,0,P|167:291|186:259,1,60.0000022888184,2|0,0:0|0:0,0:0:0:0:
166,189,192198,2,0,P|158:163|127:187,1,60.0000022888184,2|0,0:0|0:0,0:0:0:0:
269,236,192593,5,2,0:0:0:0:
325,181,192790,1,0,0:0:0:0:
387,227,192988,1,0,0:0:0:0:
356,298,193185,1,2,0:0:0:0:
197,56,193777,1,2,0:0:0:0:
119,48,193975,2,0,L|-14:31,1,120.000004577637,2|0,0:0|0:0,0:0:0:0:
197,56,194567,1,0,0:0:0:0:
119,48,194764,2,0,P|107:83|119:179,1,120.000004577637,2|0,0:0|0:0,0:0:0:0:
276,49,195356,1,0,0:0:0:0:
350,51,195554,1,2,0:0:0:0:
184,362,195948,5,0,0:0:0:0:
101,361,196146,1,0,0:0:0:0:
164,288,196343,2,0,B|206:287|206:287|113:271,1,120.000004577637,2|0,0:0|0:0,0:0:0:0:
41,260,196935,1,0,0:0:0:0:
44,179,197133,1,2,0:0:0:0:
424,181,197527,1,2,0:0:0:0:
424,368,197922,2,0,P|447:340|421:264,1,120.000004577637,2|0,0:0|0:0,0:0:0:0:
424,181,198514,2,0,L|493:182,1,60.0000022888184,0|0,0:0|0:0,0:0:0:0:
340,182,198909,1,2,0:0:0:0:
134,71,199304,5,2,0:0:0:0:
184,15,199501,1,0,0:0:0:0:
106,7,199698,1,2,0:0:0:0:
58,63,199896,1,0,0:0:0:0:
134,71,200093,1,0,0:0:0:0:
84,142,200290,2,0,B|72:172|72:172|63:183|63:183|31:262,1,120.000004577637,2|2,0:0|0:0,0:0:0:0:
390,92,201080,2,0,B|360:78|360:78|450:88,1,120.000004577637,2|0,0:0|0:0,0:0:0:0:
333,12,201672,2,0,L|266:29,1,60.0000022888184,2|2,0:3|0:3,0:0:0:0:
238,135,202067,6,0,P|259:168|249:232,1,90.0000034332277,2|0,0:0|0:0,0:0:0:0:
235,221,202462,1,2,0:0:0:0:
430,170,202659,1,2,0:0:0:0:
66,218,203054,1,10,0:0:0:0:
235,221,203251,1,8,0:3:0:0:
410,288,203448,6,0,P|424:271|451:287,1,47.9999985351563,2|0,3:2|0:0,0:0:0:0:
133,110,203843,2,0,P|92:101|86:76,1,47.9999985351563,2|0,3:2|0:0,0:0:0:0:
443,19,204238,2,0,B|483:43|480:82|480:82|476:80|476:80|476:131|421:141,1,143.999995605469,2|0,3:2|0:0,0:0:0:0:
397,166,204633,6,0,L|291:179,1,95.9999970703126,2|10,0:0|0:0,0:0:0:0:
70,271,205027,1,2,0:0:0:0:
80,271,205126,1,2,0:0:0:0:
89,270,205225,1,2,0:0:0:0:
164,275,205619,6,0,B|101:349|101:349|82:286,1,155.999992858887,4|0,3:0|0:0,0:0:0:0:
77,261,206014,6,0,L|178:277,1,88.000002685547,2|0,0:1|3:0,0:0:0:0:
21,160,206409,1,10,0:0:0:0:
196,144,206606,2,0,P|236:104|210:31,1,132.00000402832,2|0,3:2|0:0,0:0:0:0:
172,20,207001,2,0,B|116:35|116:35|158:6,1,88.000002685547,2|8,3:2|0:0,0:0:0:0:
385,8,207396,2,0,P|364:52|378:103,1,88.000002685547,0|0,3:0|0:0,0:0:0:0:
511,164,207790,1,2,3:2:0:0:
315,140,207988,1,10,0:0:0:0:
441,62,208185,2,0,B|489:57|489:57|453:72,1,88.000002685547,2|2,0:0|3:1,0:0:0:0:
377,300,208580,5,2,0:0:0:0:
436,208,208777,1,10,0:0:0:0:
293,337,208975,2,0,P|251:309|187:330,1,88.000002685547,2|2,3:2|0:1,0:0:0:0:
102,378,209369,1,2,3:2:0:0:
77,231,209567,1,10,0:0:0:0:
206,315,209764,2,0,P|247:290|335:344,1,132.00000402832,6|0,3:2|0:0,0:0:0:0:
329,331,210159,2,0,B|352:376|352:376|348:334,1,88.000002685547,2|8,3:2|0:0,0:0:0:0:
224,186,210554,2,0,B|200:187|200:187|117:148|117:148|45:144,1,176.000005371094,2|0,3:2|3:0,0:0:0:0:
260,82,211146,1,8,0:0:0:0:
119,29,211343,1,8,0:0:0:0:
119,29,211442,1,8,0:0:0:0:
119,29,211540,1,4,3:0:0:0:
508,155,211935,5,10,0:0:0:0:
391,239,212133,1,2,3:2:0:0:
477,289,212330,2,0,B|493:335|493:335|468:296,1,88.000002685547,2|2,0:0|3:2,0:0:0:0:
508,155,212725,1,10,0:0:0:0:
389,96,212922,2,0,P|349:76|373:24,1,88.000002685547,6|0,3:2|0:0,0:0:0:0:
255,187,213317,2,0,B|271:204|271:204|266:290,1,88.000002685547,2|8,3:2|0:0,0:0:0:0:
88,197,213712,2,0,P|98:164|67:207,1,176.000005371094,6|2,3:2|3:2,0:0:0:0:
69,21,214304,2,0,L|11:12,1,44.0000013427735,10|0,0:0|0:0,0:0:0:0:
136,73,214501,2,0,L|192:85,1,44.0000013427735,10|0,0:0|0:0,0:0:0:0:
112,192,214698,6,0,B|96:222|96:222|99:347,1,160,6|2,3:2|0:1,0:0:0:0:
26,243,215290,2,0,P|10:248|31:300,1,80,2|2,0:3|0:1,0:0:0:0:
277,253,215685,1,2,0:0:0:0:
238,371,215883,1,10,0:0:0:0:
230,167,216080,1,2,0:0:0:0:
230,167,216179,1,2,0:0:0:0:
230,167,216277,2,0,L|296:167,1,40,8|0,3:2|0:0,0:0:0:0:
410,206,216475,2,0,L|361:207,1,40,8|0,3:2|0:0,0:0:0:0:
406,362,217856,6,0,P|445:347|456:350,2,40,0|0|2,3:0|0:0|0:0,0:0:0:0:
323,330,218448,2,0,P|300:323|279:323,1,40,2|8,0:0|0:0,0:0:0:0:
392,264,218843,2,0,L|405:168,1,80,2|0,0:0|3:0,0:0:0:0:
505,166,219435,1,2,0:0:0:0:
7,135,220027,2,0,L|14:178,1,40,2|8,3:2|0:0,0:0:0:0:
505,166,220619,1,0,0:0:0:0:
74,296,221014,6,0,P|35:275|-8:282,1,80,0|2,3:0|0:0,0:0:0:0:
136,337,221606,2,0,P|155:318|168:312,1,40,2|8,0:0|0:0,0:0:0:0:
136,229,222001,2,0,L|129:142,1,80,2|0,0:0|3:0,0:0:0:0:
101,68,222593,2,0,B|85:52|85:52|152:59,1,80,2|2,0:0|0:0,0:0:0:0:
239,17,223185,1,2,3:2:0:0:
292,82,223383,2,0,L|291:112,1,20,8|0,0:0|0:0,0:0:0:0:
21,307,223777,2,0,L|21:335,1,20,0|0,3:0|0:0,0:0:0:0:
212,329,224172,6,0,P|224:322|216:298,2,40,2|0|2,3:2|0:0|0:0,0:0:0:0:
300,267,224764,2,0,L|335:295,1,40,2|8,0:0|0:0,0:0:0:0:
48,41,225356,2,0,L|89:78,1,40,0|2,0:0|3:2,0:0:0:0:
199,53,225751,2,0,B|178:71|178:71|179:128,1,80,0|0,0:0|0:0,0:0:0:0:
264,158,226343,1,0,3:0:0:0:
197,200,226540,1,8,0:0:0:0:
501,39,226935,2,0,L|499:86,1,40,0|0,0:0|0:0,0:0:0:0:
411,18,227330,6,0,B|425:34|425:34|422:95,1,80,2|0,3:2|0:0,0:0:0:0:
54,284,228119,1,8,0:0:0:0:
219,234,228317,2,0,B|234:220|234:220|211:222,1,40,8|0,0:3|0:0,0:0:0:0:
150,292,228712,2,0,B|158:331|158:331|235:377,1,120.000004577637,2|8,3:2|0:3,0:0:0:0:
306,343,229304,1,8,0:1:0:0:
10,126,229698,1,10,0:0:0:0:
87,142,229896,2,0,L|130:88,1,60.0000022888184,8|8,0:3|0:1,0:0:0:0:
262,93,230290,1,6,3:2:0:0:
256,192,230389,12,0,235225,0:0:0:0:
