osu file format v14

[General]
AudioFilename: audio.mp3
AudioLeadIn: 0
PreviewTime: 84877
Countdown: 0
SampleSet: Soft
StackLeniency: 0.7
Mode: 0
LetterboxInBreaks: 0
WidescreenStoryboard: 1

[Editor]
Bookmarks: 2699,16413,30127,43841,57556,71270,84984,98699,112413,115841,122699
DistanceSpacing: 0.3
BeatDivisor: 4
GridSize: 32
TimelineZoom: 1.499999

[Metadata]
Title:ChaserXX
TitleUnicode:ChaserXX
Artist:HuMeR
ArtistUnicode:HuΣeR
Creator:Realazy
Version:Hyper
Source:beatmania IIDX 25 CANNON BALLERS
Tags:Trynna KKipalt Regou 8284 HuSeR 濱田有共 Aritomo Hamada CYBERNETICS PIANO HOUSE konami bemani electronic instrumental
BeatmapID:2106719
BeatmapSetID:930846

[Difficulty]
HPDrainRate:5
CircleSize:4
OverallDifficulty:7
ApproachRate:8
SliderMultiplier:1.6
SliderTickRate:1

[Events]
//Background and Video events
0,0,"chaserxx.jpg",0,0
//Break Periods
//Storyboard Layer 0 (Background)
//Storyboard Layer 1 (Fail)
//Storyboard Layer 2 (Pass)
//Storyboard Layer 3 (Foreground)
//Storyboard Layer 4 (Overlay)
//Storyboard Sound Samples

[TimingPoints]
2699,428.571428571429,4,2,1,50,1,0
2699,-125,4,2,1,50,0,0
16413,-111.111111111111,4,2,1,65,0,0
23270,-111.111111111111,4,2,1,50,0,0
23806,-111.111111111111,4,2,1,55,0,0
24127,-111.111111111111,4,2,1,60,0,0
24770,-111.111111111111,4,2,1,65,0,0
25841,-111.111111111111,4,2,1,70,0,0
27556,-111.111111111111,4,2,1,80,0,0
27609,-111.111111111111,4,2,1,50,0,0
27984,-111.111111111111,4,2,1,80,0,0
28037,-111.111111111111,4,2,1,50,0,0
28413,-111.111111111111,4,2,1,80,0,0
29591,-111.111111111111,4,2,1,5,0,0
29699,-111.111111111111,4,2,1,70,0,0
29806,-111.111111111111,4,2,1,65,0,0
29913,-111.111111111111,4,2,1,60,0,0
30020,-111.111111111111,4,2,1,55,0,0
30127,-100,4,2,1,70,0,0
30556,-100,4,2,1,90,0,0
30877,-100,4,2,1,5,0,0
30984,-100,4,2,1,70,0,0
33127,-100,4,2,1,30,0,0
33556,-100,4,2,1,70,0,0
36288,-100,4,2,1,5,0,0
36341,-100,4,2,1,70,0,0
39984,-100,4,2,1,30,0,0
40413,-100,4,2,1,5,0,0
40627,-100,4,2,1,70,0,0
43091,-100,4,2,1,5,0,0
43199,-100,4,2,1,70,0,0
43306,-100,4,2,1,5,0,0
43413,-100,4,2,1,70,0,0
43841,-90.9090909090909,4,2,1,80,0,0
56806,-90.9090909090909,4,2,2,80,0,0
57127,-90.9090909090909,4,2,1,80,0,0
60288,-90.9090909090909,4,2,1,5,0,0
60341,-90.9090909090909,4,2,1,80,0,0
63556,-90.9090909090909,4,2,1,85,0,0
63984,-90.9090909090909,4,2,2,90,0,0
64413,-90.9090909090909,4,2,1,80,0,0
66288,-90.9090909090909,4,2,1,5,0,0
66341,-90.9090909090909,4,2,1,80,0,0
71270,-111.111111111111,4,2,1,70,0,0
75395,-111.111111111111,4,2,1,5,0,0
75663,-111.111111111111,4,2,1,60,0,0
78984,-111.111111111111,4,2,1,65,0,0
79841,-111.111111111111,4,2,1,70,0,0
80699,-111.111111111111,4,2,1,75,0,0
81556,-111.111111111111,4,2,1,80,0,0
82413,-111.111111111111,4,2,1,85,0,0
83270,-111.111111111111,4,2,1,90,0,0
84127,-111.111111111111,4,2,1,95,0,0
84984,-83.3333333333333,4,2,1,90,0,1
90127,-83.3333333333333,4,2,1,95,0,1
90663,-83.3333333333333,4,2,1,100,0,1
90984,-83.3333333333333,4,2,1,90,0,1
91413,-83.3333333333333,4,2,2,100,0,1
91627,-83.3333333333333,4,2,1,100,0,1
91841,-83.3333333333333,4,2,1,90,0,1
98270,-83.3333333333333,4,2,2,90,0,1
98377,-83.3333333333333,4,2,1,90,0,1
98699,-83.3333333333333,4,2,1,95,0,1
105127,-83.3333333333333,4,2,2,95,0,1
105556,-83.3333333333333,4,2,1,95,0,1
108556,-83.3333333333333,4,2,2,95,0,1
108984,-83.3333333333333,4,2,1,95,0,1
112413,-83.3333333333333,4,2,1,80,0,1
114127,-83.3333333333333,4,2,1,85,0,1
114984,-83.3333333333333,4,2,1,90,0,1
115413,-83.3333333333333,4,2,11,80,0,1
115734,-83.3333333333333,4,2,2,5,0,1
115841,-100,4,2,1,60,0,0
118413,-100,4,2,1,70,0,0
119270,-100,4,2,1,60,0,0
120127,-100,4,2,1,50,0,0
120984,-100,4,2,1,40,0,0
121841,-100,4,2,1,30,0,0

[Colours]
Combo1 : 184,235,190
Combo2 : 159,201,217
Combo3 : 250,163,165
Combo4 : 193,173,220

[HitObjects]
107,71,2699,5,6,0:0:0:0:
134,161,3020,1,2,0:0:0:0:
285,117,3556,5,2,0:0:0:0:
258,207,3877,1,2,0:0:0:0:
107,161,4413,5,2,0:0:0:0:
134,251,4734,1,2,0:0:0:0:
285,207,5270,5,2,0:0:0:0:
258,297,5591,1,2,0:0:0:0:
107,251,6127,5,2,0:0:0:0:
134,341,6448,1,2,0:0:0:0:
284,296,6984,6,0,P|328:280|375:287,2,96,2|2|2,0:0|0:0|0:0,0:0:0:0:
210,244,7841,1,0,0:0:0:0:
210,244,7949,1,2,0:0:0:0:
282,118,8270,2,0,P|350:201|457:193,1,224,2|2,0:0|0:0,0:0:0:0:
501,317,9341,5,0,0:0:0:0:
501,317,9556,2,0,L|494:349,3,32,2|2|0|0,1:2|0:0|0:0|0:0,0:0:0:0:
353,281,10413,2,0,L|346:312,3,32,2|2|0|0,0:0|0:0|0:0|0:0,0:0:0:0:
257,182,11270,6,0,L|262:213,3,32,2|2|0|0,0:0|0:0|0:0|0:0,0:0:0:0:
405,146,12127,2,0,L|410:177,3,32,2|2|0|0,0:0|0:0|0:0|0:0,0:0:0:0:
310,70,12770,2,0,L|313:49,2,21.3333333333333,0|0|0,1:0|1:0|0:0,0:0:0:0:
297,85,12984,6,0,L|266:78,3,32,2|2|0|0,0:0|0:0|0:0|0:0,0:0:0:0:
209,226,13841,2,0,L|178:232,3,32,2|2|0|0,0:0|0:0|0:0|0:0,0:0:0:0:
90,101,14699,2,0,L|59:94,3,32,0|2|0|0,1:2|0:0|0:0|0:0,0:0:0:0:
7,150,15127,1,2,0:0:0:0:
7,150,15234,1,2,0:0:0:0:
7,150,15341,1,2,0:0:0:0:
74,234,15556,5,6,1:2:0:0:
164,205,15877,1,2,0:0:0:0:
246,252,16199,1,2,0:0:0:0:
312,156,16413,6,0,P|307:121|312:85,1,71.9999978027344,6|0,1:2|0:0,0:0:0:0:
312,85,16734,1,2,0:0:0:0:
457,23,17270,2,0,L|492:28,4,35.9999989013672,0|0|0|0|0,1:0|0:0|0:0|0:0|0:0,0:0:0:0:
414,136,17913,5,2,0:0:0:0:
465,212,18127,2,0,P|469:247|464:283,1,71.9999978027344,2|0,1:2|0:0,0:0:0:0:
464,283,18449,1,2,0:0:0:0:
311,317,18984,2,0,L|275:312,3,35.9999989013672,0|0|0|0,1:0|0:0|0:0|0:0,0:0:0:0:
226,369,19413,1,0,0:0:0:0:
226,369,19520,1,2,0:0:0:0:
226,369,19627,1,2,0:0:0:0:
130,310,19841,6,0,P|96:302|60:304,1,71.9999978027344,2|0,1:2|0:0,0:0:0:0:
60,304,20163,1,2,0:0:0:0:
156,175,20699,2,0,L|152:139,3,35.9999989013672,0|0|0|0,1:0|0:0|0:0|0:0,0:0:0:0:
95,95,21127,1,2,0:0:0:0:
95,95,21234,1,2,0:0:0:0:
95,95,21341,1,2,0:0:0:0:
156,7,21556,6,0,L|227:18,1,71.9999978027344,2|0,1:2|0:0,0:0:0:0:
227,18,21877,1,2,0:0:0:0:
364,90,22413,6,0,L|435:78,1,71.9999978027344,2|0,1:2|0:0,0:0:0:0:
435,78,22734,1,2,0:0:0:0:
497,333,23270,5,0,1:0:0:0:
497,333,23377,2,0,L|492:369,2,35.9999989013672,0|0|2,1:0|1:0|0:0,0:0:0:0:
422,248,23806,2,0,L|417:212,1,35.9999989013672,2|2,1:2|1:2,0:0:0:0:
347,333,24127,6,0,L|340:368,1,35.9999989013672,2|2,1:2|1:2,0:0:0:0:
288,280,24341,2,0,L|281:244,2,35.9999989013672,0|2|2,1:0|1:2|1:2,0:0:0:0:
232,334,24663,2,0,L|225:369,2,35.9999989013672,0|2|2,0:0|1:2|1:2,0:0:0:0:
172,285,24984,1,0,1:0:0:0:
172,285,25091,2,0,L|166:249,1,35.9999989013672,2|2,1:2|1:2,0:0:0:0:
108,329,25306,1,0,1:0:0:0:
108,329,25413,2,0,L|102:364,1,35.9999989013672,2|2,1:2|1:2,0:0:0:0:
47,274,25627,5,0,1:0:0:0:
47,274,25734,1,2,1:2:0:0:
47,273,25841,2,0,P|69:225|69:171,1,107.999996704102,2|0,1:2|0:0,0:0:0:0:
37,100,26270,2,0,L|29:64,3,35.9999989013672,2|2|2|2,1:2|1:2|1:2|1:2,0:0:0:0:
109,84,26699,2,0,L|101:48,3,35.9999989013672,2|2|2|2,1:2|1:2|1:2|1:2,0:0:0:0:
150,161,27127,1,0,1:0:0:0:
150,161,27234,1,0,0:0:0:0:
150,161,27341,1,2,0:0:0:0:
264,121,27556,6,0,P|272:118|281:117,6,17.9999994506836,0|0|0|2|0|0|0,1:2|0:0|0:0|1:2|0:0|0:0|0:0,0:0:0:0:
317,136,27984,2,0,P|325:138|334:139,6,17.9999994506836,2|0|0|2|0|0|0,1:2|0:0|0:0|1:2|0:0|0:0|0:0,0:0:0:0:
361,128,28413,2,0,L|354:20,2,107.999996704102,2|2|2,1:2|1:2|1:2,0:0:0:0:
456,212,29270,1,6,1:2:0:0:
459,217,29699,6,0,L|464:252,1,35.9999989013672,2|2,0:0|0:0,0:0:0:0:
387,249,29913,2,0,L|379:285,1,35.9999989013672,2|2,0:0|0:0,0:0:0:0:
334,207,30127,6,0,P|299:187|259:181,1,80,2|0,1:2|0:0,0:0:0:0:
259,181,30449,1,0,0:0:0:0:
259,181,30556,2,0,L|246:101,1,80,2|0,1:0|0:0,0:0:0:0:
170,24,30984,6,0,P|149:57|145:97,1,80,0|2,1:0|0:0,0:0:0:0:
145,97,31306,1,2,0:0:0:0:
145,97,31413,2,0,L|106:85,1,40,0|2,1:0|0:0,0:0:0:0:
38,186,31841,6,0,B|29:224|29:224|44:261,1,80,0|2,1:0|0:0,0:0:0:0:
44,261,32163,1,2,0:0:0:0:
44,261,32270,2,0,L|37:301,1,40,0|2,1:0|0:0,0:0:0:0:
176,350,32699,6,0,L|255:338,1,80,0|2,1:0|0:0,0:0:0:0:
255,338,33020,1,2,0:0:0:0:
255,338,33127,2,0,P|303:305|315:248,1,120,2|0,0:0|0:0,0:0:0:0:
308,226,33556,5,0,0:0:0:0:
373,154,33770,1,2,0:0:0:0:
373,154,33877,1,2,0:0:0:0:
373,154,33984,2,0,L|421:160,1,40,0|2,1:0|0:0,0:0:0:0:
501,275,34413,6,0,P|466:255|426:254,1,80,0|2,1:0|0:0,0:0:0:0:
426,254,34734,1,2,0:0:0:0:
426,254,34841,2,0,L|429:293,1,40,0|2,1:0|0:0,0:0:0:0:
333,364,35270,6,0,L|254:350,1,80,0|2,1:0|0:0,0:0:0:0:
234,346,35591,1,2,0:0:0:0:
214,341,35699,2,0,L|206:301,1,40,0|2,1:0|0:0,0:0:0:0:
126,174,36127,6,0,L|86:168,1,40,0|0,1:0|0:0,0:0:0:0:
24,218,36341,2,0,L|25:257,1,40,2|0,0:0|0:0,0:0:0:0:
61,90,36556,1,4,1:2:0:0:
193,39,36770,2,0,L|218:47,2,26.6666666666667,0|0|0,0:0|0:0|0:0,0:0:0:0:
184,42,36984,6,0,L|196:131,1,80,6|2,1:2|0:0,0:0:0:0:
194,121,37306,1,2,0:0:0:0:
194,121,37413,2,0,L|201:176,1,40,0|2,1:0|0:0,0:0:0:0:
323,35,37841,6,0,P|359:49|399:45,1,80,0|2,1:0|0:0,0:0:0:0:
399,45,38163,1,2,0:0:0:0:
399,45,38270,2,0,P|410:62|416:81,1,40,0|2,1:0|0:0,0:0:0:0:
497,211,38699,6,0,L|444:200,2,53.3333333333333,0|0|0,1:0|0:0|0:0,0:0:0:0:
437,287,39127,2,0,L|384:276,2,53.3333333333333,0|0|0,1:0|0:0|0:0,0:0:0:0:
496,361,39556,1,0,1:0:0:0:
369,382,39770,1,2,0:0:0:0:
369,382,39877,1,2,0:0:0:0:
369,382,39984,2,0,P|321:341|223:352,1,160,0|0,0:0|1:0,0:0:0:0:
146,253,40627,2,0,P|128:261|109:264,2,40,2|2|0,0:0|0:0|1:0,0:0:0:0:
280,189,41056,5,0,0:0:0:0:
280,189,41163,1,0,0:0:0:0:
280,188,41270,2,0,P|319:183|357:193,2,80,2|2|2,1:2|0:0|1:2,0:0:0:0:
212,119,41913,2,0,P|191:125|172:127,1,40,2|0,0:0|0:0,0:0:0:0:
152,126,42127,1,0,1:0:0:0:
60,23,42341,5,2,0:0:0:0:
1,123,42556,1,2,0:0:0:0:
75,212,42770,2,0,L|100:205,3,26.6666666666667,0|0|0|4,0:0|0:0|0:0|1:0,0:0:0:0:
30,291,43199,5,2,0:0:0:0:
178,235,43413,1,2,0:0:0:0:
333,265,43627,1,2,0:0:0:0:
441,379,43841,6,0,P|448:318|509:304,1,132.00000402832,4|0,1:0|0:0,0:0:0:0:
509,304,44270,2,0,L|502:216,1,88.000002685547,10|0,1:2|0:0,0:0:0:0:
486,88,44699,1,0,1:0:0:0:
331,209,45020,5,2,0:0:0:0:
331,209,45127,2,0,P|308:206|288:199,3,44.0000013427735,10|2|2|2,0:2|0:0|0:0|0:0,0:0:0:0:
235,146,45556,2,0,P|201:173|158:177,1,88.000002685547,2|0,1:2|0:0,0:0:0:0:
176,192,45877,2,0,P|155:190|135:181,1,44.0000013427735,2|10,0:0|0:0,0:0:0:0:
82,50,46199,1,0,0:0:0:0:
82,50,46413,2,0,P|115:77|158:81,1,88.000002685547,2|0,1:2|0:0,0:0:0:0:
311,10,46841,5,10,1:2:0:0:
321,13,46948,1,2,0:0:0:0:
332,17,47055,1,2,0:0:0:0:
342,20,47162,1,2,0:0:0:0:
353,24,47270,2,0,L|364:111,1,88.000002685547,2|0,1:2|0:0,0:0:0:0:
372,94,47591,2,0,L|376:137,1,44.0000013427735,2|10,0:0|0:0,0:0:0:0:
467,60,47913,1,0,0:0:0:0:
467,60,48127,2,0,L|478:147,1,88.000002685547,2|0,1:2|0:0,0:0:0:0:
390,250,48556,5,10,0:2:0:0:
380,245,48663,1,2,0:0:0:0:
369,241,48770,1,2,0:0:0:0:
358,239,48877,1,2,0:0:0:0:
347,238,48984,2,0,P|324:275|323:319,1,88.000002685547,2|0,1:2|0:0,0:0:0:0:
313,309,49306,2,0,P|314:330|321:351,1,44.0000013427735,2|10,0:0|0:0,0:0:0:0:
244,245,49627,1,0,0:0:0:0:
244,245,49841,2,0,P|220:281|219:325,1,88.000002685547,2|0,1:2|0:0,0:0:0:0:
94,361,50270,6,0,L|50:354,1,44.0000013427735,4|2,1:2|0:0,0:0:0:0:
84,285,50484,2,0,L|40:278,1,44.0000013427735,2|2,1:2|0:0,0:0:0:0:
74,211,50699,2,0,P|114:194|141:160,1,88.000002685547,2|0,1:2|0:0,0:0:0:0:
141,160,51020,1,0,0:0:0:0:
141,160,51127,2,0,L|228:170,1,88.000002685547,8|0,0:0|0:0,0:0:0:0:
334,57,51556,6,0,P|372:77|416:78,1,88.000002685547,2|0,1:2|0:0,0:0:0:0:
416,78,51877,2,0,P|436:70|454:57,1,44.0000013427735,2|8,0:0|0:0,0:0:0:0:
505,150,52145,1,2,0:0:0:0:
512,127,52252,2,0,L|475:134,2,33.0000010070801,2|2|2,0:0|0:0|1:2,0:0:0:0:
401,214,52627,1,0,0:0:0:0:
498,307,52841,6,0,L|454:304,1,44.0000013427735,10|2,0:0|0:0,0:0:0:0:
448,326,53056,2,0,L|404:323,1,44.0000013427735,2|2,0:0|0:0,0:0:0:0:
397,338,53270,2,0,L|400:381,2,44.0000013427735,2|0|0,1:2|0:0|0:0,0:0:0:0:
312,266,53699,2,0,L|317:229,2,29.3333342285157,10|2|2,0:0|0:0|0:0,0:0:0:0:
292,258,53913,2,0,L|295:228,2,29.3333342285157,2|2|2,0:0|0:0|0:0,0:0:0:0:
270,253,54127,2,0,P|232:272|188:273,1,88.000002685547,0|0,1:0|0:0,0:0:0:0:
77,224,54556,5,8,0:0:0:0:
78,208,54663,1,0,0:0:0:0:
65,190,54770,1,0,0:0:0:0:
64,174,54877,1,0,0:0:0:0:
73,154,54984,2,0,L|160:139,1,88.000002685547,2|0,1:2|0:0,0:0:0:0:
149,126,55306,2,0,L|192:118,1,44.0000013427735,0|8,0:0|0:0,0:0:0:0:
279,227,55627,2,0,L|274:255,2,29.3333342285157,2|2|2,0:0|0:0|0:0,0:0:0:0:
281,209,55841,2,0,P|318:231|361:231,1,88.000002685547,2|0,1:2|0:0,0:0:0:0:
456,133,56270,5,8,0:0:0:0:
456,133,56377,1,0,1:0:0:0:
456,133,56484,1,0,0:0:0:0:
456,133,56591,1,0,0:0:0:0:
456,133,56699,2,0,L|498:121,2,44.0000013427735,4|0|2,1:0|1:0|0:0,0:0:0:0:
338,67,57127,2,0,P|317:65|296:57,1,44.0000013427735,10|0,0:0|0:0,0:0:0:0:
239,106,57341,2,0,P|218:98|196:95,1,44.0000013427735,2|0,0:0|0:0,0:0:0:0:
145,36,57556,6,0,B|111:64|111:64|23:56,1,132.00000402832,6|0,1:2|0:0,0:0:0:0:
23,56,57984,2,0,L|43:141,1,88.000002685547,10|0,0:0|0:0,0:0:0:0:
129,226,58413,1,0,1:0:0:0:
8,382,58734,1,2,0:0:0:0:
8,382,58841,2,0,L|50:369,3,44.0000013427735,10|2|2|2,0:0|0:0|0:0|0:0,0:0:0:0:
113,327,59270,2,0,L|155:339,3,44.0000013427735,2|0|2|2,1:2|0:0|0:0|0:0,0:0:0:0:
222,373,59699,5,10,0:0:0:0:
333,325,59913,1,0,0:0:0:0:
435,370,60127,2,0,P|437:348|443:326,1,44.0000013427735,2|0,1:0|0:0,0:0:0:0:
398,266,60341,2,0,P|410:248|426:232,1,44.0000013427735,0|0,0:0|0:0,0:0:0:0:
417,156,60556,1,10,0:0:0:0:
426,151,60663,1,2,0:0:0:0:
436,146,60770,1,2,0:0:0:0:
447,143,60877,1,2,0:0:0:0:
458,141,60984,6,0,L|475:100,4,44.0000013427735,2|0|2|2|10,1:2|0:0|0:0|0:0|0:0,0:0:0:0:
353,205,61627,1,0,0:0:0:0:
361,95,61841,2,0,L|395:14,1,88.000002685547,2|0,1:0|0:0,0:0:0:0:
213,5,62270,5,10,0:0:0:0:
204,9,62377,1,0,0:0:0:0:
193,13,62484,1,2,0:0:0:0:
182,15,62591,1,2,0:0:0:0:
170,16,62699,2,0,P|144:50|138:93,1,88.000002685547,2|2,1:2|0:0,0:0:0:0:
141,109,63020,1,2,0:0:0:0:
298,207,63234,1,0,0:0:0:0:
288,193,63341,1,0,1:0:0:0:
275,182,63448,1,0,0:0:0:0:
258,177,63556,2,0,L|246:264,1,88.000002685547,0|0,1:0|0:0,0:0:0:0:
144,376,63984,6,0,L|100:367,1,44.0000013427735,10|2,0:0|0:0,0:0:0:0:
44,300,64199,2,0,L|1:309,1,44.0000013427735,2|2,1:2|0:0,0:0:0:0:
157,243,64413,2,0,P|115:236|86:204,1,88.000002685547,2|0,1:2|0:0,0:0:0:0:
72,205,64734,1,0,0:0:0:0:
59,207,64841,1,8,0:0:0:0:
148,103,65056,1,0,0:0:0:0:
36,2,65270,6,0,L|50:88,1,88.000002685547,2|0,1:2|0:0,0:0:0:0:
59,77,65591,2,0,L|66:120,1,44.0000013427735,2|8,0:0|0:0,0:0:0:0:
152,107,65859,1,2,0:0:0:0:
156,130,65966,2,0,L|161:162,2,33.0000010070801,2|2|0,0:0|0:0|1:0,0:0:0:0:
234,33,66341,1,0,0:0:0:0:
350,100,66556,6,0,P|371:97|391:88,1,44.0000013427735,8|2,0:0|0:0,0:0:0:0:
404,103,66770,2,0,P|421:90|434:72,1,44.0000013427735,2|2,0:0|0:0,0:0:0:0:
452,78,66984,2,0,L|502:87,2,44.0000013427735,2|0|0,1:2|0:0|0:0,0:0:0:0:
433,198,67413,2,0,L|438:226,2,29.3333342285157,10|2|2,0:0|0:0|0:0,0:0:0:0:
415,203,67627,2,0,L|420:231,2,29.3333342285157,2|2|2,0:0|0:0|0:0,0:0:0:0:
396,208,67841,2,0,P|355:220|312:211,1,88.000002685547,2|0,1:2|0:0,0:0:0:0:
239,313,68270,2,0,P|260:304|281:301,2,44.0000013427735,8|0|0,0:0|0:0|0:0,0:0:0:0:
137,220,68699,6,0,B|159:184|159:184|152:138,1,88.000002685547,2|0,1:2|0:0,0:0:0:0:
163,149,69020,2,0,B|156:105,1,44.0000013427735,2|8,0:0|0:0,0:0:0:0:
28,20,69341,2,0,L|0:26,2,29.3333342285157,2|2|2,0:0|0:0|0:0,0:0:0:0:
45,27,69556,2,0,P|27:66|25:110,1,88.000002685547,2|0,1:2|0:0,0:0:0:0:
76,234,69984,1,8,0:0:0:0:
76,234,70091,1,0,0:0:0:0:
76,234,70199,1,0,0:0:0:0:
186,157,70413,6,0,P|201:133|205:104,2,58.6666684570313,8|4|4,1:3|0:3|0:3,0:0:0:0:
190,237,70841,2,0,P|218:230|241:213,2,58.6666684570313,8|4|4,0:3|0:3|0:3,0:0:0:0:
137,298,71270,6,0,P|106:282|71:275,1,71.9999978027344,6|0,1:2|0:0,0:0:0:0:
71,275,71591,1,2,0:0:0:0:
0,213,71806,1,2,0:3:0:0:
0,213,72020,1,2,0:3:0:0:
88,86,72341,2,0,P|91:51|86:15,2,71.9999978027344,0|2|0,0:0|0:0|0:0,0:0:0:0:
190,166,72984,6,0,B|244:160|244:160|250:155|250:155|295:150,2,107.999996704102,2|0|0,0:3|0:0|0:0,0:0:0:0:
216,266,73841,1,2,0:3:0:0:
216,266,73949,2,0,L|287:258,1,71.9999978027344,2|0,0:3|0:0,0:0:0:0:
308,270,74270,2,0,L|343:267,3,35.9999989013672,0|0|0|0,0:0|0:0|0:0|0:0,0:0:0:0:
370,288,74699,6,0,P|409:250|461:240,2,107.999996704102,2|2|2,0:3|0:3|0:3,0:0:0:0:
283,185,75663,2,0,L|247:189,2,35.9999989013672,2|2|0,0:3|0:3|0:0,0:0:0:0:
302,172,75984,2,0,L|310:100,1,71.9999978027344,2|2,0:3|0:3,0:0:0:0:
223,26,76520,6,0,P|190:37|154:40,1,71.9999978027344,2|0,0:3|0:0,0:0:0:0:
130,60,76841,2,0,L|124:95,1,35.9999989013672,2|2,0:3|0:3,0:0:0:0:
98,125,77056,2,0,L|103:160,1,35.9999989013672,2|0,0:3|0:0,0:0:0:0:
124,192,77270,1,4,1:0:0:0:
124,192,78127,6,0,B|140:264|140:264|119:291,1,107.999996704102,4|0,1:0|0:0,0:0:0:0:
112,299,78556,1,2,0:0:0:0:
31,360,78770,1,0,0:0:0:0:
139,382,78984,1,2,1:2:0:0:
139,382,79091,1,2,0:0:0:0:
139,382,79199,2,0,L|173:372,1,35.9999989013672,2|0,0:2|1:0,0:0:0:0:
200,356,79413,2,0,L|234:365,2,35.9999989013672,0|0|0,1:0|1:0|1:0,0:0:0:0:
220,243,79841,5,2,1:2:0:0:
220,243,79948,1,2,0:0:0:0:
220,243,80056,2,0,L|254:252,1,35.9999989013672,2|0,0:0|1:0,0:0:0:0:
281,269,80270,2,0,L|315:259,2,35.9999989013672,0|0|0,1:0|1:0|1:0,0:0:0:0:
336,368,80699,5,2,1:2:0:0:
336,368,80806,1,2,0:0:0:0:
336,368,80913,2,0,L|370:358,1,35.9999989013672,2|0,1:2|1:0,0:0:0:0:
397,342,81127,2,0,L|431:351,1,35.9999989013672,2|0,1:2|0:0,0:0:0:0:
453,369,81341,2,0,L|487:378,1,35.9999989013672,2|0,0:2|0:0,0:0:0:0:
506,342,81556,2,0,L|513:270,1,71.9999978027344,2|0,1:2|0:0,0:0:0:0:
405,142,81984,5,2,1:2:0:0:
405,142,82091,1,0,0:0:0:0:
405,142,82199,1,0,0:0:0:0:
307,211,82413,2,0,L|300:175,3,35.9999989013672,2|0|0|0,1:2|1:0|1:0|1:0,0:0:0:0:
278,152,82841,2,0,L|284:116,3,35.9999989013672,2|0|0|0,1:2|1:0|1:0|1:0,0:0:0:0:
275,91,83270,5,2,1:2:0:0:
140,31,83591,1,2,1:2:0:0:
5,91,83913,1,2,1:2:0:0:
93,103,84127,5,6,1:2:0:0:
93,103,84556,2,0,L|110:98,4,17.9999994506836,0|0|0|0|0,0:0|0:0|0:0|0:0|0:0,0:0:0:0:
22,236,84984,6,0,L|8:191,2,47.9999985351563,4|2|0,1:0|0:0|0:0,0:0:0:0:
139,339,85413,1,14,0:1:0:0:
157,324,85520,1,2,0:0:0:0:
179,314,85627,1,2,0:0:0:0:
203,311,85734,1,2,0:0:0:0:
227,315,85841,2,0,L|273:326,2,47.9999985351563,0|2|2,1:0|0:0|0:0,0:0:0:0:
149,222,86270,1,8,0:1:0:0:
149,222,86377,1,2,0:0:0:0:
149,222,86484,1,2,0:0:0:0:
250,133,86699,6,0,L|296:144,2,47.9999985351563,0|2|2,1:0|0:0|0:0,0:0:0:0:
172,40,87128,1,8,0:1:0:0:
172,40,87235,1,2,0:0:0:0:
172,40,87342,1,2,0:0:0:0:
301,4,87556,2,0,P|323:13|346:15,3,47.9999985351563,0|0|0|0,1:0|0:0|0:0|0:0,0:0:0:0:
372,41,87984,2,0,L|364:88,1,47.9999985351563,8|2,0:0|0:0,0:0:0:0:
385,117,88199,2,0,L|377:164,1,47.9999985351563,2|2,0:0|0:0,0:0:0:0:
400,195,88413,6,0,P|441:173|489:171,1,95.9999970703126,2|0,1:0|0:0,0:0:0:0:
442,295,88841,1,8,0:0:0:0:
427,293,88949,1,2,0:0:0:0:
412,291,89056,1,2,0:0:0:0:
280,342,89270,1,0,1:0:0:0:
272,329,89377,1,2,0:0:0:0:
264,316,89484,1,2,0:0:0:0:
266,301,89591,1,2,0:0:0:0:
268,286,89699,2,0,L|278:239,2,47.9999985351563,8|2|2,0:0|0:0|0:0,0:0:0:0:
163,361,90127,5,0,1:0:0:0:
163,361,90234,2,0,L|112:371,2,47.9999985351563,2|2|2,0:1|0:1|0:1,0:0:0:0:
77,349,90556,1,8,0:0:0:0:
77,349,90663,2,0,L|26:359,2,47.9999985351563,2|2|2,0:1|0:1|0:1,0:0:0:0:
1,334,90984,2,0,P|28:296|31:248,1,95.9999970703126,0|2,1:0|0:0,0:0:0:0:
111,154,91413,6,0,L|158:146,1,47.9999985351563,8|2,0:0|0:0,0:0:0:0:
180,72,91627,2,0,L|227:79,1,47.9999985351563,0|0,1:0|0:0,0:0:0:0:
278,141,91841,6,0,P|312:109|359:102,1,95.9999970703126,6|0,1:0|0:0,0:0:0:0:
496,41,92270,1,8,0:0:0:0:
494,26,92377,1,2,0:0:0:0:
492,11,92484,1,2,0:0:0:0:
447,133,92699,1,0,1:2:0:0:
450,146,92806,1,2,0:0:0:0:
447,159,92913,1,2,0:0:0:0:
444,172,93020,1,0,0:0:0:0:
447,185,93127,2,0,L|494:177,2,47.9999985351563,8|2|2,0:0|0:0|0:0,0:0:0:0:
366,260,93556,5,0,1:0:0:0:
256,192,93770,1,2,0:0:0:0:
129,250,93984,1,8,0:0:0:0:
129,250,94091,1,0,0:0:0:0:
128,250,94199,2,0,P|71:290|1:281,2,143.999995605469,2|2|8,0:0|0:0|0:0,0:0:0:0:
204,134,95056,1,2,0:0:0:0:
126,25,95270,6,0,B|80:26|80:26|73:30|73:30|31:33,1,95.9999970703126,2|0,1:0|0:0,0:0:0:0:
0,193,95699,1,8,0:0:0:0:
0,193,95806,1,2,0:0:0:0:
0,193,95913,1,2,0:0:0:0:
156,127,96127,2,0,L|204:134,3,47.9999985351563,0|2|2|2,1:0|0:0|0:0|0:0,0:0:0:0:
229,154,96556,2,0,L|276:147,2,47.9999985351563,8|2|2,0:0|0:0|0:0,0:0:0:0:
169,250,96984,6,0,P|146:248|122:242,2,47.9999985351563,6|2|2,1:2|0:0|0:0,0:0:0:0:
192,295,97306,2,0,P|215:293|239:287,2,47.9999985351563,2|2|2,1:2|0:0|0:0,0:0:0:0:
167,329,97627,2,0,P|143:327|119:321,1,47.9999985351563,2|0,1:2|0:0,0:0:0:0:
85,338,97841,1,2,1:3:0:0:
85,338,97949,1,2,1:3:0:0:
195,370,98163,1,2,1:3:0:0:
195,370,98270,2,0,P|218:368|242:362,2,47.9999985351563,8|2|2,0:0|1:3|1:3,0:0:0:0:
104,222,98699,6,0,L|97:174,1,47.9999985351563,6|0,1:0|0:0,0:0:0:0:
96,152,98913,2,0,L|89:104,1,47.9999985351563,0|0,0:0|0:0,0:0:0:0:
70,86,99127,2,0,L|22:79,2,47.9999985351563,10|2|2,0:0|0:0|0:0,0:0:0:0:
210,112,99556,1,0,1:0:0:0:
210,112,99663,1,2,0:0:0:0:
210,112,99770,1,2,0:0:0:0:
104,222,99984,6,0,L|56:215,2,47.9999985351563,8|2|2,0:0|0:0|0:0,0:0:0:0:
244,248,100413,1,2,1:2:0:0:
244,248,100520,1,2,0:0:0:0:
244,248,100627,1,2,0:0:0:0:
138,358,100841,6,0,L|90:351,2,47.9999985351563,8|2|2,0:0|0:0|0:0,0:0:0:0:
278,384,101270,1,2,1:2:0:0:
278,384,101377,1,2,0:0:0:0:
278,384,101484,1,2,0:0:0:0:
405,276,101699,5,10,0:0:0:0:
393,256,101806,1,2,0:0:0:0:
386,233,101913,1,2,0:0:0:0:
384,209,102020,1,2,0:0:0:0:
388,186,102127,6,0,P|412:145|414:97,1,95.9999970703126,2|0,1:0|0:0,0:0:0:0:
264,50,102556,6,0,L|258:2,2,47.9999985351563,8|2|2,0:0|0:0|0:0,0:0:0:0:
286,184,102984,1,0,0:0:0:0:
286,184,103091,1,0,0:0:0:0:
286,184,103199,1,2,0:0:0:0:
160,91,103413,6,0,L|154:43,2,47.9999985351563,8|2|2,0:0|0:0|0:0,0:0:0:0:
182,225,103841,1,2,1:2:0:0:
182,225,103948,1,2,0:0:0:0:
182,225,104056,1,2,0:0:0:0:
56,132,104270,6,0,L|46:36,2,95.9999970703126,10|2|2,0:0|0:0|1:2,0:0:0:0:
73,261,104913,1,0,0:0:0:0:
182,224,105127,2,0,P|204:217|228:215,1,47.9999985351563,10|2,0:0|0:0,0:0:0:0:
253,237,105341,2,0,P|276:241|297:252,1,47.9999985351563,2|2,1:2|0:0,0:0:0:0:
308,282,105556,2,0,P|339:317|351:363,1,95.9999970703126,2|0,1:0|0:0,0:0:0:0:
465,251,105984,6,0,P|487:258|511:260,2,47.9999985351563,10|2|2,0:0|0:0|0:0,0:0:0:0:
361,181,106413,1,2,1:2:0:0:
361,181,106520,1,2,0:0:0:0:
361,181,106627,1,2,0:0:0:0:
308,282,106841,6,0,P|323:299|343:312,2,47.9999985351563,8|2|2,0:0|0:0|0:0,0:0:0:0:
252,169,107270,1,2,1:2:0:0:
252,169,107377,1,2,0:0:0:0:
252,169,107484,1,2,0:0:0:0:
155,229,107699,6,0,P|159:251|170:273,2,47.9999985351563,8|0|2,0:0|0:0|0:0,0:0:0:0:
163,104,108128,1,2,1:2:0:0:
163,104,108235,1,2,0:0:0:0:
163,104,108342,1,2,0:0:0:0:
7,179,108556,6,0,P|30:176|54:176,1,47.9999985351563,10|2,0:2|0:0,0:0:0:0:
107,232,108770,2,0,P|131:232|155:229,1,47.9999985351563,2|2,0:0|0:0,0:0:0:0:
215,164,108984,6,0,B|196:252|196:252|201:278|201:278|184:351,1,191.999994140625,2|8,1:0|0:0,0:0:0:0:
320,384,109627,1,2,0:0:0:0:
320,384,109734,1,2,0:0:0:0:
320,384,109841,1,2,1:2:0:0:
402,297,110056,1,2,0:0:0:0:
402,297,110163,1,2,0:0:0:0:
402,296,110270,2,0,P|424:288|448:285,2,47.9999985351563,8|2|2,0:0|0:0|0:0,0:0:0:0:
343,242,110591,5,2,0:0:0:0:
343,242,110699,1,2,1:2:0:0:
454,131,111020,1,2,0:0:0:0:
454,131,111127,1,10,0:0:0:0:
318,45,111449,1,2,0:0:0:0:
318,45,111556,6,0,P|348:53|373:73,2,63.9999980468751,6|2|2,1:2|1:2|1:2,0:0:0:0:
314,125,111984,2,0,P|330:152|336:183,2,63.9999980468751,0|2|2,1:0|1:2|1:2,0:0:0:0:
254,172,112413,6,0,L|207:161,3,47.9999985351563,0|2|2|2,1:0|1:2|1:2|1:2,0:0:0:0:
172,141,112841,2,0,L|125:151,2,47.9999985351563,0|2|2,1:2|1:2|1:2,0:0:0:0:
232,263,113270,2,0,L|278:252,3,47.9999985351563,2|0|0|0,1:2|1:0|1:0|1:0,0:0:0:0:
314,232,113698,2,0,L|360:242,2,47.9999985351563,2|0|0,1:2|1:0|1:0,0:0:0:0:
256,352,114127,5,2,1:2:0:0:
233,354,114234,1,2,1:2:0:0:
209,351,114341,1,2,1:2:0:0:
187,342,114448,1,2,1:2:0:0:
168,327,114556,2,0,L|162:295,3,31.9999990234375,2|2|2|2,1:2|1:2|1:2|1:2,0:0:0:0:
58,187,114984,2,0,L|51:155,5,31.9999990234375,0|0|0|0|0|0,1:3|1:3|1:3|1:3|1:3|1:3,0:0:0:0:
65,200,115413,2,0,P|103:173|150:173,1,95.9999970703126,8|0,0:3|0:0,0:0:0:0:
274,110,115841,5,2,0:0:0:0:
241,230,116163,1,2,0:0:0:0:
223,216,116699,5,2,0:0:0:0:
284,324,117021,1,2,0:0:0:0:
261,327,117555,5,2,0:0:0:0:
381,360,117877,1,2,0:0:0:0:
367,378,118412,5,2,0:0:0:0:
510,305,118734,1,2,0:0:0:0:
436,116,119270,5,2,0:0:0:0:
313,82,119591,1,2,0:0:0:0:
415,137,120127,5,2,0:0:0:0:
322,111,120448,1,2,0:0:0:0:
399,152,120985,5,2,0:0:0:0:
329,133,121306,1,2,0:0:0:0:
352,208,121841,5,2,0:0:0:0:
352,208,122163,1,2,0:0:0:0:
