osu file format v14

[General]
AudioFilename: audio.mp3
AudioLeadIn: 0
PreviewTime: 84877
Countdown: 0
SampleSet: Soft
StackLeniency: 0.7
Mode: 0
LetterboxInBreaks: 0
WidescreenStoryboard: 1

[Editor]
Bookmarks: 2699,16413,30127,43841,57556,71270,84984,98699,112413,115841,122699
DistanceSpacing: 1
BeatDivisor: 4
GridSize: 32
TimelineZoom: 1.499999

[Metadata]
Title:ChaserXX
TitleUnicode:ChaserXX
Artist:HuMeR
ArtistUnicode:HuΣeR
Creator:Realazy
Version:Advanced
Source:beatmania IIDX 25 CANNON BALLERS
Tags:Trynna KKipalt Regou 8284 HuSeR 濱田有共 Aritomo Hamada CYBERNETICS PIANO HOUSE konami bemani electronic instrumental
BeatmapID:2206799
BeatmapSetID:930846

[Difficulty]
HPDrainRate:4
CircleSize:3.8
OverallDifficulty:5
ApproachRate:6.5
SliderMultiplier:1.45
SliderTickRate:1

[Events]
//Background and Video events
0,0,"chaserxx.jpg",0,0
//Break Periods
//Storyboard Layer 0 (Background)
//Storyboard Layer 1 (Fail)
//Storyboard Layer 2 (Pass)
//Storyboard Layer 3 (Foreground)
//Storyboard Layer 4 (Overlay)
//Storyboard Sound Samples

[TimingPoints]
2699,428.571428571429,4,2,1,50,1,0
2699,-125,4,2,1,50,0,0
16413,-111.111111111111,4,2,1,65,0,0
23270,-111.111111111111,4,2,1,50,0,0
23806,-111.111111111111,4,2,1,55,0,0
24127,-111.111111111111,4,2,1,60,0,0
24770,-111.111111111111,4,2,1,65,0,0
25841,-111.111111111111,4,2,1,70,0,0
27556,-111.111111111111,4,2,1,80,0,0
27609,-111.111111111111,4,2,1,50,0,0
27984,-111.111111111111,4,2,1,80,0,0
28037,-111.111111111111,4,2,1,50,0,0
28413,-111.111111111111,4,2,1,80,0,0
29591,-111.111111111111,4,2,1,5,0,0
29699,-111.111111111111,4,2,1,70,0,0
29806,-111.111111111111,4,2,1,65,0,0
29913,-111.111111111111,4,2,1,60,0,0
30020,-111.111111111111,4,2,1,55,0,0
30127,-100,4,2,1,70,0,0
30556,-100,4,2,1,90,0,0
30877,-100,4,2,1,5,0,0
30984,-100,4,2,1,70,0,0
33127,-100,4,2,1,30,0,0
33555,-100,4,2,1,70,0,0
33556,-100,4,2,1,70,0,0
36288,-100,4,2,1,5,0,0
36341,-100,4,2,1,70,0,0
39984,-100,4,2,1,30,0,0
40412,-100,4,2,1,5,0,0
40413,-100,4,2,1,5,0,0
40627,-100,4,2,1,70,0,0
43091,-100,4,2,1,5,0,0
43199,-100,4,2,1,70,0,0
43306,-100,4,2,1,5,0,0
43413,-100,4,2,1,70,0,0
43841,-90.9090909090909,4,2,1,80,0,0
56806,-90.9090909090909,4,2,2,80,0,0
57127,-90.9090909090909,4,2,1,80,0,0
60288,-90.9090909090909,4,2,1,5,0,0
60341,-90.9090909090909,4,2,1,80,0,0
63556,-90.9090909090909,4,2,1,85,0,0
63984,-90.9090909090909,4,2,2,90,0,0
64413,-90.9090909090909,4,2,1,80,0,0
66288,-90.9090909090909,4,2,1,5,0,0
66341,-90.9090909090909,4,2,1,80,0,0
71270,-111.111111111111,4,2,1,70,0,0
75395,-111.111111111111,4,2,1,5,0,0
75663,-111.111111111111,4,2,1,60,0,0
78984,-111.111111111111,4,2,1,65,0,0
79841,-111.111111111111,4,2,1,70,0,0
80699,-111.111111111111,4,2,1,75,0,0
81556,-111.111111111111,4,2,1,80,0,0
82413,-111.111111111111,4,2,1,85,0,0
83270,-111.111111111111,4,2,1,90,0,0
84127,-111.111111111111,4,2,1,95,0,0
84984,-83.3333333333333,4,2,1,90,0,1
90127,-83.3333333333333,4,2,1,95,0,1
90663,-83.3333333333333,4,2,1,100,0,1
90984,-83.3333333333333,4,2,1,90,0,1
91412,-83.3333333333333,4,2,2,100,0,1
91413,-83.3333333333333,4,2,2,100,0,1
91627,-83.3333333333333,4,2,1,100,0,1
91841,-83.3333333333333,4,2,1,90,0,1
98270,-83.3333333333333,4,2,2,90,0,1
98377,-83.3333333333333,4,2,1,90,0,1
98699,-83.3333333333333,4,2,1,95,0,1
105127,-83.3333333333333,4,2,2,95,0,1
105556,-83.3333333333333,4,2,1,95,0,1
108556,-83.3333333333333,4,2,2,95,0,1
108984,-83.3333333333333,4,2,1,95,0,1
112413,-83.3333333333333,4,2,1,80,0,1
114127,-83.3333333333333,4,2,1,85,0,1
114984,-83.3333333333333,4,2,1,90,0,1
115413,-83.3333333333333,4,2,11,80,0,1
115734,-83.3333333333333,4,2,2,5,0,1
115841,-100,4,2,1,60,0,0
118413,-100,4,2,1,70,0,0
119270,-100,4,2,1,60,0,0
120127,-100,4,2,1,50,0,0
120984,-100,4,2,1,40,0,0
121841,-100,4,2,1,30,0,0

[Colours]
Combo1 : 184,235,190
Combo2 : 159,201,217
Combo3 : 250,163,165
Combo4 : 193,173,220

[HitObjects]
43,79,2699,6,0,L|128:62,1,87,6|2,0:0|0:0,0:0:0:0:
29,169,3556,2,0,L|114:152,1,87,2|2,0:0|0:0,0:0:0:0:
210,211,4413,6,0,L|295:227,1,87,2|2,0:0|0:0,0:0:0:0:
196,121,5270,2,0,L|281:137,1,87,2|2,0:0|0:0,0:0:0:0:
414,79,6127,6,0,L|499:62,1,87,2|2,0:0|0:0,0:0:0:0:
400,169,6984,2,0,P|361:148|318:144,2,87,2|2|2,0:0|0:0|0:0,0:0:0:0:
434,223,7841,2,0,L|430:251,1,29,0|2,0:0|0:0,0:0:0:0:
369,326,8270,2,0,P|286:271|187:275,1,203,2|2,0:0|0:0,0:0:0:0:
101,316,9341,1,0,0:0:0:0:
101,316,9556,6,0,L|93:229,1,87,2|0,1:2|0:0,0:0:0:0:
196,108,10413,2,0,L|204:195,1,87,2|0,0:0|0:0,0:0:0:0:
284,258,11056,1,0,0:0:0:0:
283,258,11270,6,0,P|319:234|361:225,1,87,2|0,0:0|0:0,0:0:0:0:
464,101,12127,2,0,P|421:92|385:68,1,87,2|0,0:0|0:0,0:0:0:0:
302,22,12770,6,0,L|305:2,3,19.3333333333333,0|0|2|0,1:0|0:0|0:0|0:0,0:0:0:0:
282,116,13306,1,0,0:0:0:0:
154,21,13841,2,0,L|135:111,1,87,2|0,0:0|0:0,0:0:0:0:
36,232,14699,1,0,1:2:0:0:
36,232,15020,1,0,0:0:0:0:
255,315,15556,5,6,1:2:0:0:
255,315,16413,6,0,P|215:289|167:283,1,97.8749970130921,6|2,1:2|0:0,0:0:0:0:
134,300,16841,2,0,P|88:344|24:350,1,130.499996017456,0|0,0:0|1:0,0:0:0:0:
52,136,17913,1,2,0:0:0:0:
52,136,18127,1,2,1:2:0:0:
111,186,18341,2,0,L|143:180,1,32.624999004364,0|2,0:0|0:0,0:0:0:0:
270,53,18984,2,0,L|366:68,1,97.8749970130921,0|0,1:0|0:0,0:0:0:0:
424,159,19627,5,2,0:0:0:0:
423,158,19841,2,0,P|375:162|338:192,1,97.8749970130921,2|2,1:2|0:0,0:0:0:0:
284,363,20699,2,0,L|267:266,1,97.8749970130921,0|0,1:0|0:0,0:0:0:0:
263,247,21127,1,2,0:0:0:0:
201,196,21341,1,2,0:0:0:0:
130,243,21556,6,0,P|85:222|37:221,1,97.8749970130921,2|2,1:2|0:0,0:0:0:0:
0,46,22413,2,0,P|44:66|92:67,1,97.8749970130921,2|2,1:2|0:0,0:0:0:0:
288,80,23270,5,0,1:0:0:0:
357,39,23484,1,0,1:0:0:0:
369,47,23591,2,0,P|383:93|381:141,1,97.8749970130921,2|2,0:0|1:2,0:0:0:0:
406,216,24127,2,0,L|437:206,4,32.624999004364,2|2|0|2|2,1:2|1:2|1:0|1:2|1:2,0:0:0:0:
358,278,24770,1,2,1:2:0:0:
282,298,24984,2,0,L|266:341,4,32.624999004364,0|2|2|0|2,1:0|1:2|1:2|1:0|1:2,0:0:0:0:
234,235,25627,1,0,1:0:0:0:
169,279,25841,6,0,L|26:256,1,130.499996017456,2|2,1:2|1:2,0:0:0:0:
13,184,26484,1,2,1:2:0:0:
68,128,26699,2,0,P|116:170|180:174,1,130.499996017456,2|0,1:2|1:0,0:0:0:0:
252,144,27341,1,2,0:0:0:0:
299,81,27556,2,0,L|292:16,1,65.2499980087281,0|0,1:2|0:0,0:0:0:0:
370,7,27984,2,0,L|376:71,1,65.2499980087281,2|0,1:2|0:0,0:0:0:0:
436,123,28413,5,2,1:2:0:0:
495,223,28734,1,2,1:2:0:0:
424,316,29056,1,2,1:2:0:0:
424,316,29270,1,6,1:2:0:0:
428,320,30127,6,0,L|320:301,1,108.75,2|0,1:2|0:0,0:0:0:0:
320,301,30556,2,0,L|312:212,1,72.5,2|0,1:0|0:0,0:0:0:0:
360,164,30984,5,0,1:0:0:0:
305,105,31199,2,0,L|269:112,1,36.25,2|2,0:0|0:0,0:0:0:0:
234,131,31413,2,0,L|198:123,1,36.25,0|2,1:0|0:0,0:0:0:0:
93,71,31841,1,0,1:0:0:0:
39,130,32056,2,0,P|39:148|37:166,1,36.25,2|2,0:0|0:0,0:0:0:0:
60,202,32270,2,0,P|60:220|61:238,1,36.25,0|2,1:0|0:0,0:0:0:0:
5,344,32699,1,0,1:0:0:0:
73,383,32913,2,0,L|107:373,1,36.25,2|2,0:0|0:0,0:0:0:0:
146,361,33127,6,0,L|289:380,1,145,2|0,0:0|0:0,0:0:0:0:
345,322,33770,6,0,L|342:285,1,36.25,2|2,0:0|0:0,0:0:0:0:
358,249,33984,2,0,L|355:212,1,36.25,0|2,1:0|0:0,0:0:0:0:
479,264,34413,1,0,1:0:0:0:
446,191,34627,2,0,P|441:173|441:155,1,36.25,2|2,0:0|0:0,0:0:0:0:
444,115,34841,2,0,P|449:97|458:81,1,36.25,0|2,1:0|0:0,0:0:0:0:
360,13,35270,5,0,1:0:0:0:
299,64,35484,2,0,L|263:55,1,36.25,2|2,0:0|0:0,0:0:0:0:
224,47,35699,2,0,L|188:38,1,36.25,0|2,1:0|0:0,0:0:0:0:
91,107,36127,1,0,1:0:0:0:
19,71,36341,6,0,P|10:106|19:141,1,72.5,2|4,0:0|1:2,0:0:0:0:
85,185,36770,1,0,0:0:0:0:
158,153,36984,5,6,1:2:0:0:
219,204,37199,2,0,L|254:198,1,36.25,2|2,0:0|0:0,0:0:0:0:
293,189,37413,2,0,L|328:183,1,36.25,0|2,1:0|0:0,0:0:0:0:
415,265,37841,1,0,1:0:0:0:
357,320,38056,2,0,P|341:311|323:306,1,36.25,2|2,0:0|0:0,0:0:0:0:
284,299,38270,2,0,P|268:307|250:312,1,36.25,0|2,1:0|0:0,0:0:0:0:
146,371,38699,6,0,L|98:361,2,48.3333333333333,0|0|0,1:0|0:0|0:0,0:0:0:0:
121,323,39127,2,0,L|73:313,2,48.3333333333333,0|0|0,1:0|0:0|0:0,0:0:0:0:
105,271,39556,1,0,1:0:0:0:
155,209,39770,1,2,0:0:0:0:
155,208,39984,2,0,P|143:141|76:129,1,145,0|0,0:0|1:0,0:0:0:0:
15,81,40627,6,0,L|-20:90,2,36.25,2|2|0,0:0|0:0|1:0,0:0:0:0:
81,133,41056,1,0,0:0:0:0:
81,133,41270,2,0,L|152:119,2,72.5,2|2|2,1:2|0:0|1:2,0:0:0:0:
31,195,41913,2,0,P|16:240|18:266,1,72.5,2|0,0:0|1:0,0:0:0:0:
69,333,42341,5,2,0:0:0:0:
139,295,42556,2,0,P|174:290|209:301,1,72.5,2|0,0:0|0:0,0:0:0:0:
276,348,42984,1,4,1:0:0:0:
276,348,43199,1,2,0:0:0:0:
484,186,43841,6,0,P|425:181|386:137,1,119.625003650665,4|0,1:0|0:0,0:0:0:0:
386,137,44270,2,0,L|399:59,1,79.7500024337769,10|0,1:2|0:0,0:0:0:0:
342,3,44699,1,0,1:0:0:0:
246,74,45020,5,2,0:0:0:0:
246,74,45127,2,0,L|168:54,1,79.7500024337769,10|2,0:2|0:0,0:0:0:0:
107,107,45556,1,2,1:2:0:0:
150,173,45770,2,0,L|189:167,2,39.8750012168885,0|2|10,0:0|0:0|0:0,0:0:0:0:
89,224,46199,1,0,0:0:0:0:
44,290,46413,2,0,P|101:280|143:320,1,119.625003650665,2|0,1:2|0:0,0:0:0:0:
150,338,46841,6,0,L|227:321,1,79.7500024337769,10|2,1:2|0:0,0:0:0:0:
303,346,47270,1,2,1:2:0:0:
360,290,47484,2,0,L|398:300,2,39.8750012168885,0|2|10,0:0|0:0|0:0,0:0:0:0:
334,213,47913,1,0,0:0:0:0:
255,201,48127,2,0,L|137:219,1,119.625003650665,2|0,1:2|0:0,0:0:0:0:
116,220,48556,5,10,0:2:0:0:
75,151,48770,1,2,0:0:0:0:
117,83,48984,2,0,P|192:109|271:100,1,159.500004867554,2|10,1:2|0:0,0:0:0:0:
339,58,49627,1,0,0:0:0:0:
400,106,49841,2,0,P|424:161|421:220,1,119.625003650665,2|0,1:2|0:0,0:0:0:0:
414,239,50270,1,4,1:2:0:0:
381,311,50484,1,2,1:2:0:0:
344,381,50699,6,0,L|185:359,1,159.500004867554,2|8,1:2|0:0,0:0:0:0:
60,260,51556,2,0,P|22:215|29:157,2,119.625003650665,2|2|0,1:2|0:0|0:0,0:0:0:0:
103,192,52413,2,0,L|261:211,1,159.500004867554,2|10,1:2|0:0,0:0:0:0:
338,188,53056,1,2,0:0:0:0:
393,130,53270,2,0,L|389:91,2,39.8750012168885,2|0|0,1:2|0:0|0:0,0:0:0:0:
431,200,53699,2,0,P|444:216|452:234,1,39.8750012168885,10|0,0:0|0:0,0:0:0:0:
477,265,53913,2,0,P|475:284|467:303,1,39.8750012168885,2|0,0:0|0:0,0:0:0:0:
439,331,54127,6,0,P|370:291|292:295,1,159.500004867554,0|8,1:0|0:0,0:0:0:0:
252,225,54770,1,0,0:0:0:0:
185,268,54984,2,0,B|138:239|138:239|74:247,2,119.625003650665,2|0|2,1:2|0:0|0:0,0:0:0:0:
252,225,55841,2,0,L|236:66,1,159.500004867554,2|8,1:2|0:0,0:0:0:0:
173,16,56484,1,0,0:0:0:0:
117,73,56699,1,4,1:0:0:0:
117,73,56913,2,0,L|38:58,2,79.7500024337769,2|10|2,0:0|0:0|0:0,0:0:0:0:
166,135,57556,6,0,P|126:177|68:180,1,119.625003650665,6|0,1:2|0:0,0:0:0:0:
68,180,57984,2,0,L|78:259,1,79.7500024337769,10|0,0:0|0:0,0:0:0:0:
100,336,58413,1,0,1:0:0:0:
194,262,58734,1,2,0:0:0:0:
194,262,58841,2,0,P|233:268|262:295,1,79.7500024337769,10|2,0:0|0:0,0:0:0:0:
326,247,59270,2,0,L|417:259,2,79.7500024337769,2|2|10,1:2|0:0|0:0,0:0:0:0:
271,188,59913,1,0,0:0:0:0:
338,145,60127,6,0,B|373:120|373:120|366:43,1,119.625003650665,2|0,1:0|0:0,0:0:0:0:
366,43,60556,2,0,L|265:61,1,79.7500024337769,10|2,0:0|0:0,0:0:0:0:
235,118,60984,2,0,L|156:104,2,79.7500024337769,2|2|10,1:2|0:0|0:0,0:0:0:0:
271,188,61627,1,0,0:0:0:0:
212,242,61841,2,0,P|142:203|63:204,1,159.500004867554,2|10,1:0|0:0,0:0:0:0:
16,268,62484,5,2,0:0:0:0:
52,337,62699,2,0,P|108:320|167:329,1,119.625003650665,2|2,1:2|0:0,0:0:0:0:
168,330,63127,1,0,0:0:0:0:
236,373,63341,1,0,1:0:0:0:
296,321,63556,2,0,B|337:310|371:338|371:338|404:365|446:355,1,159.500004867554,0|10,1:0|0:0,0:0:0:0:
424,278,64199,1,2,1:2:0:0:
473,216,64413,6,0,P|504:166|486:111,1,119.625003650665,2|0,1:2|0:0,0:0:0:0:
472,96,64841,1,8,0:0:0:0:
323,37,65270,2,0,P|381:34|428:-1,2,119.625003650665,2|2|0,1:2|0:0|0:0,0:0:0:0:
249,5,66127,2,0,P|293:68|278:144,1,159.500004867554,0|8,1:0|0:0,0:0:0:0:
212,189,66770,1,2,0:0:0:0:
137,217,66984,2,0,L|59:197,1,79.7500024337769,2|0,1:2|0:0,0:0:0:0:
30,271,67413,2,0,L|68:280,1,39.8750012168885,10|0,0:0|0:0,0:0:0:0:
107,290,67627,2,0,L|145:299,1,39.8750012168885,2|0,0:0|0:0,0:0:0:0:
182,310,67841,6,0,P|247:265|325:272,1,159.500004867554,2|8,1:2|0:0,0:0:0:0:
463,351,68699,2,0,P|411:380|352:375,2,119.625003650665,2|2|2,1:2|0:0|0:0,0:0:0:0:
506,284,69556,2,0,L|489:121,1,159.500004867554,2|8,1:2|0:0,0:0:0:0:
450,55,70199,1,0,0:0:0:0:
384,101,70413,2,0,L|388:153,2,53.1666682891846,8|4|4,1:3|0:3|0:3,0:0:0:0:
358,54,70841,2,0,L|362:1,2,53.1666682891846,8|4|4,0:3|0:3|0:3,0:0:0:0:
320,77,71270,6,0,L|224:56,1,97.8749970130921,6|2,1:2|0:0,0:0:0:0:
162,93,71806,2,0,L|98:76,1,65.2499980087281,2|2,0:3|0:3,0:0:0:0:
42,167,72341,2,0,P|13:153|-18:150,2,65.2499980087281,0|2|0,0:0|0:0|0:0,0:0:0:0:
90,230,72984,6,0,L|69:325,1,97.8749970130921,2|0,0:3|0:0,0:0:0:0:
129,376,73520,1,0,0:0:0:0:
213,294,73841,2,0,L|219:262,1,32.624999004364,2|2,0:3|0:3,0:0:0:0:
305,342,74270,2,0,L|311:373,4,32.624999004364,0|0|0|0|2,0:0|0:0|0:0|0:0|0:3,0:0:0:0:
379,251,75020,1,2,0:3:0:0:
480,310,75341,1,2,0:3:0:0:
499,193,75663,2,0,L|493:147,3,32.624999004364,2|2|0|2,0:3|0:3|0:0|0:3,0:0:0:0:
450,95,76199,1,2,0:3:0:0:
344,147,76520,6,0,P|314:135|282:133,1,65.2499980087281,2|0,0:3|0:0,0:0:0:0:
244,144,76841,2,0,L|191:136,4,32.624999004364,2|2|2|0|4,0:3|0:3|0:3|0:0|1:0,0:0:0:0:
88,24,77806,5,0,0:0:0:0:
13,114,78127,6,0,L|21:211,1,97.8749970130921,4|0,1:0|0:0,0:0:0:0:
21,211,78556,2,0,L|84:197,1,65.2499980087281,2|0,0:0|0:0,0:0:0:0:
139,252,78984,2,0,L|130:283,2,32.624999004364,2|2|2,1:2|0:0|0:2,0:0:0:0:
196,198,79413,2,0,L|187:166,2,32.624999004364,0|0|0,1:0|1:0|1:0,0:0:0:0:
255,247,79841,6,0,P|293:219|341:212,1,97.8749970130921,2|0,1:2|1:0,0:0:0:0:
341,212,80270,2,0,P|336:244|339:277,1,65.2499980087281,0|0,1:0|1:0,0:0:0:0:
387,339,80699,2,0,L|376:369,2,32.624999004364,2|2|2,1:2|0:0|1:2,0:0:0:0:
449,292,81127,2,0,L|456:260,1,32.624999004364,2|0,1:2|0:0,0:0:0:0:
470,221,81341,2,0,L|462:189,1,32.624999004364,2|0,0:2|0:0,0:0:0:0:
451,152,81556,2,0,P|444:121|447:89,1,65.2499980087281,2|0,1:2|0:0,0:0:0:0:
385,41,81984,6,0,L|390:8,2,32.624999004364,2|0|0,1:2|0:0|0:0,0:0:0:0:
306,40,82413,2,0,L|311:7,2,32.624999004364,2|0|0,1:2|1:0|1:0,0:0:0:0:
227,39,82841,2,0,L|232:6,2,32.624999004364,2|0|0,1:2|1:0|1:0,0:0:0:0:
158,78,83270,2,0,P|116:55|68:55,2,97.8749970130921,2|2|2,1:2|1:2|1:2,0:0:0:0:
212,136,84127,1,6,1:2:0:0:
73,353,84984,6,0,L|4:361,2,43.4999986724854,4|2|0,1:0|0:0|0:0,0:0:0:0:
141,299,85413,2,0,P|127:257|130:214,1,86.9999973449708,14|2,0:1|0:0,0:0:0:0:
168,136,85841,1,0,1:0:0:0:
168,136,85949,1,2,0:0:0:0:
168,136,86056,1,2,0:0:0:0:
112,69,86270,2,0,L|57:78,2,43.4999986724854,8|2|2,0:1|0:0|0:0,0:0:0:0:
180,14,86699,6,0,L|222:23,1,43.4999986724854,0|2,1:0|0:0,0:0:0:0:
264,32,86913,1,2,0:0:0:0:
308,106,87127,2,0,L|350:96,1,43.4999986724854,8|2,0:1|0:0,0:0:0:0:
392,88,87341,1,2,0:0:0:0:
467,129,87556,2,0,P|480:170|469:212,1,86.9999973449708,0|0,1:0|0:0,0:0:0:0:
426,287,87984,1,8,0:0:0:0:
426,287,88091,1,2,0:0:0:0:
426,287,88199,2,0,L|432:330,2,43.4999986724854,2|2|2,0:0|0:0|1:0,0:0:0:0:
360,228,88627,5,0,0:0:0:0:
294,285,88841,2,0,L|299:328,2,43.4999986724854,8|2|2,0:0|0:0|0:0,0:0:0:0:
241,215,89270,2,0,L|246:171,2,43.4999986724854,0|2|2,1:0|0:0|0:0,0:0:0:0:
184,281,89699,2,0,L|189:324,2,43.4999986724854,8|2|2,0:0|0:0|0:0,0:0:0:0:
101,252,90127,5,0,1:0:0:0:
101,252,90234,2,0,L|86:292,2,43.4999986724854,2|2|2,0:1|0:1|0:1,0:0:0:0:
57,176,90663,2,0,L|13:181,2,43.4999986724854,2|2|2,0:1|0:1|0:1,0:0:0:0:
78,138,90984,2,0,P|155:112|159:31,1,173.999994689942,0|8,1:0|0:0,0:0:0:0:
241,2,91627,1,0,1:0:0:0:
286,75,91841,6,0,P|324:55|367:53,1,86.9999973449708,6|0,1:0|0:0,0:0:0:0:
436,108,92270,2,0,L|478:100,2,43.4999986724854,8|2|2,0:0|0:0|0:0,0:0:0:0:
382,176,92699,2,0,P|375:196|374:218,1,43.4999986724854,0|2,1:2|0:0,0:0:0:0:
361,259,92913,2,0,P|366:280|376:299,1,43.4999986724854,2|0,0:0|0:0,0:0:0:0:
384,342,93127,2,0,P|398:357|417:369,2,43.4999986724854,8|2|2,0:0|0:0|0:0,0:0:0:0:
306,381,93556,6,0,L|219:370,1,86.9999973449708,0|2,1:0|0:0,0:0:0:0:
162,305,93984,1,8,0:0:0:0:
162,305,94091,1,0,0:0:0:0:
162,304,94199,2,0,P|105:336|41:337,2,130.499996017456,2|2|8,0:0|0:0|0:0,0:0:0:0:
225,244,95056,1,2,0:0:0:0:
171,175,95270,6,0,L|0:221,1,173.999994689942,2|8,1:0|0:0,0:0:0:0:
73,168,95913,1,2,0:0:0:0:
15,102,96127,1,0,1:0:0:0:
15,102,96234,1,2,0:0:0:0:
15,102,96341,1,2,0:0:0:0:
69,33,96556,2,0,L|64:-10,2,43.4999986724854,8|2|2,0:0|0:0|0:0,0:0:0:0:
132,92,96984,5,6,1:2:0:0:
247,29,97306,1,2,1:2:0:0:
363,86,97627,1,2,1:2:0:0:
299,145,97841,1,2,1:3:0:0:
299,145,97949,1,2,1:3:0:0:
361,204,98163,1,2,1:3:0:0:
361,204,98270,2,0,L|403:194,2,43.4999986724854,8|2|2,0:0|1:3|1:3,0:0:0:0:
307,272,98699,6,0,P|266:255|223:254,1,86.9999973449708,6|0,1:0|0:0,0:0:0:0:
147,295,99127,2,0,L|150:338,2,43.4999986724854,10|2|2,0:0|0:0|0:0,0:0:0:0:
110,270,99449,2,0,L|67:279,1,43.4999986724854,0|0,0:0|1:0,0:0:0:0:
14,210,99770,1,2,0:0:0:0:
60,136,99984,2,0,L|54:92,2,43.4999986724854,8|2|2,0:0|0:0|0:0,0:0:0:0:
96,160,100306,1,0,0:0:0:0:
96,160,100413,1,2,1:2:0:0:
161,102,100627,5,2,0:0:0:0:
219,165,100841,2,0,P|277:139|342:142,1,130.499996017456,8|0,0:0|0:0,0:0:0:0:
363,148,101270,1,2,1:2:0:0:
439,189,101484,1,2,0:0:0:0:
496,123,101699,2,0,L|505:80,3,43.4999986724854,10|2|2|2,0:0|0:0|0:0|0:0,0:0:0:0:
511,59,102127,6,0,L|425:77,1,86.9999973449708,2|0,1:0|0:0,0:0:0:0:
369,10,102556,2,0,L|410:-1,2,43.4999986724854,8|2|2,0:0|0:0|0:0,0:0:0:0:
339,41,102877,1,0,0:0:0:0:
339,41,102984,2,0,P|298:24|255:23,1,86.9999973449708,0|2,0:0|0:0,0:0:0:0:
180,68,103413,2,0,L|137:60,2,43.4999986724854,8|2|2,0:0|0:0|0:0,0:0:0:0:
208,101,103734,1,0,0:0:0:0:
208,101,103841,2,0,P|222:142|215:185,1,86.9999973449708,2|2,1:2|0:0,0:0:0:0:
163,255,104270,5,10,0:0:0:0:
91,204,104484,1,2,0:0:0:0:
34,269,104699,2,0,P|29:312|45:352,1,86.9999973449708,2|0,1:2|0:0,0:0:0:0:
127,381,105127,2,0,L|169:371,1,43.4999986724854,10|2,0:0|0:0,0:0:0:0:
198,339,105341,2,0,L|240:348,1,43.4999986724854,2|2,1:2|0:0,0:0:0:0:
275,374,105556,6,0,L|360:355,1,86.9999973449708,2|0,1:0|0:0,0:0:0:0:
445,341,105984,2,0,L|453:383,2,43.4999986724854,10|2|2,0:0|0:0|0:0,0:0:0:0:
464,301,106306,2,0,L|453:242,1,43.4999986724854,0|2,0:0|1:2,0:0:0:0:
407,186,106627,1,2,0:0:0:0:
459,116,106841,2,0,L|501:122,2,43.4999986724854,8|2|2,0:0|0:0|0:0,0:0:0:0:
428,84,107163,1,0,0:0:0:0:
428,84,107270,1,2,1:2:0:0:
350,123,107484,5,2,0:0:0:0:
294,55,107699,2,0,L|304:12,2,43.4999986724854,8|0|2,0:0|0:0|0:0,0:0:0:0:
259,81,108020,1,0,0:0:0:0:
259,81,108127,2,0,P|219:62|176:58,1,86.9999973449708,2|2,1:2|0:0,0:0:0:0:
94,87,108556,2,0,L|88:130,1,43.4999986724854,10|2,0:2|0:0,0:0:0:0:
59,162,108770,2,0,L|53:205,1,43.4999986724854,2|2,0:0|0:0,0:0:0:0:
21,234,108984,6,0,P|102:242|119:321,1,173.999994689942,2|8,1:0|0:0,0:0:0:0:
186,377,109627,1,2,0:0:0:0:
186,377,109734,1,2,0:0:0:0:
185,377,109841,2,0,P|226:362|270:359,1,86.9999973449708,2|2,1:2|0:0,0:0:0:0:
337,304,110270,1,8,0:0:0:0:
455,358,110591,5,2,0:0:0:0:
455,358,110699,1,2,1:2:0:0:
504,237,111020,1,2,0:0:0:0:
504,237,111127,1,10,0:0:0:0:
421,135,111449,1,2,0:0:0:0:
421,135,111556,2,0,L|477:122,2,57.9999982299805,6|2|2,1:2|1:2|1:2,0:0:0:0:
378,95,111984,2,0,L|339:52,2,57.9999982299805,0|2|2,1:0|1:2|1:2,0:0:0:0:
365,152,112413,6,0,P|360:233|437:257,1,173.999994689942,0|0,1:0|1:2,0:0:0:0:
492,325,113056,1,2,1:2:0:0:
416,368,113270,2,0,P|341:338|235:338,1,173.999994689942,2|2,1:2|1:2,0:0:0:0:
187,273,113913,1,0,1:0:0:0:
125,333,114127,5,2,1:2:0:0:
125,333,114341,1,2,1:2:0:0:
65,266,114556,1,2,1:2:0:0:
65,266,114770,1,2,1:2:0:0:
98,193,114984,2,0,P|99:171|95:149,3,43.4999986724854,0|0|0|0,1:3|0:0|1:3|0:0,0:0:0:0:
89,124,115413,6,0,L|261:149,1,173.999994689942,8|2,0:3|0:0,0:0:0:0:
349,86,116163,1,2,0:0:0:0:
252,239,116699,1,2,0:0:0:0:
340,176,117020,1,2,0:0:0:0:
243,329,117556,1,2,0:0:0:0:
331,266,117877,1,2,0:0:0:0:
173,140,118413,6,0,P|125:164|72:162,2,108.75,2|2|0,0:0|0:0|0:0,0:0:0:0:
211,77,119270,5,2,0:0:0:0:
318,59,119591,1,2,0:0:0:0:
214,207,120127,1,2,0:0:0:0:
321,189,120448,1,2,0:0:0:0:
355,365,120984,6,0,P|384:319|386:266,1,108.75,2|2,0:0|0:0,0:0:0:0:
214,207,121841,2,0,P|184:252|182:305,1,108.75,2|2,0:0|0:0,0:0:0:0:
