osu file format v14

[General]
AudioFilename: audio.mp3
AudioLeadIn: 0
PreviewTime: 84877
Countdown: 0
SampleSet: Soft
StackLeniency: 0.7
Mode: 0
LetterboxInBreaks: 0
WidescreenStoryboard: 1

[Editor]
Bookmarks: 2699,16413,30127,43841,57556,71270,84984,88413,91841,95270,98699,102127,105556,108984,112413,115841
DistanceSpacing: 0.9
BeatDivisor: 4
GridSize: 32
TimelineZoom: 3.4

[Metadata]
Title:ChaserXX
TitleUnicode:ChaserXX
Artist:HuMeR
ArtistUnicode:HuΣeR
Creator:Hishiro Chizuru
Version:Xenon's Insane
Source:beatmania IIDX 25 CANNON BALLERS
Tags:amb1d3x HuSeR 濱田有共 Aritomo Hamada CYBERNETICS PIANO HOUSE konami bemani electronic instrumental Realazy lcfc LowComboFC xenon- xehn xen Otosaka-Yu Suzuki_1112 1112deng icekalt deep fried ice ULTIMATE MOBILE video game
BeatmapID:2971716
BeatmapSetID:1293408

[Difficulty]
HPDrainRate:5
CircleSize:3.8
OverallDifficulty:7.5
ApproachRate:9
SliderMultiplier:2
SliderTickRate:1

[Events]
//Background and Video events
0,0,"amogus.jpg",0,0
//Break Periods
2,71475,76675
//Storyboard Layer 0 (Background)
//Storyboard Layer 1 (Fail)
//Storyboard Layer 2 (Pass)
//Storyboard Layer 3 (Foreground)
//Storyboard Layer 4 (Overlay)
//Storyboard Sound Samples

[TimingPoints]
2704,428.571428571429,4,2,1,50,1,0
2704,-100,4,2,1,50,0,0
8704,-133.333333333333,4,2,1,50,0,0
9561,-100,4,2,1,50,0,0
12775,-133.333333333333,4,2,1,50,0,0
12989,-100,4,2,1,50,0,0
16418,-100,4,2,1,65,0,0
16846,-74.0740740740741,4,2,1,65,0,0
17275,-100,4,2,1,65,0,0
23275,-100,4,2,1,50,0,0
23811,-100,4,2,1,55,0,0
24132,-100,4,2,1,60,0,0
24775,-100,4,2,1,65,0,0
25846,-100,4,2,1,70,0,0
27561,-100,4,2,1,80,0,0
27614,-100,4,2,1,50,0,0
27989,-100,4,2,1,80,0,0
28042,-100,4,2,1,50,0,0
28418,-100,4,2,1,80,0,0
29275,-68.9655172413793,4,2,1,80,0,0
29596,-68.9655172413793,4,2,1,5,0,0
29704,-68.9655172413793,4,2,1,70,0,0
29811,-68.9655172413793,4,2,1,65,0,0
29918,-68.9655172413793,4,2,1,60,0,0
30025,-68.9655172413793,4,2,1,55,0,0
30132,-100,4,2,1,70,0,0
30561,-66.6666666666667,4,2,1,90,0,0
30882,-66.6666666666667,4,2,1,5,0,0
30989,-66.6666666666667,4,2,1,70,0,0
31204,-100,4,2,1,70,0,0
33132,-100,4,2,1,30,0,0
33561,-100,4,2,1,70,0,0
36293,-100,4,2,1,5,0,0
36346,-100,4,2,1,70,0,0
39989,-100,4,2,1,30,0,0
40418,-100,4,2,1,60,0,0
40632,-100,4,2,1,70,0,0
43096,-100,4,2,1,5,0,0
43204,-71.4285714285714,4,2,1,70,0,0
43311,-71.4285714285714,4,2,1,5,0,0
43418,-71.4285714285714,4,2,1,70,0,0
43846,-153.846153846154,4,2,1,80,0,0
44275,-66.6666666666667,4,2,1,80,0,0
44704,-100,4,2,1,80,0,0
56811,-100,4,2,2,80,0,0
56918,-66.6666666666667,4,2,2,80,0,0
57132,-55.5555555555556,4,2,1,80,0,0
57561,-133.333333333333,4,2,1,80,0,0
57989,-66.6666666666667,4,2,1,80,0,0
58418,-100,4,2,1,80,0,0
60293,-100,4,2,1,5,0,0
60346,-100,4,2,1,80,0,0
63561,-100,4,2,1,85,0,0
63989,-100,4,2,2,90,0,0
64418,-100,4,2,1,80,0,0
66293,-100,4,2,1,5,0,0
66346,-100,4,2,1,80,0,0
71275,-100,4,2,1,70,0,0
75400,-100,4,2,1,5,0,0
75668,-80,4,2,1,60,0,0
77811,-51.2820512820513,4,2,11,80,0,0
78132,-100,4,2,1,60,0,0
78989,-100,4,2,1,65,0,0
79846,-100,4,2,1,70,0,0
80704,-100,4,2,1,75,0,0
81561,-100,4,2,1,80,0,0
82418,-100,4,2,1,85,0,0
83275,-100,4,2,1,90,0,0
84132,-60.6060606060606,4,2,1,95,0,0
84561,-125,4,2,1,95,0,0
84989,-74.0740740740741,4,2,1,90,0,1
85525,-68.9655172413793,4,2,1,90,0,1
87775,-83.3333333333333,4,2,1,90,0,1
88418,-74.0740740740741,4,2,1,90,0,1
88846,-68.9655172413793,4,2,1,90,0,1
90132,-68.9655172413793,4,2,1,95,0,1
90668,-68.9655172413793,4,2,1,100,0,1
90989,-125,4,2,1,90,0,1
91418,-125,4,2,2,100,0,1
91632,-125,4,2,1,100,0,1
91846,-74.0740740740741,4,2,1,90,0,1
92274,-68.9655172413793,4,2,1,90,0,1
92918,-105.263157894737,4,2,1,90,0,1
93132,-74.0740740740741,4,2,1,90,0,1
93989,-125,4,2,1,90,0,1
94418,-68.9655172413793,4,2,1,90,0,1
95275,-74.0740740740741,4,2,1,90,0,1
95703,-68.9655172413793,4,2,1,90,0,1
96132,-111.111111111111,4,2,1,90,0,1
96989,-68.9655172413793,4,2,1,90,0,1
98275,-68.9655172413793,4,2,2,90,0,1
98382,-68.9655172413793,4,2,1,90,0,1
98704,-74.0740740740741,4,2,1,95,0,1
99239,-80,4,2,1,95,0,1
101275,-68.9655172413793,4,2,1,95,0,1
101489,-83.3333333333333,4,2,1,95,0,1
102132,-74.0740740740741,4,2,1,95,0,1
102561,-80,4,2,1,95,0,1
104703,-153.846153846154,4,2,1,95,0,1
105132,-153.846153846154,4,2,2,95,0,1
105560,-74.0740740740741,4,2,1,95,0,1
105989,-80,4,2,1,95,0,1
107275,-74.0740740740741,4,2,1,95,0,1
107704,-80,4,2,1,95,0,1
108561,-80,4,2,2,95,0,1
108989,-62.5,4,2,1,95,0,1
109418,-80,4,2,1,95,0,1
111561,-100,4,2,1,95,0,1
112418,-125,4,2,1,80,0,1
114132,-125,4,2,1,85,0,1
114989,-153.846153846154,4,2,1,90,0,1
115418,-71.4285714285714,4,2,11,80,0,1
115739,-71.4285714285714,4,2,2,5,0,1
115846,-100,4,2,1,60,0,0
118418,-100,4,2,1,70,0,0
119275,-100,4,2,1,60,0,0
120132,-100,4,2,1,50,0,0
120989,-100,4,2,1,40,0,0
121846,-100,4,2,1,30,0,0

[Colours]
Combo1 : 154,237,241
Combo2 : 159,201,217
Combo3 : 250,163,165
Combo4 : 142,142,253

[HitObjects]
221,283,2704,6,0,P|155:250|82:265,2,150,6|2|0,0:0|0:0|0:0,0:0:0:0:
208,362,3561,2,0,P|248:300|318:277,2,150,2|2|0,0:0|0:0|0:0,0:0:0:0:
257,206,4418,6,0,L|233:16,2,150,2|2|0,0:0|0:0|0:0,0:0:0:0:
198,261,5275,2,0,L|7:237,2,150,2|2|0,0:0|0:0|0:0,0:0:0:0:
293,162,6132,6,0,B|229:122|229:122|176:176,2,150,2|2|0,0:0|0:0|0:0,0:0:0:0:
406,191,6989,2,0,P|360:209|333:251,1,100,2|0,0:0|0:0,0:0:0:0:
328,265,7311,2,0,L|343:392,1,100,2|0,0:0|0:0,0:0:0:0:
342,379,7632,1,2,0:0:0:0:
256,325,7846,5,0,0:0:0:0:
252,341,7954,1,2,0:0:0:0:
398,223,8275,6,0,L|401:254,1,25,2|0,0:0|0:0,0:0:0:0:
339,85,8704,6,0,L|330:160,1,75.0000028610231
329,175,9025,1,2,0:0:0:0:
328,189,9132,1,2,0:0:0:0:
472,133,9346,1,0,1:0:0:0:
410,185,9561,5,2,1:2:0:0:
412,204,9668,1,2,0:0:0:0:
414,224,9775,1,0,0:0:0:0:
417,244,9882,2,0,P|347:267|307:329,1,150,2|0,0:0|0:0,0:0:0:0:
188,252,10418,5,2,0:0:0:0:
208,237,10525,1,2,0:0:0:0:
232,231,10632,1,0,0:0:0:0:
257,236,10739,2,0,L|237:77,1,150,2|0,0:0|0:0,0:0:0:0:
401,186,11275,5,2,0:0:0:0:
381,171,11382,1,2,0:0:0:0:
357,165,11489,1,0,0:0:0:0:
333,170,11596,2,0,L|352:12,1,150,2|0,0:0|0:0,0:0:0:0:
250,62,12132,5,2,0:0:0:0:
252,81,12239,1,2,0:0:0:0:
254,101,12346,1,0,0:0:0:0:
257,121,12454,1,2,0:0:0:0:
64,117,12775,6,0,L|67:92,2,25,0|0|0,1:0|1:0|1:0,0:0:0:0:
93,197,12989,5,2,1:2:0:0:
113,182,13096,1,2,0:0:0:0:
137,176,13203,1,0,0:0:0:0:
161,181,13311,2,0,L|142:23,1,150,2|0,1:2|0:0,0:0:0:0:
248,71,13846,5,2,0:0:0:0:
246,90,13953,1,2,0:0:0:0:
244,110,14060,1,0,0:0:0:0:
241,130,14167,2,0,P|311:153|351:215,1,150,2|2,0:0|0:0,0:0:0:0:
493,261,14704,5,0,1:2:0:0:
469,256,14811,1,0,0:0:0:0:
445,262,14918,1,2,0:0:0:0:
425,277,15025,5,0,1:0:0:0:
414,247,15132,1,0,0:0:0:0:
426,216,15239,1,2,0:0:0:0:
415,186,15346,1,2,0:0:0:0:
333,122,15561,6,0,B|406:133|394:63|467:75,2,150,6|2|2,1:2|0:0|0:0,0:0:0:0:
322,229,16418,6,0,P|288:193|240:183,1,100,6|0,1:2|0:0,0:0:0:0:
188,103,16739,1,2,0:0:0:0:
194,118,16846,2,2,P|127:116|74:156,1,135.000000514984,2|0,0:0|0:0,0:1:0:0:
191,249,17275,6,0,L|198:312,3,50,0|0|0|0,1:0|0:0|0:0|0:0,0:0:0:0:
263,345,17704,2,0,P|218:322|170:329,1,100,0|2,0:0|0:0,0:0:0:0:
32,314,18132,6,0,P|81:302|113:266,1,100,2|0,1:2|0:0,0:0:0:0:
189,242,18454,2,0,L|169:83,1,150,2|0,0:0|0:0,0:0:0:0:
2,101,18989,5,0,1:0:0:0:
26,94,19096,1,0,0:0:0:0:
51,95,19203,1,0,0:0:0:0:
75,103,19310,1,0,0:0:0:0:
95,118,19418,2,0,L|87:181,1,50,2|2,0:0|0:0,0:0:0:0:
247,70,19632,2,0,L|240:20,1,50,2|0,0:0|0:0,0:0:0:0:
175,150,19846,6,0,P|225:148|266:174,1,100,2|0,1:2|0:0,0:0:0:0:
346,169,20168,2,0,P|279:203|245:268,1,150,2|0,0:0|0:0,0:0:0:0:
302,97,20704,6,0,L|307:47,3,50,0|0|0|0,1:0|0:0|0:0|0:0,0:0:0:0:
373,4,21132,2,0,P|398:3|423:19,1,50,2|2,0:0|0:0,0:0:0:0:
512,163,21346,2,0,P|487:162|461:178,1,50,2|0,0:0|0:0,0:0:0:0:
379,122,21561,6,0,L|391:221,1,100,2|0,1:2|0:0,0:0:0:0:
463,258,21882,2,0,P|389:255|326:295,1,150,2|0,0:0|0:0,0:0:0:0:
166,318,22418,5,2,1:2:0:0:
190,311,22525,1,0,0:0:0:0:
215,312,22632,1,0,0:0:0:0:
239,320,22739,1,0,0:0:0:0:
259,335,22847,2,0,L|251:398,3,50
327,294,23275,5,0,1:0:0:0:
318,271,23382,1,0,1:0:0:0:
327,248,23489,1,0,1:0:0:0:
319,225,23596,2,0,P|340:236|365:235,1,50,2|0,0:0|0:0,0:0:0:0:
209,165,23811,5,2,1:2:0:0:
221,174,23918,2,0,P|223:198|238:218,1,50,2|0,1:2|0:0,0:0:0:0:
190,45,24132,5,2,1:2:0:0:
189,60,24239,2,0,P|170:75|162:99,1,50,2|0,1:2|1:0,0:0:0:0:
84,208,24454,5,2,1:2:0:0:
99,207,24561,2,0,P|114:188|138:180,1,50,2|0,1:2|0:0,0:0:0:0:
156,322,24775,5,2,1:2:0:0:
147,309,24882,2,0,P|123:304|104:288,1,50,2|0,1:2|1:0,0:0:0:0:
218,202,25097,5,2,1:2:0:0:
211,216,25204,2,0,P|219:238|214:263,1,50,2|0,1:2|1:0,0:0:0:0:
84,208,25418,5,2,1:2:0:0:
99,207,25525,2,0,P|114:188|138:180,1,50,2|0,1:2|1:0,0:0:0:0:
79,60,25739,5,2,1:2:0:0:
88,71,25846,2,0,P|136:75|176:105,1,100,2|0,1:2|0:0,0:0:0:0:
270,100,26168,1,2,1:2:0:0:
260,88,26275,2,0,L|252:151,3,50,2|2|2|2,1:2|1:2|1:2|1:2,0:0:0:0:
337,38,26704,6,0,P|334:63|343:87,1,50,2|0,1:2|0:0,0:0:0:0:
421,77,26918,2,0,P|424:52|416:29,1,50,2|0,1:2|0:0,0:0:0:0:
327,172,27132,1,0,1:0:0:0:
351,165,27239,1,0,0:0:0:0:
376,166,27346,1,2,1:2:0:0:
400,174,27453,1,0,0:0:0:0:
420,189,27561,6,0,L|412:252,3,50,0|0|2|0,1:2|0:0|1:2|1:0,0:0:0:0:
345,280,27989,2,0,L|352:330,3,50,2|0|2|0,1:2|1:0|1:2|1:0,0:0:0:0:
285,226,28418,6,0,B|242:252|242:252|207:216,1,100,2|0,1:2|1:0,0:0:0:0:
221,139,28739,2,0,B|263:112|263:112|298:148,1,100,2|0,1:2|1:0,0:0:0:0:
359,201,29061,1,2,1:2:0:0:
457,97,29275,6,0,P|434:231|421:384,1,290.000008850098,6|2,1:2|0:0,0:0:0:0:
245,113,30132,5,2,1:2:0:0:
359,164,30346,1,2,0:0:0:0:
331,156,30454,1,2,0:0:0:0:
305,169,30561,2,2,P|316:238|323:317,1,150.000005722046,2|0,1:0|0:0,0:1:0:0:
144,379,30989,5,0,1:0:0:0:
240,299,31204,1,2,0:0:0:0:
205,313,31311,1,2,0:0:0:0:
169,302,31418,1,0,1:0:0:0:
146,274,31525,2,0,L|153:210,1,50,2|0,0:0|0:0,0:0:0:0:
83,13,31846,5,0,1:0:0:0:
179,93,32061,1,2,0:0:0:0:
144,79,32168,1,2,0:0:0:0:
108,90,32275,1,0,1:0:0:0:
85,118,32382,2,0,L|92:181,1,50,2|0,0:0|0:0,0:0:0:0:
362,0,32704,5,0,1:0:0:0:
248,51,32918,1,2,0:0:0:0:
276,43,33026,1,2,0:0:0:0:
302,56,33132,2,0,B|310:127|310:127|308:131|308:131|317:203,1,150,2|0,0:0|0:0,0:0:0:0:
384,246,33561,5,2,1:2:0:0:
512,310,33775,1,2,0:0:0:0:
477,296,33882,1,2,0:0:0:0:
441,307,33989,1,0,1:0:0:0:
418,335,34096,2,0,L|425:399,1,50,2|0,0:0|0:0,0:0:0:0:
307,152,34418,5,0,1:0:0:0:
279,282,34632,1,2,0:0:0:0:
314,296,34739,1,2,0:0:0:0:
350,285,34846,1,0,1:0:0:0:
373,257,34953,2,0,L|366:193,1,50,2|0,0:0|0:0,0:0:0:0:
512,27,35275,5,0,1:0:0:0:
427,153,35489,1,2,0:0:0:0:
438,123,35596,1,2,0:0:0:0:
426,92,35703,1,0,1:0:0:0:
437,62,35811,2,0,L|430:-2,1,50,2|2,0:0|0:0,0:0:0:0:
250,145,36132,5,0,1:0:0:0:
361,204,36346,1,2,0:0:0:0:
333,196,36454,1,0,0:0:0:0:
308,209,36561,2,0,P|255:169|229:229,1,150,4|0,1:2|0:0,0:0:0:0:
287,287,36989,5,6,1:2:0:0:
151,255,37204,1,2,0:0:0:0:
120,278,37311,1,2,0:0:0:0:
82,276,37418,1,0,1:0:0:0:
53,254,37525,2,0,L|44:190,1,50,2|0,0:0|0:0,0:0:0:0:
209,312,37846,5,0,1:0:0:0:
308,209,38061,1,2,0:0:0:0:
343,194,38168,1,2,0:0:0:0:
380,205,38275,1,0,1:0:0:0:
402,233,38382,2,0,L|395:297,1,50,2|0,0:0|0:0,0:0:0:0:
490,75,38704,6,0,B|507:47|507:47|483:24,2,66.6666666666667,0|0|0,1:0|1:0|1:0,0:0:0:0:
402,39,39132,2,0,B|385:67|385:67|409:90,2,66.6666666666667,0|0|0,1:0|1:0|1:0,0:0:0:0:
307,76,39561,5,0,1:0:0:0:
187,121,39775,1,2,0:0:0:0:
215,113,39883,1,2,0:0:0:0:
241,126,39989,2,0,B|233:197|233:197|235:201|235:201|226:273,1,150
159,316,40418,5,0,1:0:0:0:
59,239,40632,1,2,0:0:0:0:
94,253,40739,1,2,0:0:0:0:
130,242,40846,1,0,1:0:0:0:
153,214,40953,2,0,L|146:151,1,50,2|0,0:0|0:0,0:0:0:0:
376,0,41275,5,2,1:2:0:0:
277,103,41490,1,2,0:0:0:0:
242,118,41597,1,0,0:0:0:0:
205,107,41704,1,2,1:2:0:0:
183,79,41811,2,0,L|190:15,1,50,0|2,0:0|0:0,0:0:0:0:
396,207,42132,5,0,1:0:0:0:
433,176,42239,1,0,0:0:0:0:
482,182,42346,1,2,0:0:0:0:
512,220,42453,1,0,0:0:0:0:
505,268,42561,5,2,1:2:0:0:
503,255,42668,1,0,0:0:0:0:
501,243,42775,1,0,0:0:0:0:
500,230,42882,1,0,0:0:0:0:
498,218,42989,5,4,1:0:0:0:
419,302,43204,6,0,B|429:286|414:270|414:270|396:282|402:300,1,69.9999978637696,2|0,0:0|0:0,0:0:0:0:
323,268,43418,2,0,B|322:249|301:244|301:244|293:265|308:275,1,69.9999978637696,2|0,0:0|0:0,0:0:0:0:
224,295,43632,2,0,B|213:280|192:288|192:288|198:309|216:309,1,69.9999978637696,2|0,0:0|0:0,0:0:0:0:
127,228,43846,6,0,P|135:194|138:229,1,97.4999955368044,4|0,1:0|0:0,0:0:0:0:
134,212,44275,2,2,B|61:200|73:270|0:259,1,150.000005722046,10|0,1:2|0:0,0:1:0:0:
134,103,44704,2,0,P|169:137|218:146,1,100,0|0,1:0|0:0,0:0:0:0:
387,192,45132,5,10,0:2:0:0:
409,162,45239,1,2,0:0:0:0:
440,140,45346,1,2,0:0:0:0:
475,128,45453,1,2,0:0:0:0:
512,127,45561,6,0,L|496:254,1,100,2|0,1:2|0:0,0:0:0:0:
437,273,45882,1,2,0:0:0:0:
424,264,45989,2,0,L|432:327,3,50,10|0|2|0,0:0|0:0|0:0|0:0,0:0:0:0:
369,369,46418,2,0,P|338:330|290:316,1,100,2|0,1:2|0:0,0:0:0:0:
165,274,46846,5,10,1:2:0:0:
201,269,46953,1,2,0:0:0:0:
236,254,47060,1,2,0:0:0:0:
264,229,47167,1,2,0:0:0:0:
283,198,47275,6,0,L|270:98,1,100,2|0,1:2|0:0,0:0:0:0:
181,69,47597,1,2,0:0:0:0:
194,60,47704,2,0,L|186:123,3,50,10|0|0|0,0:0|0:0|0:0|0:0,0:0:0:0:
126,165,48132,2,0,P|95:126|47:112,1,100,2|0,1:2|0:0,0:0:0:0:
205,189,48561,5,10,0:2:0:0:
208,214,48668,1,2,0:0:0:0:
211,239,48775,1,2,0:0:0:0:
214,264,48882,1,2,0:0:0:0:
217,289,48989,6,0,P|247:250|294:235,1,100,2|0,1:2|0:0,0:0:0:0:
383,262,49311,1,2,0:0:0:0:
370,271,49418,2,0,L|378:208,3,50,10|0|0|0,0:0|0:0|0:0|0:0,0:0:0:0:
323,161,49846,2,0,L|307:33,1,100,2|0,1:2|0:0,0:0:0:0:
80,27,50275,5,4,1:2:0:0:
126,33,50382,1,2,0:0:0:0:
172,52,50489,1,2,1:2:0:0:
208,85,50596,1,2,0:0:0:0:
233,125,50704,6,0,L|216:254,1,100,2|0,1:2|0:0,0:0:0:0:
499,384,51132,2,0,L|485:284,1,100,8|0,0:0|0:0,0:0:0:0:
306,215,51561,6,0,P|298:263|320:307,1,100,2|0,1:2|0:0,0:0:0:0:
400,296,51882,2,0,P|406:246|384:202,1,100,2|0,0:0|0:0,0:0:0:0:
335,141,52204,2,0,L|341:76,2,33.3333333333333,2|2|2,0:0|0:0|0:0,0:0:0:0:
397,49,52418,6,0,P|352:27|303:33,1,100,2|0,1:2|0:0,0:0:0:0:
475,0,52846,1,10,0:0:0:0:
478,25,52953,1,2,0:0:0:0:
481,50,53060,1,2,0:0:0:0:
484,75,53167,1,2,0:0:0:0:
488,100,53275,6,0,L|495:163,1,50,2|2,1:2|0:0,0:0:0:0:
350,267,53489,2,0,L|356:217,1,50,2|2,0:0|0:0,0:0:0:0:
411,126,53704,2,0,L|415:159,5,33.3333333333333,10|2|2|2|2|0,0:0|0:0|0:0|0:0|0:0|0:0,0:0:0:0:
488,100,54132,6,0,P|413:97|353:53,1,150,0|0,1:0|0:0,0:0:0:0:
271,35,54561,2,0,L|278:85,3,50,8|0|0|0,0:0|0:0|0:0|0:0,0:0:0:0:
232,154,54989,6,0,P|194:123|145:120,1,100,2|0,1:2|0:0,0:0:0:0:
114,194,55311,2,0,P|154:224|203:227,1,100,2|0,0:0|0:0,0:0:0:0:
285,254,55632,2,0,L|279:190,2,33.3333333333333,2|2|2,0:0|0:0|0:0,0:0:0:0:
358,291,55846,6,0,P|283:283|217:318,1,150,2|0,1:2|0:0,0:0:0:0:
135,352,56275,2,0,L|142:302,3,50,8|0|2|0,0:0|0:0|0:0|0:0,0:0:0:0:
189,238,56704,1,4,1:0:0:0:
0,117,56918,6,0,P|36:114|66:92,1,75.0000028610231,2|0,0:0|0:0,0:0:0:0:
145,143,57132,6,0,P|135:173|132:141,1,89.9999972534181,10|0,0:0|0:0,0:0:0:0:
296,35,57346,2,0,P|293:67|283:36,1,89.9999972534181,2|0,0:0|0:0,0:0:0:0:
256,193,57561,6,0,B|248:163|263:141|263:141|225:152|230:187,1,112.500004291535,6|0,1:2|0:0,0:0:0:0:
178,243,57989,2,2,B|251:255|239:185|312:196,1,150.000005722046,10|0,0:0|0:0,0:1:0:0:
429,65,58418,2,0,P|477:73|512:108,1,100,0|0,1:0|0:0,0:0:0:0:
286,0,58846,5,10,0:0:0:0:
316,22,58953,1,2,0:0:0:0:
338,53,59060,1,2,0:0:0:0:
350,88,59167,1,2,0:0:0:0:
351,125,59275,6,0,L|224:109,1,100,2|2,1:2|0:0,0:0:0:0:
221,203,59596,1,2,0:0:0:0:
230,190,59703,2,0,L|167:198,3,50,10|0|0|0,0:0|0:0|0:0|0:0,0:0:0:0:
170,296,60132,2,2,P|133:263|84:257,1,100,2|0,1:0|0:0,0:1:0:0:
371,297,60561,5,10,0:0:0:0:
349,327,60668,1,2,0:0:0:0:
318,349,60775,1,2,0:0:0:0:
283,361,60882,1,2,0:0:0:0:
246,362,60990,6,0,L|262:235,1,100,2|2,1:2|0:0,0:0:0:0:
154,326,61311,1,2,0:0:0:0:
167,335,61418,2,0,L|159:272,3,50,10|0|0|0,0:0|0:0|0:0|0:0,0:0:0:0:
93,242,61846,2,0,P|44:247|7:280,1,100,2|0,1:0|0:0,0:0:0:0:
52,83,62275,5,10,0:0:0:0:
80,128,62383,1,0,0:0:0:0:
122,166,62490,1,2,0:0:0:0:
174,188,62597,1,2,0:0:0:0:
227,195,62704,6,0,L|219:131,1,50,2|2,1:2|0:0,0:0:0:0:
338,55,62918,1,2,0:0:0:0:
305,25,63025,1,2,0:0:0:0:
260,24,63132,5,8,0:0:0:0:
256,48,63239,1,0,0:0:0:0:
253,73,63346,5,0,1:0:0:0:
199,71,63453,1,0,0:0:0:0:
159,35,63561,2,2,P|90:65|50:128,1,150,0|0,1:0|0:0,0:1:0:0:
0,190,63989,5,10,0:0:0:0:
6,236,64096,1,2,0:0:0:0:
25,282,64203,1,2,1:2:0:0:
58,318,64310,1,2,0:0:0:0:
98,343,64418,6,0,L|227:326,1,100,2|0,1:2|0:0,0:0:0:0:
344,186,64846,2,0,L|443:199,1,100,8|0,0:0|0:0,0:0:0:0:
265,282,65275,6,0,P|273:234|251:190,1,100,2|0,1:2|0:0,0:0:0:0:
293,121,65596,2,0,P|260:84|212:73,1,100,2|0,0:0|0:0,0:0:0:0:
169,141,65918,2,0,L|172:174,2,33.3333333333333,2|2|2,0:0|0:0|0:0,0:0:0:0:
92,95,66132,6,2,P|128:62|140:14,1,100,0|0,1:0|0:0,0:1:0:0:
266,100,66560,1,8,0:0:0:0:
263,125,66667,1,2,0:0:0:0:
260,150,66774,1,2,0:0:0:0:
257,175,66881,1,2,0:0:0:0:
253,200,66989,6,0,L|246:263,1,50,2|2,1:2|0:0,0:0:0:0:
391,367,67203,2,0,L|385:317,1,50,2|0,0:0|0:0,0:0:0:0:
330,226,67418,2,0,L|326:259,5,33.3333333333333,10|2|2|2|2|2,0:0|0:0|0:0|0:0|0:0|0:0,0:0:0:0:
383,161,67846,6,0,P|422:189|472:191,1,100,2|0,1:2|0:0,0:0:0:0:
512,52,68275,2,0,P|472:23|422:21,1,100,8|0,0:0|0:0,0:0:0:0:
308,120,68704,6,0,P|339:82|342:33,1,100,2|0,1:2|0:0,0:0:0:0:
268,2,69026,2,0,P|238:42|235:91,1,100,2|0,0:0|0:0,0:0:0:0:
208,173,69347,2,0,L|272:167,2,33.3333333333333,2|2|2,0:0|0:0|0:0,0:0:0:0:
167,255,69561,5,2,1:2:0:0:
141,224,69668,1,2,0:0:0:0:
115,204,69775,1,2,0:0:0:0:
91,190,69882,1,2,0:0:0:0:
68,182,69989,5,8,0:0:0:0:
47,175,70097,1,2,0:0:0:0:
28,173,70204,2,0,L|39:77,1,50,2|0,0:0|0:0,0:0:0:0:
159,32,70418,6,0,B|182:8|182:8|210:25,2,66.6666666666667,8|4|4,1:3|0:3|0:3,0:0:0:0:
194,104,70846,5,8,0:3:0:0:
203,183,70989,1,4,0:3:0:0:
213,263,71132,1,4,0:3:0:0:
225,363,71275,5,6,1:2:0:0:
160,374,77275,6,0,B|137:313|67:281|6:310|6:310|43:335|46:393,1,250,4|0,1:0|0:0,0:0:0:0:
46,377,77811,2,0,P|41:342|33:376,1,97.500000371933,10|0,0:3|0:0,0:0:0:0:
268,227,78132,6,0,P|231:260|182:266,1,100,4|0,1:0|0:0,0:0:0:0:
148,193,78454,2,0,P|185:160|234:154,1,100,2|0,0:0|0:0,0:0:0:0:
311,159,78775,1,0,0:0:0:0:
300,311,78989,5,2,1:2:0:0:
325,314,79096,1,0,1:0:0:0:
350,317,79203,1,0,1:0:0:0:
375,320,79310,1,0,1:0:0:0:
400,323,79418,2,0,L|463:330,3,50,2|0|0|0,1:2|1:0|1:0|1:0,0:0:0:0:
511,276,79846,5,2,1:2:0:0:
512,222,79953,1,0,1:0:0:0:
503,170,80060,1,0,1:0:0:0:
463,133,80167,1,0,1:0:0:0:
410,120,80275,2,0,L|398:24,1,50,2|0,1:2|1:0,0:0:0:0:
220,226,80489,2,0,L|213:275,1,50,0|0,1:0|1:0,0:0:0:0:
400,227,80704,5,2,1:2:0:0:
378,197,80811,1,0,1:0:0:0:
347,175,80918,1,0,1:0:0:0:
312,163,81025,1,0,1:0:0:0:
275,162,81132,5,2,1:2:0:0:
290,132,81239,1,2,1:2:0:0:
269,90,81346,1,0,1:2:0:0:
291,52,81454,1,2,1:2:0:0:
298,60,81561,6,0,L|170:75,1,100,2|0,1:2|1:0,0:0:0:0:
133,28,81882,2,0,P|166:65|172:114,1,100,2|0,0:0|1:0,0:0:0:0:
94,98,82204,1,0,1:0:0:0:
130,229,82418,5,2,1:2:0:0:
136,201,82525,1,0,1:0:0:0:
117,177,82632,2,0,L|53:184,1,50,0|0,1:0|1:0,0:0:0:0:
262,62,82846,5,2,1:2:0:0:
255,111,82953,1,0,1:0:0:0:
249,161,83061,2,0,L|185:168,1,50,0|0,1:0|1:0,0:0:0:0:
157,322,83275,5,2,1:2:0:0:
173,284,83382,1,0,1:0:0:0:
207,254,83490,1,0,1:0:0:0:
256,239,83597,1,2,1:2:0:0:
310,255,83704,5,0,1:0:0:0:
367,289,83811,1,0,1:0:0:0:
439,264,83918,1,2,1:2:0:0:
461,190,84025,1,0,1:0:0:0:
407,127,84132,6,0,P|430:261|443:414,1,247.500002360344,6|0,1:2|0:0,0:0:0:0:
465,265,84561,2,0,L|461:291,3,26.6666666666667,2|0|0|0,0:0|0:0|0:0|0:0,0:0:0:0:
307,154,84989,6,0,B|299:117|277:103|302:94|318:60|318:60|325:97|347:111|322:120|307:154,1,202.500000772476,4|0,1:0|0:0,0:0:0:0:
287,263,85418,5,14,0:1:0:0:
240,199,85525,2,0,B|171:184|177:255|109:240,1,145.000004425049,2|2,0:0|0:0,0:0:0:0:
58,169,85846,5,0,1:0:0:0:
105,233,85953,2,0,B|173:247|167:176|235:191,1,145.000004425049,2|2,0:0|0:0,0:0:0:0:
288,253,86275,5,8,0:1:0:0:
356,211,86382,2,0,P|343:137|336:54,1,145.000004425049,2|2,0:0|0:0,0:0:0:0:
405,15,86704,5,0,1:0:0:0:
341,64,86811,2,0,P|348:136|361:208,1,145.000004425049,2|2,0:0|0:0,0:0:0:0:
423,259,87132,5,8,0:1:0:0:
370,320,87239,2,0,P|400:375|448:334,1,145.000004425049,2|2,0:0|0:0,0:0:0:0:
296,259,87561,6,0,P|295:294|272:322,1,72.5000022125245,0|2,1:0|0:0,0:0:0:0:
200,288,87775,2,0,P|200:259|220:237,1,59.9999981689454,2|0,1:2|0:0,0:0:0:0:
374,240,87989,5,8,0:0:0:0:
357,162,88096,1,2,0:0:0:0:
410,101,88204,5,2,0:0:0:0:
427,23,88311,1,2,0:0:0:0:
436,31,88418,6,2,B|415:-7|366:-19|310:-9|310:-9|345:14|346:52,1,202.500000772476,2|0,1:0|0:0,0:1:0:0:
196,18,88846,5,8,0:0:0:0:
264,60,88954,2,0,P|251:134|244:217,1,145.000004425049,2|2,0:0|0:0,0:0:0:0:
313,256,89276,5,0,1:0:0:0:
249,207,89383,2,0,P|256:135|269:63,1,145.000004425049,2|2,0:0|0:0,0:0:0:0:
180,119,89705,5,8,0:0:0:0:
133,55,89812,2,0,B|64:40|70:111|2:96,1,145.000004425049,2|2,0:0|0:0,0:0:0:0:
74,166,90132,5,0,1:0:0:0:
60,186,90239,1,2,0:1:0:0:
54,211,90346,1,2,0:1:0:0:
60,235,90453,1,2,0:1:0:0:
74,256,90561,5,8,0:0:0:0:
128,263,90668,1,2,0:1:0:0:
182,269,90775,1,2,0:1:0:0:
236,276,90882,1,2,0:1:0:0:
290,283,90989,6,0,L|287:263,4,20,0|0|2|2|2,1:0|0:0|0:0|0:0|0:0,0:0:0:0:
498,278,91418,5,8,0:0:0:0:
482,199,91525,1,2,0:0:0:0:
403,189,91632,5,0,1:0:0:0:
368,262,91739,1,2,0:0:0:0:
427,316,91846,6,2,B|428:359|447:383|447:383|417:393|390:376|390:376|414:357|427:316,1,202.500000772476,6|0,1:0|0:0,0:1:0:0:
313,384,92275,5,8,0:0:0:0:
250,336,92382,2,0,B|181:321|187:392|119:377,1,145.000004425049,2|2,0:0|0:0,0:0:0:0:
16,319,92704,6,0,P|35:348|38:384,1,72.5000022125245,0|2,1:2|0:0,0:0:0:0:
173,268,92918,2,0,P|158:249|137:238,1,47.4999987316132,2|0,0:0|0:0,0:0:0:0:
43,243,93132,6,0,P|46:220|45:243,1,67.5000002574921,8|2,0:0|0:0,0:0:0:0:
215,191,93346,2,0,P|232:176|216:192,1,67.5000002574921,2|2,0:0|0:0,0:0:0:0:
49,141,93561,5,0,1:0:0:0:
34,111,93668,1,0,0:0:0:0:
41,77,93775,2,0,L|107:85,1,67.5000002574921,2|0,0:0|0:0,0:0:0:0:
240,2,93989,6,0,L|271:-1,2,20,8|2|2,0:0|0:0|0:0,0:0:0:0:
160,11,94204,2,0,L|140:12,2,20,2|2|2,0:0|0:0|0:0,0:0:0:0:
241,148,94418,5,0,1:0:0:0:
189,86,94525,2,0,P|202:160|209:243,1,145.000004425049,2|0,0:0|0:0,0:0:0:0:
82,276,94846,5,8,0:0:0:0:
160,293,94953,1,2,0:0:0:0:
220,346,95061,5,2,0:0:0:0:
298,329,95168,1,2,0:0:0:0:
308,336,95275,6,2,B|276:300|272:258|302:226|302:226|361:223|385:155,1,202.500000772476,2|0,1:0|0:0,0:1:0:0:
241,91,95704,5,8,0:0:0:0:
299,146,95811,2,0,B|230:161|236:90|168:105,1,145.000004425049,2|2,0:0|0:0,0:0:0:0:
87,118,96132,6,0,L|92:73,1,44.999998626709,0|2,1:0|0:0,0:0:0:0:
79,117,96346,2,0,L|86:53,1,44.999998626709,2|2,0:0|0:0,0:0:0:0:
252,45,96561,6,0,L|246:0,1,44.999998626709,8|2,0:0|0:0,0:0:0:0:
260,44,96775,2,0,L|252:-19,1,44.999998626709,2|2,0:0|0:0,0:0:0:0:
371,134,96989,6,0,P|320:101|305:172,1,145.000004425049,6|2,1:2|0:0,0:0:0:0:
396,213,97311,2,0,P|402:134|415:56,1,145.000004425049,2|2,1:2|0:0,0:0:0:0:
373,0,97632,1,2,1:2:0:0:
223,70,97846,5,2,1:3:0:0:
227,88,97954,1,2,1:3:0:0:
172,145,98168,5,2,1:3:0:0:
168,163,98276,1,8,0:0:0:0:
164,181,98382,1,2,1:3:0:0:
160,199,98490,1,2,1:3:0:0:
31,317,98704,6,2,B|97:331|97:331|118:298|113:242|60:215,1,202.500000772476,6|0,1:0|0:0,0:1:0:0:
187,273,99132,5,10,0:0:0:0:
256,231,99239,2,0,L|264:159,2,62.5,2|2|2,0:0|0:0|0:0,0:0:0:0:
194,279,99561,5,0,1:0:0:0:
263,237,99668,2,0,L|271:165,2,62.5,2|2|2,0:0|0:0|0:0,0:0:0:0:
125,237,99989,5,8,0:0:0:0:
194,279,100096,2,0,L|202:351,2,62.5,2|2|2,0:0|0:0|0:0,0:0:0:0:
118,231,100418,5,2,1:2:0:0:
187,273,100525,2,0,L|195:345,2,62.5,2|2|0,0:0|0:0|0:0,0:0:0:0:
285,381,100846,5,8,0:0:0:0:
318,309,100954,2,0,B|297:285|297:285|271:303,2,62.5,2|2|2,0:0|0:0|0:0,0:0:0:0:
493,321,101275,6,0,P|492:356|469:384,1,72.5000022125245,2|2,1:2|0:0,0:0:0:0:
397,350,101489,2,0,P|397:321|417:299,1,59.9999981689454,2|2,0:0|0:0,0:0:0:0:
512,206,101704,5,10,0:0:0:0:
434,223,101811,1,2,0:0:0:0:
373,170,101919,5,2,0:0:0:0:
295,153,102026,1,2,0:0:0:0:
288,162,102132,6,2,B|267:124|218:112|162:122|162:122|197:145|198:183,1,202.500000772476,2|0,1:0|0:0,0:1:0:0:
47,151,102561,5,8,0:0:0:0:
116,193,102668,2,0,L|124:265,2,62.5,2|2|2,0:0|0:0|0:0,0:0:0:0:
163,122,102989,5,2,1:2:0:0:
178,92,103096,1,2,0:0:0:0:
172,58,103204,2,0,P|146:75|116:77,1,62.5,2|2,0:0|0:0,0:0:0:0:
322,110,103418,5,8,0:0:0:0:
253,68,103525,2,0,L|245:-4,2,62.5,2|2|2,0:0|0:0|0:0,0:0:0:0:
256,160,103846,5,2,1:2:0:0:
236,146,103953,1,2,0:0:0:0:
211,140,104060,1,2,0:0:0:0:
187,146,104167,1,2,0:0:0:0:
166,160,104275,5,10,0:0:0:0:
159,214,104382,1,0,0:0:0:0:
153,268,104489,1,2,0:0:0:0:
146,322,104596,1,0,0:0:0:0:
139,376,104704,6,0,L|171:371,1,32.4999985122681,2|2,1:2|0:0,0:0:0:0:
250,356,104918,2,0,L|282:351,1,32.4999985122681,2|0,0:0|0:0,0:0:0:0:
130,236,105132,5,10,0:0:0:0:
95,309,105239,1,2,0:0:0:0:
16,299,105346,5,2,1:2:0:0:
0,220,105453,1,2,0:0:0:0:
71,182,105561,6,2,B|84:141|108:122|108:122|81:105|51:115|51:115|70:139|71:182,1,202.500000772476,2|0,1:0|0:0,0:1:0:0:
180,87,105989,5,10,0:0:0:0:
249,129,106096,2,0,L|257:201,2,62.5,2|2|2,0:0|0:0|0:0,0:0:0:0:
187,81,106418,5,2,1:2:0:0:
256,123,106525,2,0,L|264:195,2,62.5,2|2|0,0:0|0:0|0:0,0:0:0:0:
194,75,106846,5,10,0:0:0:0:
263,117,106954,2,0,L|271:189,2,62.5,2|2|0,0:0|0:0|0:0,0:0:0:0:
374,92,107275,6,0,B|342:128|338:170|368:202|368:202|427:205|451:273,1,202.500000772476,2|0,1:2|0:0,0:0:0:0:
333,359,107704,5,8,0:0:0:0:
365,286,107811,2,0,L|293:278,2,62.5,2|2|2,0:0|0:0|0:0,0:0:0:0:
327,366,108132,5,2,1:2:0:0:
359,293,108239,2,0,L|287:285,2,62.5,2|2|0,0:0|0:0|0:0,0:0:0:0:
252,222,108561,5,10,0:2:0:0:
174,239,108668,1,2,0:0:0:0:
114,292,108776,5,2,0:0:0:0:
36,275,108883,1,2,0:0:0:0:
32,284,108989,6,2,B|37:274|37:274|19:251|19:251|8:278|8:278|15:286,1,80,2|0,1:0|0:0,0:1:0:0:
37,362,109204,1,0,0:0:0:0:
0,145,109418,6,0,P|50:179|111:170,1,125,8|2,0:0|0:0,0:0:0:0:
180,128,109739,1,2,0:0:0:0:
248,172,109846,2,0,L|232:296,1,125,2|2,1:2|0:0,0:0:0:0:
481,323,110275,6,0,P|431:289|370:298,1,125,8|2,0:0|0:0,0:0:0:0:
301,340,110596,1,2,0:0:0:0:
233,296,110704,6,0,L|248:171,1,125,2|0,1:2|0:0,0:0:0:0:
181,128,111025,1,2,0:0:0:0:
115,174,111132,2,0,P|53:164|3:198,1,125,10|0,0:0|0:0,0:0:0:0:
72,241,111454,1,2,0:0:0:0:
27,308,111561,6,0,B|3:331|3:331|20:359,2,66.6666666666667,6|2|2,1:2|1:2|1:2,0:0:0:0:
99,343,111989,5,0,1:0:0:0:
178,352,112132,1,2,1:2:0:0:
258,362,112275,1,2,1:2:0:0:
358,374,112418,6,0,L|354:342,4,20,0|0|2|2|2,1:0|0:0|1:2|0:0|1:2,0:0:0:0:
332,163,112846,2,0,L|334:182,4,20,0|0|2|2|2,1:2|0:0|1:2|0:0|1:2,0:0:0:0:
217,326,113275,5,2,1:2:0:0:
247,341,113382,1,0,1:0:0:0:
281,335,113489,1,0,1:0:0:0:
231,245,113704,5,2,1:2:0:0:
265,239,113811,1,0,1:0:0:0:
295,254,113918,1,0,1:0:0:0:
71,357,114132,5,2,1:2:0:0:
109,341,114239,1,2,1:2:0:0:
139,307,114347,1,2,1:2:0:0:
154,258,114454,1,2,1:2:0:0:
138,204,114561,5,2,1:2:0:0:
104,147,114668,1,2,1:2:0:0:
129,75,114775,1,2,1:2:0:0:
203,53,114882,1,2,1:2:0:0:
266,107,114989,6,0,L|298:102,1,32.4999985122681,0|0,1:3|0:0,0:0:0:0:
377,87,115204,2,0,L|409:82,1,32.4999985122681,0|0,1:3|0:0,0:0:0:0:
491,69,115418,6,2,P|351:54|212:30,1,279.999991455078,10|2,0:3|0:0,0:1:0:0:
