osu file format v14

[General]
AudioFilename: audio.mp3
AudioLeadIn: 0
PreviewTime: 84877
Countdown: 0
SampleSet: Soft
StackLeniency: 0.6
Mode: 0
LetterboxInBreaks: 0
WidescreenStoryboard: 1

[Editor]
Bookmarks: 2699,16413,30127,43841,57556,71270,84984,98699,112413,115841,122699
DistanceSpacing: 0.9
BeatDivisor: 4
GridSize: 16
TimelineZoom: 2.7

[Metadata]
Title:ChaserXX
TitleUnicode:ChaserXX
Artist:HuMeR
ArtistUnicode:HuΣeR
Creator:Hishiro Chizuru
Version:LCFC's Normal
Source:beatmania IIDX 25 CANNON BALLERS
Tags:amb1d3x HuSeR 濱田有共 Aritomo Hamada CYBERNETICS PIANO HOUSE konami bemani electronic instrumental Realazy lcfc LowComboFC xenon- xehn xen Otosaka-Yu Suzuki_1112 1112deng icekalt deep fried ice ULTIMATE MOBILE video game
BeatmapID:2976163
BeatmapSetID:1293408

[Difficulty]
HPDrainRate:4
CircleSize:3
OverallDifficulty:4.5
ApproachRate:5.5
SliderMultiplier:1.3
SliderTickRate:1

[Events]
//Background and Video events
0,0,"amogus.jpg",0,0
//Break Periods
//Storyboard Layer 0 (Background)
//Storyboard Layer 1 (Fail)
//Storyboard Layer 2 (Pass)
//Storyboard Layer 3 (Foreground)
//Storyboard Layer 4 (Overlay)
//Storyboard Sound Samples

[TimingPoints]
2704,428.571428571429,4,2,1,50,1,0
2704,-100,4,2,1,50,0,0
16418,-100,4,2,1,65,0,0
23275,-100,4,2,1,50,0,0
23811,-100,4,2,1,55,0,0
24132,-100,4,2,1,60,0,0
24775,-100,4,2,1,65,0,0
25846,-100,4,2,1,70,0,0
27561,-100,4,2,1,80,0,0
27614,-100,4,2,1,50,0,0
27989,-100,4,2,1,80,0,0
28042,-100,4,2,1,50,0,0
28418,-100,4,2,1,80,0,0
29596,-100,4,2,1,5,0,0
29704,-100,4,2,1,70,0,0
29811,-100,4,2,1,65,0,0
29918,-100,4,2,1,60,0,0
30025,-100,4,2,1,55,0,0
30132,-100,4,2,1,70,0,0
30561,-100,4,2,1,90,0,0
30882,-100,4,2,1,5,0,0
30989,-100,4,2,1,70,0,0
33132,-100,4,2,1,30,0,0
33561,-100,4,2,1,70,0,0
36293,-100,4,2,1,5,0,0
36346,-100,4,2,1,70,0,0
39989,-100,4,2,1,30,0,0
40418,-100,4,2,1,60,0,0
40632,-100,4,2,1,70,0,0
43096,-100,4,2,1,5,0,0
43204,-100,4,2,1,70,0,0
43311,-100,4,2,1,5,0,0
43418,-100,4,2,1,70,0,0
43846,-100,4,2,1,80,0,0
56811,-100,4,2,2,80,0,0
57132,-100,4,2,1,80,0,0
60293,-100,4,2,1,5,0,0
60346,-100,4,2,1,80,0,0
63561,-100,4,2,1,85,0,0
63989,-100,4,2,2,90,0,0
64418,-100,4,2,1,80,0,0
66293,-100,4,2,1,5,0,0
66346,-100,4,2,1,80,0,0
71275,-100,4,2,1,70,0,0
75400,-100,4,2,1,5,0,0
75668,-100,4,2,1,60,0,0
77811,-100,4,2,11,80,0,0
78132,-100,4,2,1,60,0,0
78989,-100,4,2,1,65,0,0
79846,-100,4,2,1,70,0,0
80704,-100,4,2,1,75,0,0
81561,-100,4,2,1,80,0,0
82418,-100,4,2,1,85,0,0
83275,-100,4,2,1,90,0,0
84132,-100,4,2,1,95,0,0
84989,-100,4,2,1,90,0,1
90132,-100,4,2,1,95,0,1
90668,-100,4,2,1,100,0,1
90989,-100,4,2,1,90,0,1
91418,-100,4,2,2,100,0,1
91632,-100,4,2,1,100,0,1
91846,-100,4,2,1,90,0,1
98275,-100,4,2,2,90,0,1
98382,-100,4,2,1,90,0,1
98704,-100,4,2,1,95,0,1
105132,-100,4,2,2,95,0,1
105561,-100,4,2,1,95,0,1
108561,-100,4,2,2,95,0,1
108989,-100,4,2,1,95,0,1
112418,-100,4,2,1,80,0,1
114132,-100,4,2,1,85,0,1
114989,-100,4,2,1,90,0,1
115418,-100,4,2,11,80,0,1
115739,-100,4,2,2,5,0,1
115846,-100,4,2,1,60,0,0
118418,-100,4,2,1,70,0,0
119275,-100,4,2,1,60,0,0
120132,-100,4,2,1,50,0,0
120989,-100,4,2,1,40,0,0
121846,-100,4,2,1,30,0,0

[Colours]
Combo1 : 184,235,190
Combo2 : 159,201,217
Combo3 : 250,163,165
Combo4 : 193,173,220

[HitObjects]
302,356,2704,6,0,L|204:336,2,97.5,6|2|0,0:0|0:0|0:0,0:0:0:0:
346,317,3561,2,0,P|335:269|335:220,1,97.5,2|2,0:0|0:0,0:0:0:0:
415,98,4418,2,0,L|513:78,2,97.5,2|2|0,0:0|0:0|0:0,0:0:0:0:
373,56,5275,2,0,P|325:45|276:45,1,97.5,2|2,0:0|0:0,0:0:0:0:
160,132,6132,6,0,B|154:178|154:178|165:227,2,97.5,2|2|0,0:0|0:0|0:0,0:0:0:0:
218,131,6989,2,0,P|262:152|310:146,1,97.5,2|2,0:0|0:0,0:0:0:0:
450,108,7846,2,0,B|456:154|456:154|445:203,1,97.5,0|2,0:0|0:0,0:0:0:0:
380,263,8489,1,0,0:0:0:0:
380,263,8704,2,0,P|336:242|288:248,2,97.5,0|2|0,0:0|0:0|1:0,0:0:0:0:
416,309,9561,6,0,P|368:319|322:336,1,97.5,2|2,1:2|0:0,0:0:0:0:
241,360,10204,1,0,0:0:0:0:
241,360,10418,2,0,P|195:343|147:333,2,97.5,2|2|0,0:0|0:0|0:0,0:0:0:0:
249,301,11275,2,0,L|236:204,1,97.5,2|2,0:0|0:0,0:0:0:0:
169,147,11918,1,0,0:0:0:0:
169,147,12132,2,0,L|72:160,1,97.5,2|2,0:0|0:0,0:0:0:0:
42,245,12775,1,0,1:0:0:0:
42,245,12989,6,0,P|90:245|138:255,1,97.5,2|2,0:0|0:0,0:0:0:0:
207,309,13632,1,0,0:0:0:0:
207,309,13846,2,0,L|311:291,2,97.5,2|2|2,0:0|0:0|0:0,0:0:0:0:
173,357,14704,2,0,P|125:364|80:346,1,97.5,0|0,1:2|1:0,0:0:0:0:
27,209,15561,2,0,L|45:85,1,97.5,6|2,1:2|0:0,0:0:0:0:
96,44,16204,1,2,0:0:0:0:
96,44,16418,6,0,L|168:53,1,65,6|0,1:2|0:0,0:0:0:0:
207,86,16846,2,2,P|211:121|198:158,1,65,2|0,0:0|0:0,0:1:0:0:
234,198,17275,2,0,B|298:186|282:158|350:144,1,130,0|0,1:0|0:0,0:0:0:0:
408,154,17918,1,2,0:0:0:0:
408,154,18132,2,0,B|431:196|431:196|410:245,1,97.5,2|2,1:2|0:0,0:0:0:0:
305,342,18989,2,0,L|240:331,1,65,0|0,1:0|0:0,0:0:0:0:
204,285,19418,2,0,P|165:289|135:313,1,65,2|2,0:0|0:0,0:0:0:0:
102,344,19846,6,0,P|78:304|87:232,1,97.5,2|2,1:2|0:0,0:0:0:0:
191,162,20704,2,0,L|203:96,1,65,0|0,1:0|0:0,0:0:0:0:
249,63,21132,2,0,L|315:75,1,65,2|2,0:0|0:0,0:0:0:0:
347,122,21561,2,0,P|385:106|446:95,1,97.5,2|2,1:2|0:0,0:0:0:0:
488,233,22418,2,0,L|401:217,1,65,2|0,1:2|0:0,0:0:0:0:
366,214,22846,1,2,0:0:0:0:
262,159,23275,6,0,L|175:175,1,65,0|0,1:0|1:0,0:0:0:0:
167,220,23704,1,2,1:2:0:0:
167,220,23918,2,0,P|96:225|44:178,1,130,2|0,1:2|1:0,0:0:0:0:
30,136,24561,1,2,1:2:0:0:
30,136,24775,1,2,1:2:0:0:
115,55,25204,1,2,1:2:0:0:
115,55,25418,2,0,P|165:62|185:78,1,65,2|0,1:2|1:0,0:0:0:0:
263,147,26061,1,0,1:0:0:0:
263,147,26275,2,0,L|337:136,1,65,2|2,1:2|1:2,0:0:0:0:
374,171,26704,6,0,L|385:245,1,65,2|2,1:2|1:2,0:0:0:0:
355,288,27132,1,0,1:0:0:0:
355,288,27346,1,2,1:2:0:0:
250,335,27775,1,2,1:2:0:0:
250,335,27989,2,0,P|239:298|240:270,1,65,2|2,1:2|1:2,0:0:0:0:
258,216,28418,2,0,L|153:203,1,97.5,2|2,1:2|1:2,0:0:0:0:
79,191,29061,1,2,1:2:0:0:
79,191,29275,2,0,B|75:148|75:148|86:114|86:114|80:62,1,130,6|2,1:2|0:0,0:0:0:0:
184,10,30132,6,0,L|195:94,1,65,2|2,1:2|0:0,0:0:0:0:
236,112,30561,2,2,P|303:121|355:70,1,130,2|0,1:0|1:0,0:1:0:0:
362,26,31204,1,2,0:0:0:0:
362,26,31418,1,0,1:0:0:0:
450,102,31846,2,0,P|460:139|461:174,1,65,0|2,1:0|0:0,0:0:0:0:
495,213,32275,2,0,B|435:230|444:253|380:272,1,130,0|0,1:0|1:0,0:0:0:0:
321,267,32918,2,0,L|314:331,1,65,2|2,0:0|0:0,0:0:0:0:
200,365,33561,6,0,P|168:363|142:345,1,65,2|2,1:2|0:0,0:0:0:0:
127,287,33989,2,0,P|166:236|165:173,1,130,0|0,1:0|1:0,0:0:0:0:
138,126,34632,1,2,0:0:0:0:
138,126,34846,1,0,1:0:0:0:
220,42,35275,2,0,L|291:34,1,65,0|2,1:0|0:0,0:0:0:0:
324,78,35704,2,0,P|307:148|314:234,1,130,0|0,1:0|1:0,0:0:0:0:
343,251,36346,1,2,0:0:0:0:
343,251,36561,1,4,1:2:0:0:
442,312,36989,6,0,L|455:240,1,65,6|2,1:2|0:0,0:0:0:0:
494,206,37418,2,0,B|490:139|490:139|446:80,1,130,0|0,1:0|1:0,0:0:0:0:
412,45,38061,1,2,0:0:0:0:
412,45,38275,1,0,1:0:0:0:
314,108,38704,2,0,P|281:109|252:95,1,65,0|0,1:0|0:0,0:0:0:0:
211,53,39132,2,0,L|63:75,1,130,0|0,1:0|1:0,0:0:0:0:
39,112,39775,2,0,P|33:143|41:175,1,65,2|0,0:0|0:0,0:0:0:0:
147,224,40418,6,0,B|191:201|191:201|238:208,1,97.5,0|2,1:0|0:0,0:0:0:0:
314,252,41061,1,2,1:2:0:0:
314,252,41275,2,0,L|380:240,1,65,2|2,1:2|0:0,0:0:0:0:
436,232,41704,1,2,1:2:0:0:
483,125,42132,2,0,P|488:93|480:61,1,65,0|2,1:0|0:0,0:0:0:0:
443,16,42561,2,0,P|411:10|379:18,1,65,2|0,1:2|0:0,0:0:0:0:
338,58,42989,1,4,1:0:0:0:
338,58,43204,2,0,L|261:66,2,65,2|2|2,0:0|0:0|0:0,0:0:0:0:
370,106,43846,5,4,1:0:0:0:
283,185,44275,2,2,L|137:175,1,130,10|0,1:2|1:0,0:1:0:0:
115,221,44918,1,0,0:0:0:0:
115,221,45132,2,0,L|109:308,1,65,8|2,0:2|0:0,0:0:0:0:
147,331,45561,2,0,B|111:362|111:362|58:369,2,97.5,2|2|2,1:2|0:0|0:0,0:0:0:0:
206,337,46418,1,2,1:2:0:0:
278,249,46846,2,0,L|282:184,1,65,10|2,1:2|0:0,0:0:0:0:
240,140,47275,6,0,P|193:130|162:93,2,97.5,2|2|0,1:2|0:0|0:0,0:0:0:0:
283,101,48132,1,2,1:2:0:0:
397,74,48561,2,0,P|403:105|395:136,1,65,10|2,0:2|0:0,0:0:0:0:
372,190,48989,2,0,L|387:312,2,97.5,2|2|0,1:2|0:0|0:0,0:0:0:0:
313,183,49846,1,2,1:2:0:0:
227,263,50275,2,0,L|153:271,1,65,4|2,1:2|1:2,0:0:0:0:
120,311,50704,6,0,P|83:259|101:198,1,130,2|8,1:2|0:0,0:0:0:0:
201,140,51561,2,0,P|217:96|217:38,2,97.5,2|2|0,1:2|0:0|0:0,0:0:0:0:
233,188,52418,1,2,1:2:0:0:
348,168,52846,2,0,L|359:244,1,65,10|2,0:0|0:0,0:0:0:0:
402,269,53275,2,0,P|390:298|394:330,1,65,2|2,1:2|0:0,0:0:0:0:
442,365,53704,6,0,L|301:381,1,130,10|0,0:0|1:0,0:0:0:0:
222,305,54561,2,0,P|217:273|229:243,1,65,8|0,0:0|0:0,0:0:0:0:
271,202,54989,2,0,P|280:151|283:84,2,97.5,2|2|2,1:2|0:0|0:0,0:0:0:0:
312,243,55846,2,0,P|373:262|435:248,1,130,2|8,1:2|0:0,0:0:0:0:
471,129,56704,1,4,1:0:0:0:
471,129,56918,2,0,L|460:63,2,65,2|10|2,0:0|0:0|0:0,0:0:0:0:
427,168,57561,5,6,1:2:0:0:
368,66,57989,2,2,P|305:55|255:94,1,130,10|0,0:0|1:0,0:1:0:0:
242,153,58632,1,0,0:0:0:0:
242,153,58846,2,0,L|156:171,1,65,10|2,0:0|0:0,0:0:0:0:
148,115,59275,2,0,L|40:99,1,97.5,2|2,1:2|0:0,0:0:0:0:
18,184,59918,1,0,0:0:0:0:
18,184,60132,2,2,B|15:218|15:218|32:244,1,65,2|0,1:0|0:0,0:1:0:0:
87,261,60561,2,0,P|114:244|146:242,1,65,10|2,0:0|0:0,0:0:0:0:
201,262,60989,6,0,P|252:261|300:224,1,97.5,2|2,1:2|0:0,0:0:0:0:
303,153,61632,1,0,0:0:0:0:
303,153,61846,1,2,1:0:0:0:
419,165,62275,2,0,L|430:234,1,65,10|2,0:0|0:0,0:0:0:0:
475,264,62704,2,0,L|494:379,1,97.5,2|2,1:2|0:0,0:0:0:0:
403,355,63346,1,0,1:0:0:0:
403,355,63561,2,2,L|334:366,1,65,0|0,1:0|0:0,0:1:0:0:
296,324,63989,2,0,P|283:285|293:252,1,65,10|2,0:0|1:2,0:0:0:0:
306,206,64418,6,0,B|243:214|252:241|185:251,1,130,2|8,1:2|0:0,0:0:0:0:
99,170,65275,2,0,P|108:123|112:74,2,97.5,2|2|0,1:2|0:0|0:0,0:0:0:0:
65,218,66132,1,0,1:0:0:0:
73,334,66561,2,0,P|104:326|147:324,1,65,8|2,0:0|0:0,0:0:0:0:
176,366,66989,2,0,P|207:374|250:376,1,65,2|2,1:2|0:0,0:0:0:0:
278,332,67418,6,0,P|304:294|274:203,1,130,10|2,0:0|1:2,0:0:0:0:
252,104,68275,2,0,L|321:97,1,65,8|0,0:0|0:0,0:0:0:0:
344,45,68704,2,0,L|456:58,1,97.5,2|2,1:2|0:0,0:0:0:0:
490,128,69346,1,2,0:0:0:0:
490,128,69561,2,0,P|496:193|479:255,1,130,2|8,1:2|0:0,0:0:0:0:
363,275,70418,2,0,B|300:266|300:266|280:278,2,86.6666666666667,8|4|4,1:3|0:3|0:3,0:0:0:0:
392,222,71275,6,0,L|378:125,1,97.5,6|2,1:2|1:2,0:0:0:0:
312,76,71918,1,0,0:0:0:0:
312,76,72132,2,0,P|266:87|245:80,1,65
203,47,72561,2,0,L|131:37,1,65
84,64,72989,2,0,P|77:111|97:155,1,97.5,2|0,0:3|0:0,0:0:0:0:
181,194,73632,1,0,0:0:0:0:
181,194,73846,2,0,P|200:255|203:320,1,130,2|0,0:3|0:0,0:0:0:0:
160,360,74489,1,0,0:0:0:0:
160,360,74704,6,0,L|39:342,2,97.5,2|2|2,0:3|0:3|0:3,0:0:0:0:
250,285,75775,2,0,L|319:273,1,65,2|2,0:3|0:3,0:0:0:0:
367,298,76204,1,2,0:3:0:0:
367,298,76418,2,0,B|394:238|394:238|366:179,1,130,2|2,0:3|0:3,0:0:0:0:
346,124,77061,1,0,0:0:0:0:
346,124,77275,2,0,L|185:147,1,162.5,4|10,1:0|0:3,0:0:0:0:
126,212,78132,6,0,P|112:257|131:301,1,97.5,4|2,1:0|0:0,0:0:0:0:
214,343,78775,1,0,0:0:0:0:
214,343,78989,2,0,L|228:230,2,97.5,2|0|0,1:2|1:0|1:0,0:0:0:0:
259,380,79846,2,0,B|303:359|303:359|351:363,1,97.5,2|0,1:2|1:0,0:0:0:0:
368,280,80489,1,0,1:0:0:0:
368,280,80704,2,0,B|347:236|347:236|351:188,2,97.5,2|0|0,1:2|1:0|1:2,0:0:0:0:
415,314,81561,6,0,L|539:304,1,97.5,2|0,1:2|1:0,0:0:0:0:
498,224,82204,1,0,1:0:0:0:
498,224,82418,2,0,P|488:171|502:102,2,97.5,2|0|0,1:2|1:0|1:0,0:0:0:0:
439,230,83275,2,0,P|398:207|349:205,1,97.5,2|2,1:2|1:2,0:0:0:0:
280,259,83918,1,2,1:2:0:0:
280,259,84132,2,0,B|237:263|237:263|203:252|203:252|151:258,1,130,6|2,1:2|0:0,0:0:0:0:
35,270,84989,5,4,1:0:0:0:
86,164,85418,2,0,L|150:155,1,65,14|2,0:1|0:0,0:0:0:0:
208,147,85846,2,0,L|199:82,1,65,0|2,1:0|0:0,0:0:0:0:
190,24,86275,1,8,0:1:0:0:
306,10,86704,2,0,P|349:22|370:42,1,65,0|2,1:0|0:0,0:0:0:0:
420,49,87132,2,0,P|431:92|424:120,1,65,8|2,0:1|0:0,0:0:0:0:
397,162,87561,2,0,L|308:148,2,65,0|0|8,1:0|0:0|0:0,0:0:0:0:
434,214,88204,1,2,0:0:0:0:
434,214,88418,5,2,1:0:0:0:
332,271,88846,2,0,L|319:341,1,65,8|2,0:0|0:0,0:0:0:0:
268,361,89275,2,0,P|235:361|204:352,1,65,0|2,1:0|0:0,0:0:0:0:
160,312,89704,1,8,0:0:0:0:
138,197,90132,2,0,B|153:153|153:153|133:104,2,97.5,0|2|2,1:0|0:1|0:1,0:0:0:0:
185,231,90989,2,0,P|249:229|295:185,1,130,0|8,1:0|0:0,0:0:0:0:
300,130,91632,1,0,1:0:0:0:
300,130,91846,5,6,1:0:0:0:
391,56,92275,2,0,L|400:120,1,65,8|2,0:0|0:0,0:0:0:0:
444,158,92704,2,0,L|508:149,2,65,0|2|8,1:2|0:0|0:0,0:0:0:0:
409,205,93346,1,2,0:0:0:0:
409,205,93561,2,0,B|407:242|414:269,1,65,0|2,1:0|0:0,0:0:0:0:
396,324,93989,1,8,0:0:0:0:
396,324,94204,2,0,P|334:309|269:311,1,130,2|0,0:0|0:0,0:0:0:0:
224,349,94846,2,0,L|154:359,1,65,8|2,0:0|0:0,0:0:0:0:
102,350,95275,5,2,1:0:0:0:
45,247,95704,2,0,P|42:202|47:171,1,65,8|2,0:0|0:0,0:0:0:0:
88,143,96132,2,0,P|90:110|87:78,1,65,0|2,1:0|0:0,0:0:0:0:
57,27,96561,1,8,0:0:0:0:
171,52,96989,2,0,L|278:41,1,97.5,6|2,1:2|1:2,0:0:0:0:
297,130,97632,1,2,1:2:0:0:
297,130,97846,2,0,L|200:139,2,97.5,2|2|2,1:3|1:3|1:3,0:0:0:0:
340,170,98704,5,6,1:0:0:0:
443,223,99132,2,0,L|433:308,1,65,10|2,0:0|0:0,0:0:0:0:
425,345,99561,2,0,L|340:335,1,65,0|2,1:0|0:0,0:0:0:0:
302,330,99989,1,8,0:0:0:0:
267,217,100418,2,0,P|235:212|204:221,1,65,2|2,1:2|0:0,0:0:0:0:
146,212,100846,2,0,P|125:237|118:268,1,65,8|2,0:0|0:0,0:0:0:0:
145,319,101275,2,0,L|225:309,2,65,2|2|10,1:2|0:0|0:0,0:0:0:0:
107,364,101918,1,2,0:0:0:0:
107,364,102132,5,2,1:0:0:0:
35,271,102561,2,0,L|26:201,1,65,8|2,0:0|0:0,0:0:0:0:
74,172,102989,2,0,P|81:137|73:106,1,65,2|2,1:2|0:0,0:0:0:0:
19,87,103418,2,0,P|12:55|19:23,1,65,8|2,0:0|0:0,0:0:0:0:
73,4,103846,1,2,1:2:0:0:
73,4,104061,2,0,B|128:11|128:11|145:26|145:26|197:34,1,130,2|2,0:0|0:0,0:0:0:0:
247,5,104704,1,2,1:2:0:0:
334,82,105132,2,0,L|344:160,1,65,10|2,0:0|1:2,0:0:0:0:
316,198,105561,5,2,1:0:0:0:
238,285,105989,2,0,L|161:294,1,65,10|2,0:0|0:0,0:0:0:0:
134,335,106418,2,0,L|69:327,1,65,2|2,1:2|0:0,0:0:0:0:
37,279,106846,1,10,0:0:0:0:
24,162,107275,2,0,P|55:109|118:106,1,130,2|8,1:2|0:0,0:0:0:0:
152,160,107918,1,2,0:0:0:0:
152,160,108132,2,0,P|193:170|230:173,1,65,2|2,1:2|0:0,0:0:0:0:
254,216,108561,2,0,P|287:212|318:204,1,65,10|2,0:2|0:0,0:0:0:0:
357,160,108989,5,2,1:0:0:0:
444,82,109418,2,0,P|448:145|458:220,1,130,8|2,0:0|1:2,0:0:0:0:
491,260,110061,1,2,0:0:0:0:
491,260,110275,2,0,P|474:297|479:328,1,65,8|2,0:0|0:0,0:0:0:0:
512,368,110704,2,0,P|449:379|387:363,1,130,2|10,1:2|0:0,0:0:0:0:
302,280,111561,2,0,B|294:217|294:217|277:201,2,86.6666666666667,6|2|2,1:2|1:2|1:2,0:0:0:0:
266,329,112418,5,0,1:0:0:0:
188,241,112846,2,0,L|197:176,1,65,0|2,1:2|1:2,0:0:0:0:
165,127,113275,2,0,L|300:113,1,130,2|2,1:2|1:2,0:0:0:0:
348,148,113918,1,0,1:0:0:0:
348,148,114132,2,0,P|381:148|412:140,1,65,2|2,1:2|1:2,0:0:0:0:
468,123,114561,2,0,L|482:203,1,65,2|2,1:2|1:2,0:0:0:0:
490,244,114989,1,0,1:3:0:0:
373,258,115418,2,2,P|340:255|312:239,1,65,10|0,0:3|0:0,0:1:0:0:
279,191,115846,6,0,L|293:74,2,97.5,2|0|0,0:0|0:0|0:0,0:0:0:0:
220,200,116704,2,0,P|188:184|110:184,1,97.5,2|0,0:0|0:0,0:0:0:0:
21,280,117561,2,0,L|7:397,2,97.5,2|0|0,0:0|0:0|0:0,0:0:0:0:
65,241,118419,2,0,P|49:209|49:131,1,97.5,2|0,0:0|0:0,0:0:0:0:
111,90,119061,1,0,0:0:0:0:
111,90,119275,6,0,B|146:69|146:69|216:67,2,97.5,2|0|0,0:0|0:0|0:0,0:0:0:0:
134,143,120132,2,0,L|230:156,1,97.5,2|0,0:0|0:0,0:0:0:0:
330,263,120989,2,0,L|317:359,2,97.5,2|0|0,0:0|0:0|0:0,0:0:0:0:
357,211,121846,2,0,B|222:236|263:299|120:316,1,260,2|0,0:0|0:0,0:0:0:0:
