osu file format v14

[General]
AudioFilename: audio.mp3
AudioLeadIn: 0
PreviewTime: 84877
Countdown: 0
SampleSet: Soft
StackLeniency: 0.6
Mode: 0
LetterboxInBreaks: 0
WidescreenStoryboard: 1

[Editor]
Bookmarks: 2699,16413,30127,43841,57556,71270,84984,98699,112413,115841,122699
DistanceSpacing: 1
BeatDivisor: 4
GridSize: 16
TimelineZoom: 2.7

[Metadata]
Title:ChaserXX
TitleUnicode:ChaserXX
Artist:HuMeR
ArtistUnicode:HuΣeR
Creator:Hishiro Chizuru
Version:Icekalt's Extra
Source:beatmania IIDX 25 CANNON BALLERS
Tags:amb1d3x HuSeR 濱田有共 Aritomo Hamada CYBERNETICS PIANO HOUSE konami bemani electronic instrumental Realazy lcfc LowComboFC xenon- xehn xen Otosaka-Yu Suzuki_1112 1112deng icekalt deep fried ice ULTIMATE MOBILE video game
BeatmapID:2790639
BeatmapSetID:1293408

[Difficulty]
HPDrainRate:5
CircleSize:3
OverallDifficulty:8.8
ApproachRate:9.2
SliderMultiplier:2.1
SliderTickRate:1

[Events]
//Background and Video events
0,0,"amogus.jpg",0,0
//Break Periods
2,71475,76705
//Storyboard Layer 0 (Background)
//Storyboard Layer 1 (Fail)
//Storyboard Layer 2 (Pass)
//Storyboard Layer 3 (Foreground)
//Storyboard Layer 4 (Overlay)
//Storyboard Sound Samples

[TimingPoints]
2704,428.571428571429,4,2,1,50,1,0
16418,-285.714285714284,4,2,1,65,0,0
16846,-76.9230769230769,4,2,1,65,0,0
23275,-76.9230769230769,4,2,1,50,0,0
23811,-76.9230769230769,4,2,1,55,0,0
24132,-76.9230769230769,4,2,1,60,0,0
24775,-76.9230769230769,4,2,1,65,0,0
25846,-76.9230769230769,4,2,1,70,0,0
27561,-66.6666666666667,4,2,1,80,0,0
27614,-66.6666666666667,4,2,1,50,0,0
27989,-66.6666666666667,4,2,1,80,0,0
28042,-66.6666666666667,4,2,1,50,0,0
28418,-66.6666666666667,4,2,1,80,0,0
29596,-66.6666666666667,4,2,1,5,0,0
29704,-66.6666666666667,4,2,1,70,0,0
29811,-66.6666666666667,4,2,1,65,0,0
29918,-66.6666666666667,4,2,1,60,0,0
30025,-66.6666666666667,4,2,1,55,0,0
30132,-66.6666666666667,4,2,1,70,0,0
30561,-66.6666666666667,4,2,1,90,0,0
30882,-66.6666666666667,4,2,1,5,0,0
30989,-66.6666666666667,4,2,1,70,0,0
33132,-285.714285714284,4,2,1,30,0,0
33561,-66.6666666666667,4,2,1,70,0,0
36293,-66.6666666666667,4,2,1,5,0,0
36346,-66.6666666666667,4,2,1,70,0,0
39989,-285.714285714284,4,2,1,30,0,0
40418,-66.6666666666667,4,2,1,60,0,0
40632,-66.6666666666667,4,2,1,70,0,0
43096,-66.6666666666667,4,2,1,5,0,0
43204,-66.6666666666667,4,2,1,70,0,0
43311,-66.6666666666667,4,2,1,5,0,0
43418,-66.6666666666667,4,2,1,70,0,0
43846,-153.846153846153,4,2,1,80,0,0
44275,-52.6315789473684,4,2,1,80,0,0
45025,-62.5,4,2,1,80,0,0
56811,-62.5,4,2,2,80,0,0
57132,-62.5,4,2,1,80,0,0
57561,-153.846153846153,4,2,1,80,0,0
57989,-52.6315789473684,4,2,1,80,0,0
58418,-62.5,4,2,1,80,0,0
60132,-52.6315789473684,4,2,1,80,0,0
60293,-52.6315789473684,4,2,1,5,0,0
60346,-52.6315789473684,4,2,1,80,0,0
61418,-62.5,4,2,1,80,0,0
63561,-52.6315789473684,4,2,1,85,0,0
63989,-52.6315789473684,4,2,2,90,0,0
64418,-62.5,4,2,1,80,0,0
66293,-62.5,4,2,1,5,0,0
66346,-62.5,4,2,1,80,0,0
71275,-62.5,4,2,1,70,0,0
75400,-62.5,4,2,1,5,0,0
75668,-62.5,4,2,1,60,0,0
77275,-71.4285714285714,4,2,1,60,0,0
77811,-71.4285714285714,4,2,11,80,0,0
78132,-71.4285714285714,4,2,1,60,0,0
78989,-71.4285714285714,4,2,1,65,0,0
79846,-71.4285714285714,4,2,1,70,0,0
80704,-71.4285714285714,4,2,1,75,0,0
81561,-71.4285714285714,4,2,1,80,0,0
82418,-71.4285714285714,4,2,1,85,0,0
83275,-71.4285714285714,4,2,1,90,0,0
84132,-71.4285714285714,4,2,1,95,0,0
84561,-52.6315789473684,4,2,69,95,0,0
84668,-52.6315789473684,4,2,1,95,0,0
84989,-62.5,4,2,1,90,0,1
90132,-62.5,4,2,1,95,0,1
90668,-62.5,4,2,1,100,0,1
90989,-62.5,4,2,1,90,0,1
91418,-62.5,4,2,2,100,0,1
91632,-62.5,4,2,1,100,0,1
91846,-52.6315789473684,4,2,1,90,0,1
92275,-62.5,4,2,1,90,0,1
98275,-62.5,4,2,2,90,0,1
98382,-62.5,4,2,1,90,0,1
98704,-58.8235294117647,4,2,1,95,0,1
102132,-52.6315789473684,4,2,1,95,0,1
102561,-58.8235294117647,4,2,1,95,0,1
105132,-58.8235294117647,4,2,2,95,0,1
105561,-52.6315789473684,4,2,1,95,0,1
106096,-58.8235294117647,4,2,1,95,0,1
107275,-52.6315789473684,4,2,1,95,0,1
107704,-58.8235294117647,4,2,1,95,0,1
108561,-58.8235294117647,4,2,2,95,0,1
108989,-58.8235294117647,4,2,1,95,0,1
112418,-58.8235294117647,4,2,1,80,0,1
114132,-52.6315789473684,4,2,1,85,0,1
114989,-100,4,2,1,90,0,1
115418,-47.6190476190476,4,2,11,80,0,1
115739,-47.6190476190476,4,2,2,5,0,0
118418,-47.6190476190476,4,2,1,70,0,0
119275,-47.6190476190476,4,2,1,60,0,0
120132,-47.6190476190476,4,2,1,50,0,0
120989,-47.6190476190476,4,2,1,40,0,0
121846,-47.6190476190476,4,2,1,30,0,0

[Colours]
Combo1 : 154,237,241
Combo2 : 159,201,217
Combo3 : 250,163,165
Combo4 : 142,142,253

[HitObjects]
323,283,2704,6,0,L|490:251,1,157.5,6|2,0:0|0:0,0:0:0:0:
183,283,3561,2,0,L|350:315,1,157.5,2|2,0:0|0:0,0:0:0:0:
43,283,4418,2,0,L|210:251,1,157.5,2|2,0:0|0:0,0:0:0:0:
126,369,5275,5,2,0:0:0:0:
126,369,5596,1,2,0:0:0:0:
126,369,5811,1,0,0:0:0:0:
126,369,5918,1,0,0:0:0:0:
43,283,6132,2,0,L|210:251,1,157.5,2|2,0:0|0:0,0:0:0:0:
19,107,6989,5,2,0:0:0:0:
122,49,7311,1,2,0:0:0:0:
212,141,7632,1,2,0:0:0:0:
332,47,7846,1,0,0:0:0:0:
335,37,7954,1,2,0:0:0:0:
450,177,8329,1,2,0:0:0:0:
512,101,9132,1,2,0:0:0:0:
328,318,9346,5,0,1:0:0:0:
260,215,9561,5,2,1:2:0:0:
258,199,9668,1,2,0:0:0:0:
256,183,9775,1,0,0:0:0:0:
233,211,9882,1,2,0:0:0:0:
355,147,10418,5,2,0:0:0:0:
357,131,10525,1,2,0:0:0:0:
359,115,10632,1,0,0:0:0:0:
382,143,10739,1,2,0:0:0:0:
227,102,11275,5,2,0:0:0:0:
225,86,11382,1,2,0:0:0:0:
223,70,11489,1,0,0:0:0:0:
200,98,11596,1,2,0:0:0:0:
322,34,12132,5,2,0:0:0:0:
324,18,12239,1,2,0:0:0:0:
326,2,12346,1,0,0:0:0:0:
349,30,12453,1,2,0:0:0:0:
172,165,12775,2,0,L|136:181,2,35,0|0|0,1:0|1:0|1:0,0:0:0:0:
242,222,12989,5,2,1:2:0:0:
241,237,13096,1,2,0:0:0:0:
240,252,13204,1,0,0:0:0:0:
266,281,13311,1,2,0:0:0:0:
356,186,13846,5,2,0:0:0:0:
355,171,13953,1,2,0:0:0:0:
354,156,14061,1,0,0:0:0:0:
380,127,14168,1,2,0:0:0:0:
498,306,14704,5,0,1:2:0:0:
491,358,14811,1,0,0:0:0:0:
438,354,14918,1,2,0:0:0:0:
445,302,15025,1,0,1:0:0:0:
439,292,15346,1,2,0:0:0:0:
481,110,15561,5,6,1:2:0:0:
481,110,15882,1,2,0:0:0:0:
481,110,16204,1,2,0:0:0:0:
197,243,16418,6,0,P|186:223|214:228,1,55.1249983177186,6|2,1:2|0:0,0:0:0:0:
260,308,16846,6,2,P|242:197|214:79,1,204.749990627289,2|0,0:0|0:0,0:1:0:0:
351,264,17275,2,0,P|397:271|477:330,1,136.499993751526,0|0,1:0|0:0,0:0:0:0:
478,301,17597,1,0,0:0:0:0:
452,183,17704,2,0,P|506:206|509:229,2,68.2499968757631,2|0|2,0:0|0:0|0:0,0:0:0:0:
299,126,18132,6,0,P|376:104|465:55,1,136.499993751526,2|0,1:2|0:0,0:0:0:0:
286,115,18454,2,0,P|209:137|120:186,1,136.499993751526,2|0,0:0|0:0,0:0:0:0:
165,145,18775,1,0,1:0:0:0:
54,295,18989,5,0,1:0:0:0:
50,281,19096,1,0,0:0:0:0:
51,267,19204,1,0,0:0:0:0:
58,255,19311,1,0,0:0:0:0:
69,247,19418,1,2,0:0:0:0:
84,256,19525,1,2,0:0:0:0:
107,242,19632,1,2,0:0:0:0:
132,256,19739,1,0,0:0:0:0:
165,229,19846,1,2,1:2:0:0:
281,335,20061,5,0,0:0:0:0:
193,357,20168,1,2,0:0:0:0:
183,347,20489,1,0,0:0:0:0:
335,219,20704,2,0,P|412:241|501:290,1,136.499993751526,0|0,1:0|0:0,0:0:0:0:
322,230,21025,1,0,0:0:0:0:
308,226,21132,1,2,0:0:0:0:
297,217,21239,1,2,0:0:0:0:
289,205,21346,1,2,0:0:0:0:
284,192,21454,1,0,0:0:0:0:
223,266,21561,6,0,P|243:195|241:120,1,136.499993751526,2|0,1:2|0:0,0:0:0:0:
232,283,21882,1,2,0:0:0:0:
241,300,22204,1,0,0:0:0:0:
150,191,22418,6,0,P|73:213|-16:262,1,136.499993751526,2|0,1:2|0:0,0:0:0:0:
163,202,22740,2,0,P|240:180|329:131,1,136.499993751526,2|0,0:0|0:0,0:0:0:0:
175,212,23061,1,0,1:0:0:0:
446,290,23275,5,0,1:0:0:0:
439,330,23382,1,0,1:0:0:0:
401,347,23489,1,0,1:0:0:0:
362,333,23596,2,0,P|352:300|352:266,1,68.2499968757631,2|0,0:0|0:0,0:0:0:0:
228,296,23811,5,2,1:2:0:0:
251,266,23918,2,0,P|218:276|191:296,1,68.2499968757631,2|0,1:2|0:0,0:0:0:0:
181,163,24132,5,2,1:2:0:0:
161,116,24239,2,0,P|188:137|208:165,1,68.2499968757631,2|0,1:2|1:0,0:0:0:0:
315,31,24454,5,2,1:2:0:0:
310,96,24561,2,0,P|330:69|342:37,1,68.2499968757631,2|0,1:2|0:0,0:0:0:0:
421,150,24775,5,2,1:2:0:0:
493,189,24882,2,0,P|459:188|426:177,1,68.2499968757631,2|0,1:2|1:0,0:0:0:0:
400,371,25096,5,2,1:2:0:0:
352,288,25204,2,0,P|352:322|362:355,1,68.2499968757631,2|0,1:2|1:0,0:0:0:0:
253,216,25418,5,2,1:2:0:0:
201,197,25525,1,2,1:2:0:0:
148,210,25632,1,0,1:0:0:0:
104,243,25739,1,2,1:2:0:0:
89,295,25846,1,2,1:2:0:0:
104,288,25954,2,0,P|121:313|123:361,2,68.2499968757631,2|0|0,1:2|1:0|1:0,0:0:0:0:
6,148,26275,1,2,1:2:0:0:
11,132,26383,2,0,P|40:138|75:171,2,68.2499968757631,2|2|2,1:2|1:2|1:2,0:0:0:0:
176,209,26704,5,2,1:2:0:0:
200,220,26811,1,0,1:0:0:0:
227,218,26918,1,2,1:2:0:0:
249,203,27025,1,0,1:0:0:0:
344,196,27132,1,0,1:0:0:0:
383,184,27239,1,0,1:0:0:0:
418,205,27346,1,2,1:2:0:0:
422,247,27454,1,0,1:0:0:0:
331,180,27561,6,0,L|342:76,1,78.7500030040742,0|0,1:2|0:0,0:0:0:0:
190,130,27775,2,0,L|173:27,1,78.7500030040742,2|0,1:2|1:0,0:0:0:0:
88,342,27989,6,0,L|77:238,1,78.7500030040742,2|0,1:2|1:0,0:0:0:0:
229,292,28203,2,0,L|246:189,1,78.7500030040742,2|0,1:2|1:0,0:0:0:0:
44,77,28418,6,0,P|99:124|193:141,1,157.500006008148,2|0,1:2|1:0,0:0:0:0:
445,30,28739,2,0,P|368:45|308:95,1,157.500006008148,2|0,1:2|1:0,0:0:0:0:
276,279,29061,2,0,P|288:245|277:191,1,78.7500030040742,2|0,1:2|1:0,0:0:0:0:
14,356,29275,5,6,1:2:0:0:
102,336,29489,1,2,0:0:0:0:
0,263,29704,1,2,0:0:0:0:
88,243,29918,1,2,0:0:0:0:
333,94,30132,6,0,L|326:195,1,78.7500030040742,2|0,1:2|0:0,0:0:0:0:
252,41,30346,1,2,1:2:0:0:
237,46,30454,1,2,0:0:0:0:
145,26,30561,2,2,B|224:23|219:135|151:116|185:230,1,236.250009012223,2|0,1:0|0:0,0:1:0:0:
365,274,30989,6,0,L|281:288,1,78.7500030040742,0|0,1:0|0:0,0:0:0:0:
208,335,31204,1,2,0:0:0:0:
179,339,31311,1,2,0:0:0:0:
151,346,31418,1,0,1:0:0:0:
237,378,31525,1,2,0:0:0:0:
377,263,31846,6,0,L|363:179,1,78.7500030040742,0|0,1:0|0:0,0:0:0:0:
290,117,32061,1,2,0:0:0:0:
286,88,32168,1,2,0:0:0:0:
279,60,32275,1,0,1:0:0:0:
247,146,32382,1,2,0:0:0:0:
365,274,32704,6,0,L|281:288,1,78.7500030040742,0|0,1:0|0:0,0:0:0:0:
183,299,32918,1,2,0:0:0:0:
154,303,33025,1,2,0:0:0:0:
214,383,33132,6,0,B|205:377|205:377|202:322,1,55.1249983177186,2|0,0:0|0:0,0:0:0:0:
160,212,33561,6,0,P|170:173|203:144,1,78.7500030040742,2|0,1:2|0:0,0:0:0:0:
233,58,33775,1,2,0:0:0:0:
260,43,33882,1,2,0:0:0:0:
291,41,33989,1,0,1:0:0:0:
206,33,34096,1,2,0:0:0:0:
145,238,34418,6,0,P|127:201|134:158,1,78.7500030040742,0|0,1:0|0:0,0:0:0:0:
77,85,34632,1,2,0:0:0:0:
88,56,34739,1,2,0:0:0:0:
110,34,34846,1,0,1:0:0:0:
40,83,34953,1,2,0:0:0:0:
239,274,35275,6,0,P|276:259|301:223,1,78.7500030040742,0|0,1:0|0:0,0:0:0:0:
396,187,35489,1,2,0:0:0:0:
401,156,35596,1,2,0:0:0:0:
393,126,35703,1,0,1:0:0:0:
428,204,35810,1,2,0:0:0:0:
129,281,36132,6,0,P|111:244|118:201,1,78.7500030040742,0|0,1:0|0:0,0:0:0:0:
223,317,36346,2,0,P|260:302|285:266,1,78.7500030040742,2|0,0:0|0:0,0:0:0:0:
263,70,36561,1,4,1:2:0:0:
382,10,36775,1,2,0:0:0:0:
392,14,36846,1,2,0:0:0:0:
402,18,36918,1,2,0:0:0:0:
412,23,36989,6,0,L|425:126,1,78.7500030040742,6|0,1:2|0:0,0:0:0:0:
363,175,37204,1,2,0:0:0:0:
332,166,37311,1,2,0:0:0:0:
301,159,37418,1,0,1:0:0:0:
380,215,37525,1,2,0:0:0:0:
173,104,37846,6,0,L|160:207,1,78.7500030040742,0|0,1:0|0:0,0:0:0:0:
214,258,38061,1,2,0:0:0:0:
245,249,38168,1,2,0:0:0:0:
276,242,38275,1,0,1:0:0:0:
197,298,38382,1,2,0:0:0:0:
434,186,38704,6,0,L|447:289,1,78.7500030040742,0|0,1:0|0:0,0:0:0:0:
393,340,38919,1,2,0:0:0:0:
362,331,39026,1,2,0:0:0:0:
331,324,39133,1,0,1:0:0:0:
410,380,39240,1,2,0:0:0:0:
176,245,39561,6,0,L|163:348,1,78.7500030040742,0|0,1:0|0:0,0:0:0:0:
75,203,39775,1,2,0:0:0:0:
71,187,39882,1,2,0:0:0:0:
30,276,39989,6,0,B|22:286|22:286|32:336,1,55.1249983177186
194,233,40418,6,0,P|206:189|204:146,1,78.7500030040742,0|0,1:0|0:0,0:0:0:0:
289,65,40632,1,2,0:0:0:0:
314,46,40739,1,2,0:0:0:0:
345,45,40846,1,0,1:0:0:0:
278,95,40954,1,2,0:0:0:0:
174,274,41275,6,0,P|162:230|164:187,1,78.7500030040742,2|0,1:2|0:0,0:0:0:0:
68,124,41489,1,2,0:0:0:0:
43,105,41596,1,0,0:0:0:0:
12,104,41703,1,2,1:2:0:0:
79,154,41811,1,0,0:0:0:0:
191,317,42132,6,0,P|203:273|201:230,1,78.7500030040742,0|0,1:0|0:0,0:0:0:0:
304,175,42346,1,2,0:0:0:0:
329,156,42453,1,0,0:0:0:0:
360,155,42560,1,2,1:2:0:0:
293,205,42668,1,0,0:0:0:0:
82,329,42989,6,0,L|-1:348,1,78.7500030040742,4|0,1:0|0:0,0:0:0:0:
316,351,43204,2,0,L|392:387,1,78.7500030040742,2|0,0:0|0:0,0:0:0:0:
210,162,43418,1,2,0:0:0:0:
203,257,43632,1,2,0:0:0:0:
201,45,43846,6,0,B|251:33|251:33|205:60,1,102.374995313645,4|0,1:0|0:0,0:0:0:0:
16,143,44275,2,2,P|42:41|198:85,1,299.249992009163,10|0,1:2|0:0,0:1:0:0:
173,169,44704,1,0,1:0:0:0:
450,292,45025,1,2,0:0:0:0:
476,378,45132,1,10,0:2:0:0:
458,353,45239,1,2,0:0:0:0:
430,342,45346,1,2,0:0:0:0:
400,338,45454,1,2,0:0:0:0:
364,384,45561,6,0,P|361:305|342:183,1,168,2|0,1:2|0:0,0:0:0:0:
376,174,45882,1,2,0:0:0:0:
463,189,45989,1,10,0:0:0:0:
478,181,46096,1,0,0:0:0:0:
489,168,46204,1,0,0:0:0:0:
496,152,46311,1,0,0:0:0:0:
499,135,46418,2,0,P|474:99|436:81,3,84,2|2|2|2,1:2|0:0|0:0|0:0,0:0:0:0:
353,4,46846,5,10,1:2:0:0:
331,59,46954,1,2,0:0:0:0:
284,95,47061,1,2,0:0:0:0:
227,112,47168,1,2,0:0:0:0:
134,107,47275,2,0,P|215:147|282:208,1,168,2|0,1:2|0:0,0:0:0:0:
275,216,47596,1,2,0:0:0:0:
179,274,47704,2,0,P|147:241|123:197,3,84,10|2|2|2,0:0|0:0|0:0|0:0,0:0:0:0:
13,261,48132,5,2,1:2:0:0:
8,277,48239,1,2,0:0:0:0:
6,293,48346,1,2,0:0:0:0:
7,309,48454,1,2,0:0:0:0:
72,383,48561,1,10,0:2:0:0:
62,324,48668,1,2,0:0:0:0:
40,269,48775,1,2,0:0:0:0:
0,225,48882,1,2,0:0:0:0:
21,136,48989,6,0,P|75:108|136:190,1,168,2|0,1:2|0:0,0:0:0:0:
172,219,49311,1,2,0:0:0:0:
257,182,49418,1,10,0:0:0:0:
208,312,49632,1,0,0:0:0:0:
223,316,49739,1,0,0:0:0:0:
238,321,49846,2,0,L|151:353,3,84,2|2|2|2,1:2|0:0|0:0|0:0,0:0:0:0:
272,198,50275,1,4,1:2:0:0:
307,192,50382,1,2,0:0:0:0:
354,205,50489,1,2,1:2:0:0:
386,260,50596,1,2,0:0:0:0:
353,347,50704,6,0,P|347:278|363:96,1,252,2|0,1:2|0:0,0:0:0:0:
388,88,51132,1,8,0:0:0:0:
272,51,51346,1,2,0:0:0:0:
121,271,51561,2,0,P|101:226|12:118,1,168,2|0,1:2|0:0,0:0:0:0:
121,370,51882,2,0,P|141:325|230:217,1,168,2|0,0:0|0:0,0:0:0:0:
291,345,52204,1,2,0:2:0:0:
302,346,52275,1,2,0:0:0:0:
312,347,52346,1,2,0:0:0:0:
323,348,52418,2,0,P|324:282|231:253,1,168,2|0,1:2|0:0,0:0:0:0:
486,19,52846,6,0,L|477:109,5,84,10|2|2|2|2|2,0:0|0:0|0:0|0:0|1:2|0:0,0:0:0:0:
341,79,53489,6,0,P|356:94|374:126,2,56,2|2|2,0:0|0:0|0:0,0:0:0:0:
283,161,53704,2,0,P|281:182|269:216,2,56,10|2|2,0:0|0:0|0:0,0:0:0:0:
236,78,53918,1,2,0:0:0:0:
225,75,53989,1,2,0:0:0:0:
213,74,54061,1,0,0:0:0:0:
201,75,54132,1,0,1:0:0:0:
41,330,54454,1,0,0:0:0:0:
8,242,54561,2,0,P|60:304|142:371,1,168,8|0,0:0|0:0,0:0:0:0:
342,183,54989,6,0,P|403:158|510:140,1,168,2|0,1:2|0:0,0:0:0:0:
336,202,55311,2,0,P|275:227|168:245,1,168,2|0,0:0|0:0,0:0:0:0:
347,165,55632,1,2,0:0:0:0:
347,153,55704,1,2,0:0:0:0:
343,142,55775,1,2,0:0:0:0:
335,133,55846,2,0,P|309:94|299:49,3,84,2|2|2|2,1:2|0:0|0:0|0:0,0:0:0:0:
447,153,56275,5,8,0:0:0:0:
474,204,56382,1,2,0:2:0:0:
474,262,56489,1,0,1:2:0:0:
446,314,56596,1,2,1:2:0:0:
439,300,56704,1,4,1:0:0:0:
499,384,56918,1,2,0:0:0:0:
213,271,57132,1,10,0:0:0:0:
288,23,57346,1,2,0:0:0:0:
37,361,57561,6,0,B|11:332|11:332|40:243,1,102.374995313645,6|0,1:2|0:0,0:0:0:0:
42,87,57989,2,2,P|14:182|207:244,1,299.249992009163,10|0,0:0|0:0,0:1:0:0:
175,261,58418,2,0,P|173:226|154:170,3,84,0|2|2|2,1:0|0:0|0:0|0:0,0:0:0:0:
241,105,58846,1,10,0:0:0:0:
265,193,58954,1,2,0:0:0:0:
278,162,59061,1,2,0:0:0:0:
280,128,59168,1,2,0:0:0:0:
329,94,59275,6,0,P|374:94|411:134,1,84,2|0,1:2|0:0,0:0:0:0:
410,138,59489,1,2,0:0:0:0:
498,106,59596,1,2,0:0:0:0:
510,125,59704,2,0,L|487:223,3,84,10|2|2|2,0:0|0:0|0:0|0:0,0:0:0:0:
512,342,60132,6,2,B|481:294|481:294|375:324|375:324|368:315|368:315|232:351,1,299.249992009163,2|0,1:0|0:0,0:1:0:0:
233,326,60561,1,10,0:0:0:0:
259,272,60668,1,2,0:0:0:0:
269,213,60775,1,2,0:0:0:0:
269,153,60882,1,2,0:0:0:0:
203,92,60989,1,2,1:2:0:0:
184,88,61096,1,0,0:0:0:0:
167,96,61204,1,2,0:0:0:0:
156,112,61311,1,2,0:0:0:0:
153,131,61418,6,0,P|128:174|8:138,1,168,10|0,0:0|0:0,0:0:0:0:
220,340,61846,2,0,P|256:325|265:369,3,84,2|2|2|2,1:0|0:0|0:0|0:0,0:0:0:0:
132,372,62275,1,10,0:0:0:0:
115,358,62382,1,2,0:0:0:0:
99,328,62489,1,2,0:0:0:0:
96,272,62596,1,2,0:0:0:0:
155,202,62704,2,0,L|250:218,1,84,2|2,1:2|0:0,0:0:0:0:
319,168,62918,5,2,0:0:0:0:
309,84,63025,1,2,0:0:0:0:
304,0,63132,1,8,0:0:0:0:
326,82,63239,1,0,0:0:0:0:
336,166,63346,1,0,1:0:0:0:
346,250,63453,1,0,0:0:0:0:
336,265,63561,6,2,B|317:326|317:326|198:304|198:304|195:284|195:284|84:352,1,299.249992009163,0|0,1:0|0:0,0:1:0:0:
36,294,63989,5,10,0:0:0:0:
26,265,64096,1,2,0:0:0:0:
35,228,64204,1,2,1:2:0:0:
75,190,64311,1,2,0:0:0:0:
159,194,64418,2,0,B|75:116|75:116|192:23,1,252,2|0,1:2|0:0,0:0:0:0:
197,42,64846,1,8,0:0:0:0:
77,0,65061,1,0,0:0:0:0:
312,207,65275,6,0,P|336:153|399:55,1,168,2|0,1:2|0:0,0:0:0:0:
416,350,65596,2,0,P|392:296|329:198,1,168,2|0,0:0|0:0,0:0:0:0:
285,327,65918,1,2,1:2:0:0:
274,329,65989,1,2,0:0:0:0:
263,331,66061,1,2,0:0:0:0:
252,332,66132,2,2,P|176:335|72:355,1,168,0|0,1:0|0:0,0:1:0:0:
262,22,66561,6,0,L|285:111,5,84,8|2|2|2|2|2,0:0|0:0|0:0|0:0|1:2|0:0,0:0:0:0:
379,163,67204,2,0,P|388:181|397:216,2,56,2|2|2,0:0|0:0|0:0,0:0:0:0:
291,200,67419,2,0,P|289:221|277:255,2,56,10|2|2,0:0|0:0|0:0,0:0:0:0:
200,177,67633,1,2,0:0:0:0:
188,172,67704,1,2,0:0:0:0:
178,165,67776,1,0,0:0:0:0:
170,157,67847,1,2,1:2:0:0:
471,330,68169,1,0,0:0:0:0:
504,242,68276,2,0,P|452:304|370:371,1,168,8|0,0:0|0:0,0:0:0:0:
134,250,68704,6,0,P|195:225|302:207,1,168,2|0,1:2|0:0,0:0:0:0:
128,269,69026,2,0,P|67:294|16:210,1,168,2|0,0:0|0:0,0:0:0:0:
97,138,69347,1,2,1:2:0:0:
97,126,69419,1,2,0:0:0:0:
93,115,69490,1,2,0:0:0:0:
85,106,69561,2,0,P|59:67|49:22,3,84,2|2|2|2,1:2|0:0|0:0|0:0,0:0:0:0:
195,177,69990,5,8,0:0:0:0:
238,137,70097,1,2,0:0:0:0:
292,115,70204,1,2,0:0:0:0:
350,109,70311,1,2,0:0:0:0:
360,120,70419,5,8,1:3:0:0:
459,109,70561,1,4,0:3:0:0:
483,12,70704,1,4,0:3:0:0:
367,136,70846,5,8,0:3:0:0:
410,232,70989,1,4,0:3:0:0:
512,225,71132,1,4,0:3:0:0:
370,153,71275,5,6,1:2:0:0:
297,259,77275,6,0,B|303:281|283:298|283:298|288:331|288:331|252:266|252:266|211:260|211:260|405:194,1,367.49998878479,4|10,1:0|0:3,0:0:0:0:
16,107,78132,5,4,1:0:0:0:
0,85,78239,2,0,L|10:3,2,73.4999977569581,2|0|2,0:0|0:0|0:0,0:0:0:0:
116,175,78561,1,2,1:2:0:0:
132,153,78668,2,0,L|122:71,2,73.4999977569581,0|0|0,1:0|0:0|0:0,0:0:0:0:
216,219,78989,5,2,1:2:0:0:
230,224,79096,1,0,1:0:0:0:
244,228,79204,1,0,1:0:0:0:
258,233,79311,1,0,1:0:0:0:
312,200,79418,5,2,1:2:0:0:
263,217,79525,1,0,1:0:0:0:
214,234,79632,1,0,1:0:0:0:
165,251,79739,1,0,1:0:0:0:
112,331,79846,5,2,1:2:0:0:
108,343,79954,1,0,1:0:0:0:
200,337,80061,1,0,1:0:0:0:
196,349,80169,1,0,1:0:0:0:
288,343,80274,1,2,1:2:0:0:
326,307,80382,1,0,1:0:0:0:
340,257,80489,1,0,1:0:0:0:
329,206,80596,1,0,1:0:0:0:
270,139,80704,5,2,1:2:0:0:
290,117,80811,2,0,L|298:40,2,73.4999977569581,0|0|0,1:0|1:0|1:0,0:0:0:0:
145,76,81132,1,2,1:2:0:0:
170,98,81239,2,0,L|178:175,2,73.4999977569581,2|0|2,1:2|1:2|1:2,0:0:0:0:
87,239,81561,1,2,1:2:0:0:
478,322,81775,1,0,1:0:0:0:
292,370,81989,5,2,1:2:0:0:
317,347,82096,2,0,L|409:362,2,73.4999977569581,0|0|0,1:0|1:0|1:0,0:0:0:0:
232,250,82418,1,2,1:2:0:0:
198,216,82525,2,0,L|106:231,2,73.4999977569581,0|0|0,1:0|1:0|1:0,0:0:0:0:
281,133,82847,1,2,1:2:0:0:
317,85,82954,2,0,L|409:100,2,73.4999977569581,0|0|0,1:0|1:0|1:0,0:0:0:0:
186,115,83275,5,2,1:2:0:0:
166,122,83382,1,0,1:0:0:0:
146,127,83490,1,0,1:0:0:0:
126,134,83597,1,2,1:2:0:0:
50,88,83704,5,0,1:0:0:0:
119,112,83811,1,0,1:0:0:0:
188,136,83918,1,2,1:2:0:0:
258,160,84025,1,0,1:0:0:0:
296,255,84132,1,6,1:2:0:0:
210,312,84346,1,0,0:0:0:0:
487,110,84561,6,0,B|490:82|436:69|422:123|422:125|547:195|482:339,1,299.249992009163,2|0,0:0|0:0,0:0:0:0:
466,340,84989,2,0,L|375:319,1,84,4|0,1:0|0:0,0:0:0:0:
200,382,85204,1,0,0:0:0:0:
85,82,85418,5,14,0:1:0:0:
196,148,85525,2,0,L|296:131,2,84,2|2|2,0:0|0:0|0:0,0:0:0:0:
95,92,85846,5,0,1:0:0:0:
124,228,85954,2,0,L|211:279,2,84,2|2|2,0:0|0:0|0:0,0:0:0:0:
105,102,86275,5,8,0:1:0:0:
109,82,86382,1,2,0:0:0:0:
113,63,86489,1,2,0:0:0:0:
117,44,86596,1,2,0:0:0:0:
32,0,86704,5,0,1:0:0:0:
97,11,86811,1,2,0:0:0:0:
162,23,86918,1,2,0:0:0:0:
227,35,87025,1,2,0:0:0:0:
129,102,87132,5,8,0:1:0:0:
125,82,87239,1,2,0:0:0:0:
121,63,87346,1,2,0:0:0:0:
117,44,87453,1,2,0:0:0:0:
220,135,87561,5,0,1:0:0:0:
223,154,87668,2,0,L|210:202,2,42,2|2|2,0:0|0:0|0:0,0:0:0:0:
113,207,87882,2,0,L|100:255,1,42,2|2,0:0|0:0,0:0:0:0:
120,295,87989,1,10,0:0:0:0:
211,282,88096,1,2,0:0:0:0:
303,270,88204,1,2,0:0:0:0:
395,258,88311,1,2,0:0:0:0:
429,288,88418,1,2,1:0:0:0:
429,288,88632,1,0,0:0:0:0:
466,154,88846,5,8,0:0:0:0:
429,288,88954,2,0,L|339:307,2,84,2|2|2,0:0|0:0|0:0,0:0:0:0:
512,326,89275,5,0,1:0:0:0:
458,164,89383,2,0,L|372:143,2,84,2|2|2,0:0|0:0|0:0,0:0:0:0:
272,122,89704,5,8,0:0:0:0:
340,321,89811,2,0,L|250:340,2,84,2|2|2,0:0|0:0|0:0,0:0:0:0:
179,198,90132,5,0,1:0:0:0:
150,323,90239,1,2,0:1:0:0:
145,305,90346,1,2,0:1:0:0:
140,285,90454,1,2,0:1:0:0:
64,175,90561,5,8,0:0:0:0:
35,300,90668,1,2,0:1:0:0:
30,282,90775,1,2,0:1:0:0:
25,262,90883,1,2,0:1:0:0:
64,175,90989,5,0,1:0:0:0:
50,161,91096,2,0,L|6:174,2,42,2|2|2,0:0|0:0|0:0,0:0:0:0:
122,79,91311,5,0,1:2:0:0:
136,65,91418,1,8,0:0:0:0:
226,48,91525,1,2,1:2:0:0:
292,112,91632,1,0,1:0:0:0:
265,200,91739,1,0,1:2:0:0:
332,281,91846,6,2,B|322:198|322:198|254:149|254:149|277:66|277:66|329:103,1,299.249992009163,6|0,1:0|0:0,0:1:0:0:
161,202,92275,5,8,0:0:0:0:
34,119,92382,2,0,L|18:203,2,84,2|2|2,0:0|0:0|0:0,0:0:0:0:
98,297,92704,5,0,1:2:0:0:
125,346,92811,1,2,0:0:0:0:
77,373,92918,1,2,0:0:0:0:
50,324,93025,1,0,0:0:0:0:
154,183,93132,5,8,0:0:0:0:
139,209,93239,1,2,0:0:0:0:
165,224,93346,1,2,0:0:0:0:
180,197,93453,1,2,0:0:0:0:
257,304,93561,5,0,1:0:0:0:
255,312,93668,1,0,0:0:0:0:
253,319,93775,1,2,0:0:0:0:
250,327,93882,1,0,0:0:0:0:
333,376,93989,6,0,L|433:345,1,84,8|0,0:0|0:0,0:0:0:0:
313,168,94204,2,0,L|397:181,1,84,2|0,0:0|0:0,0:0:0:0:
287,76,94418,1,0,1:0:0:0:
299,59,94525,2,0,L|344:48,2,42,2|0|0,0:0|0:0|0:0,0:0:0:0:
190,18,94739,5,0,0:0:0:0:
144,98,94846,1,8,0:0:0:0:
190,178,94954,1,2,0:0:0:0:
144,258,95061,1,2,0:0:0:0:
189,338,95168,1,2,0:0:0:0:
181,354,95275,1,2,1:0:0:0:
292,341,95489,1,0,0:0:0:0:
459,40,95703,5,8,0:0:0:0:
365,149,95811,2,0,L|387:241,2,84,2|2|2,0:0|0:0|0:0,0:0:0:0:
281,236,96131,5,0,1:0:0:0:
188,96,96239,2,0,L|210:4,2,84,2|2|2,0:0|0:0|0:0,0:0:0:0:
104,9,96560,5,8,0:0:0:0:
10,187,96668,2,0,L|32:279,2,84,2|2|2,0:0|0:0|0:0,0:0:0:0:
136,239,96989,5,6,1:2:0:0:
174,280,97096,1,2,0:0:0:0:
173,305,97204,1,2,0:0:0:0:
243,196,97311,5,2,1:2:0:0:
281,237,97418,1,2,0:0:0:0:
280,262,97526,1,2,0:0:0:0:
350,153,97631,5,2,1:2:0:0:
388,194,97738,1,0,1:0:0:0:
457,110,97846,5,2,1:3:0:0:
457,110,97953,1,2,1:3:0:0:
96,381,98168,5,2,1:3:0:0:
117,248,98276,1,8,0:0:0:0:
37,304,98382,1,2,1:3:0:0:
177,326,98490,1,2,1:3:0:0:
114,2,98704,5,6,1:0:0:0:
190,123,98811,2,0,L|203:62,2,44.6250008511543,2|2|2,0:0|0:0|0:0,0:0:0:0:
438,73,99132,5,10,0:0:0:0:
387,154,99239,2,0,L|338:163,2,44.6250008511543,2|2|2,0:0|0:0|0:0,0:0:0:0:
412,173,99454,1,2,0:0:0:0:
334,257,99561,1,0,1:0:0:0:
385,338,99668,2,0,L|434:347,2,44.6250008511543,2|2|2,0:0|0:0|0:0,0:0:0:0:
360,357,99883,1,2,0:0:0:0:
314,274,99989,5,8,0:0:0:0:
243,378,100096,2,0,L|237:326,2,44.6250008511543,2|2|2,0:0|0:0|0:0,0:0:0:0:
76,142,100418,1,2,1:2:0:0:
172,255,100525,2,0,L|178:203,2,44.6250008511543,2|2|2,0:0|0:0|0:0,0:0:0:0:
355,0,100847,1,8,0:0:0:0:
246,139,100954,2,0,L|240:87,2,44.6250008511543,2|2|2,0:0|0:0|0:0,0:0:0:0:
340,315,101275,5,2,1:2:0:0:
449,176,101382,2,0,L|455:228,2,44.6250008511543,2|2|2,0:0|0:0|0:0,0:0:0:0:
434,157,101596,1,2,0:0:0:0:
468,73,101704,1,10,0:0:0:0:
413,2,101811,1,2,0:0:0:0:
324,14,101918,1,2,0:0:0:0:
286,95,102025,1,2,0:0:0:0:
251,193,102132,6,2,B|294:152|294:152|228:27|228:27|178:134,1,299.249992009163,2|0,1:0|0:0,0:1:0:0:
31,242,102561,5,8,0:0:0:0:
185,352,102668,2,0,L|76:336,2,89.2500017023087,2|2|2,0:0|0:0|0:0,0:0:0:0:
324,293,102989,1,2,1:2:0:0:
333,248,103096,1,2,0:0:0:0:
286,239,103204,1,2,0:0:0:0:
277,284,103311,1,2,0:0:0:0:
282,378,103418,5,8,0:0:0:0:
186,230,103525,2,0,L|169:122,2,89.2500017023087,2|2|2,0:0|0:0|0:0,0:0:0:0:
235,60,103846,5,2,1:2:0:0:
328,71,103954,1,2,0:0:0:0:
420,84,104061,1,2,0:0:0:0:
512,96,104168,1,2,0:0:0:0:
432,0,104275,5,10,0:0:0:0:
420,92,104382,1,2,0:0:0:0:
407,184,104489,1,2,0:0:0:0:
396,277,104597,1,2,0:0:0:0:
503,187,104704,5,2,1:2:0:0:
411,175,104811,1,2,0:0:0:0:
319,162,104918,1,2,0:0:0:0:
226,151,105026,1,2,0:0:0:0:
144,231,105132,5,10,0:0:0:0:
147,244,105239,1,2,0:0:0:0:
150,256,105346,1,2,1:2:0:0:
153,269,105454,1,2,0:0:0:0:
58,327,105561,6,2,B|129:305|129:305|178:364|178:364|238:343|238:343|248:322|248:322|323:332,1,299.249992009163,2|0,1:0|0:0,0:1:0:0:
406,374,105989,1,10,0:0:0:0:
479,229,106096,2,0,L|465:166,2,44.6250008511543,2|2|2,0:0|0:0|0:0,0:0:0:0:
301,21,106418,5,2,1:2:0:0:
353,146,106525,2,0,L|339:209,2,44.6250008511543,2|2|2,0:0|0:0|0:0,0:0:0:0:
336,126,106739,1,0,0:0:0:0:
258,172,106846,1,10,0:0:0:0:
180,88,106954,2,0,L|194:25,2,44.6250008511543,2|2|0,0:0|0:0|0:0,0:0:0:0:
161,104,107168,1,0,0:0:0:0:
111,195,107275,6,0,B|205:216|205:216|217:237|217:237|257:192|257:192|268:218|268:218|373:235,1,299.249992009163,2|0,1:2|0:0,0:0:0:0:
371,254,107704,1,8,0:0:0:0:
449,153,107811,2,0,L|501:180,2,44.6250008511543,2|2|2,0:0|0:0|0:0,0:0:0:0:
413,53,108025,1,2,0:0:0:0:
422,37,108132,1,2,1:2:0:0:
317,89,108239,2,0,L|272:66,2,44.6250008511543,2|2|2,0:0|0:0|0:0,0:0:0:0:
349,190,108454,1,0,0:0:0:0:
264,251,108561,5,10,0:2:0:0:
250,247,108668,1,2,0:0:0:0:
236,244,108775,1,2,0:0:0:0:
222,241,108882,1,2,0:0:0:0:
207,347,108989,6,2,B|194:272|194:272|159:246|159:246|215:197|215:197|187:121,1,267.750005106926,2|0,1:0|0:0,0:1:0:0:
200,26,109418,5,8,0:0:0:0:
225,34,109525,1,0,0:0:0:0:
244,52,109632,1,2,0:0:0:0:
177,114,109739,1,2,0:0:0:0:
92,80,109846,2,0,B|22:121|22:121|65:313,1,267.750005106926,2|2,1:2|0:0,0:0:0:0:
152,353,110275,5,8,0:0:0:0:
177,344,110382,1,2,0:0:0:0:
203,346,110489,1,2,0:0:0:0:
285,281,110596,1,2,0:0:0:0:
223,193,110704,2,0,B|292:249|292:249|385:219,1,178.500003404617,2|0,1:2|0:0,0:0:0:0:
415,23,111025,5,2,0:0:0:0:
477,132,111133,2,0,B|408:76|408:76|315:106,1,178.500003404617,10|0,0:0|0:0,0:0:0:0:
299,88,111454,1,2,0:0:0:0:
215,4,111561,5,6,1:2:0:0:
59,154,111704,1,2,1:2:0:0:
212,181,111846,1,2,1:2:0:0:
361,348,111989,5,0,1:0:0:0:
205,198,112132,1,2,1:2:0:0:
358,171,112274,1,2,1:2:0:0:
133,253,112418,5,2,1:2:0:0:
134,337,112525,1,2,1:2:0:0:
147,335,112579,1,2,0:0:0:0:
160,333,112632,1,2,1:2:0:0:
112,64,112846,5,2,1:2:0:0:
84,150,112954,1,2,1:2:0:0:
97,152,113008,1,2,0:0:0:0:
110,154,113061,1,2,1:2:0:0:
323,278,113275,5,2,1:2:0:0:
323,372,113382,1,0,1:0:0:0:
302,368,113436,1,2,0:0:0:0:
281,365,113489,1,2,1:2:0:0:
417,174,113704,5,2,1:2:0:0:
426,73,113811,1,0,1:0:0:0:
406,77,113865,1,2,0:0:0:0:
385,80,113918,1,2,1:2:0:0:
19,134,114132,6,0,L|-2:27,1,99.7499973363877,2|2,1:2|1:2,0:0:0:0:
158,205,114346,2,0,L|179:98,1,99.7499973363877,2|2,1:2|1:2,0:0:0:0:
479,295,114561,6,0,L|500:188,1,99.7499973363877,2|0,1:2|1:0,0:0:0:0:
340,366,114775,2,0,L|319:259,1,99.7499973363877,2|0,1:2|1:0,0:0:0:0:
359,93,114989,6,0,P|386:91|432:100,1,52.5,0|0,1:3|0:0,0:0:0:0:
349,107,115204,2,0,P|322:109|277:94,1,52.5,0|0,1:3|0:0,0:0:0:0:
143,277,115418,6,2,B|150:309|119:331|119:331|124:364|124:364|92:292|92:292|37:279|37:279|241:205,1,440.999986541748,10|2,0:3|2:0,0:1:0:0:
256,192,115954,12,0,122704,0:0:0:0:
