osu file format v14

[General]
AudioFilename: audio.mp3
AudioLeadIn: 0
PreviewTime: 84877
Countdown: 0
SampleSet: Soft
StackLeniency: 0.2
Mode: 0
LetterboxInBreaks: 0
WidescreenStoryboard: 1

[Editor]
Bookmarks: 2699,16413,30127,43841,57556,71270,84984,98699,112413,115841,122699
DistanceSpacing: 0.9
BeatDivisor: 4
GridSize: 8
TimelineZoom: 2.7

[Metadata]
Title:ChaserXX
TitleUnicode:ChaserXX
Artist:HuMeR
ArtistUnicode:HuΣeR
Creator:Hishiro Chizuru
Version:Cybernetics
Source:beatmania IIDX 25 CANNON BALLERS
Tags:amb1d3x HuSeR 濱田有共 Aritomo Hamada CYBERNETICS PIANO HOUSE konami bemani electronic instrumental Realazy lcfc LowComboFC xenon- xehn xen Otosaka-Yu Suzuki_1112 1112deng icekalt deep fried ice ULTIMATE MOBILE video game
BeatmapID:2771171
BeatmapSetID:1293408

[Difficulty]
HPDrainRate:5
CircleSize:3.8
OverallDifficulty:9
ApproachRate:9.3
SliderMultiplier:2.26
SliderTickRate:1

[Events]
//Background and Video events
0,0,"amogus.jpg",0,0
//Break Periods
//Storyboard Layer 0 (Background)
//Storyboard Layer 1 (Fail)
//Storyboard Layer 2 (Pass)
//Storyboard Layer 3 (Foreground)
//Storyboard Layer 4 (Overlay)
//Storyboard Sound Samples

[TimingPoints]
2704,428.571428571429,4,2,1,50,1,0
2704,-111.111111111111,4,2,1,50,0,0
6989,-133.333333333333,4,2,1,50,0,0
9561,-117.647058823529,4,2,1,50,0,0
16418,-133.333333333333,4,2,1,65,0,0
16846,-79.9999999999999,4,2,1,65,0,0
17918,-142.857142857143,4,2,1,65,0,0
19846,-153.846153846153,4,2,1,65,0,0
21561,-166.666666666667,4,2,1,65,0,0
22418,-200,4,2,1,65,0,0
23275,-166.666666666667,4,2,1,50,0,0
23811,-142.857142857143,4,2,1,55,0,0
24132,-125,4,2,1,60,0,0
24775,-111.111111111111,4,2,1,65,0,0
25846,-100,4,2,1,70,0,0
27561,-100,4,2,1,80,0,0
27614,-100,4,2,1,50,0,0
27989,-100,4,2,1,80,0,0
28042,-100,4,2,1,50,0,0
28418,-100,4,2,1,80,0,0
29275,-400,4,2,1,80,0,0
29596,-400,4,2,1,5,0,0
29704,-100,4,2,1,70,0,0
29811,-100,4,2,1,65,0,0
29918,-100,4,2,1,60,0,0
30025,-100,4,2,1,55,0,0
30132,-133.333333333333,4,2,1,70,0,0
30561,-83.3333333333333,4,2,1,90,0,0
30882,-66.6666666666667,4,2,1,5,0,0
30989,-133.333333333333,4,2,1,70,0,0
33132,-90.9090909090909,4,2,1,30,0,0
33561,-100,4,2,1,70,0,0
35275,-74.0740740740741,4,2,1,70,0,0
36293,-74.0740740740741,4,2,1,5,0,0
36346,-74.0740740740741,4,2,1,70,0,0
36989,-80,4,2,1,70,0,0
39989,-83.3333333333333,4,2,1,30,0,0
40418,-100,4,2,1,60,0,0
40632,-80,4,2,1,70,0,0
41918,-66.6666666666667,4,2,1,70,0,0
43096,-66.6666666666667,4,2,1,5,0,0
43204,-66.6666666666667,4,2,1,70,0,0
43311,-66.6666666666667,4,2,1,5,0,0
43418,-66.6666666666667,4,2,1,70,0,0
43846,-133.333333333333,4,2,1,80,0,0
44275,-83.3333333333333,4,2,1,80,0,0
44704,-80,4,2,1,80,0,0
45989,-100,4,2,1,80,0,0
46418,-83.3333333333333,4,2,1,80,0,0
46846,-80,4,2,1,80,0,0
47704,-100,4,2,1,80,0,0
48561,-133.333333333333,4,2,1,80,0,0
49418,-200,4,2,1,80,0,0
50704,-79.9999999999999,4,2,1,80,0,0
51132,-111.111111111111,4,2,1,80,0,0
52846,-100,4,2,1,80,0,0
54132,-83.3333333333333,4,2,1,80,0,0
54989,-71.4285714285714,4,2,1,80,0,0
56061,-83.3333333333333,4,2,1,80,0,0
56811,-83.3333333333333,4,2,2,80,0,0
57132,-95.2380952380952,4,2,1,80,0,0
57346,-111.111111111111,4,2,1,80,0,0
57561,-133.333333333333,4,2,1,80,0,0
57989,-66.6666666666667,4,2,1,80,0,0
58418,-80,4,2,1,80,0,0
60132,-66.6666666666667,4,2,1,80,0,0
60293,-66.6666666666667,4,2,1,5,0,0
60346,-66.6666666666667,4,2,1,80,0,0
60561,-80,4,2,1,80,0,0
61418,-100,4,2,1,80,0,0
63132,-80,4,2,1,80,0,0
63561,-66.6666666666667,4,2,1,85,0,0
63989,-50,4,2,2,90,0,0
64418,-79.9999999999999,4,2,1,80,0,0
66132,-66.6666666666667,4,2,1,80,0,0
66293,-66.6666666666667,4,2,1,5,0,0
66346,-66.6666666666667,4,2,1,80,0,0
66561,-80,4,2,1,80,0,0
68704,-100,4,2,1,80,0,0
69561,-80,4,2,1,80,0,0
71275,-100,4,2,1,70,0,0
71811,-133.333333333333,4,2,1,70,0,0
75400,-133.333333333333,4,2,1,5,0,0
75668,-133.333333333333,4,2,1,60,0,0
77811,-25,4,2,11,80,0,0
78132,-117.647058823529,4,2,1,60,0,0
78989,-111.111111111111,4,2,1,65,0,0
79846,-100,4,2,1,70,0,0
80704,-95.2380952380952,4,2,1,75,0,0
81561,-86.9565217391304,4,2,1,80,0,0
82418,-83.3333333333333,4,2,1,85,0,0
83275,-76.9230769230769,4,2,1,90,0,0
84132,-66.6666666666667,4,2,1,95,0,0
84561,-71.4285714285714,4,2,1,95,0,0
84989,-66.6666666666667,4,2,1,90,0,1
85632,-100,4,2,1,90,0,1
85846,-66.6666666666667,4,2,1,90,0,1
90132,-62.5,4,2,1,95,0,1
90668,-58.8235294117647,4,2,1,100,0,1
90989,-58.8235294117647,4,2,1,90,0,1
91418,-58.8235294117647,4,2,2,100,0,1
91632,-58.8235294117647,4,2,1,100,0,1
91846,-66.6666666666667,4,2,1,90,0,1
93989,-71.4285714285714,4,2,1,90,0,1
94418,-76.9230769230769,4,2,1,90,0,1
95275,-66.6666666666667,4,2,1,90,0,1
98275,-66.6666666666667,4,2,2,90,0,1
98382,-66.6666666666667,4,2,1,90,0,1
98704,-57.1428571428571,4,2,1,95,0,1
99132,-133.333333333333,4,2,1,95,0,1
99989,-62.5,4,2,1,95,0,1
100311,-66.6666666666667,4,2,1,95,0,1
102132,-62.5,4,2,1,95,0,1
104275,-58.8235294117647,4,2,1,95,0,1
104918,-76.9230769230769,4,2,1,95,0,1
105132,-58.8235294117647,4,2,2,95,0,1
105561,-62.5,4,2,1,95,0,1
105989,-133.333333333333,4,2,1,95,0,1
107061,-62.5,4,2,1,95,0,1
107168,-66.6666666666667,4,2,1,95,0,1
108025,-71.4285714285714,4,2,1,95,0,1
108561,-71.4285714285714,4,2,2,95,0,1
108989,-62.5,4,2,1,95,0,1
112418,-133.333333333333,4,2,1,80,0,1
113275,-83.3333333333333,4,2,1,80,0,1
114132,-83.3333333333333,4,2,1,85,0,1
114989,-83.3333333333333,4,2,1,90,0,1
115418,-66.6666666666667,4,2,11,80,0,1
115739,-66.6666666666667,4,2,2,5,0,1
115846,-133.333333333333,4,2,1,60,0,0
118418,-133.333333333333,4,2,1,70,0,0
119275,-133.333333333333,4,2,1,60,0,0
120132,-133.333333333333,4,2,1,50,0,0
120989,-133.333333333333,4,2,1,40,0,0
121846,-133.333333333333,4,2,1,30,0,0

[Colours]
Combo1 : 154,237,241
Combo2 : 159,201,217
Combo3 : 250,163,165
Combo4 : 142,142,253

[HitObjects]
104,338,2704,6,0,L|215:328,1,101.699996896362,6|0,0:0|0:0,0:0:0:0:
205,329,3025,1,2,0:0:0:0:
418,299,3561,2,0,L|306:289,1,101.699996896362,2|0,0:0|0:0,0:0:0:0:
317,290,3882,1,2,0:0:0:0:
103,236,4418,2,0,L|214:226,1,101.699996896362,2|0,0:0|0:0,0:0:0:0:
204,227,4739,1,2,0:0:0:0:
336,118,5275,6,0,P|320:177|407:161,1,152.549995344544,2|2,0:0|0:0,0:0:0:0:
427,110,5811,1,0,0:0:0:0:
427,110,5918,1,0,0:0:0:0:
346,17,6132,2,0,B|298:21|298:21|251:41|251:41|188:46,1,152.549995344544,2|2,0:0|0:0,0:0:0:0:
130,244,6989,6,0,L|18:234,1,84.750003232956,2|0,0:0|0:0,0:0:0:0:
57,226,7311,2,0,L|200:238,1,127.125004849434,2|2,0:0|0:0,0:0:0:0:
485,256,7846,5,0,0:0:0:0:
484,255,7954,2,0,P|461:221|459:179,1,84.750003232956,2|0,0:0|0:0,0:0:0:0:
467,167,8275,1,2,0:0:0:0:
473,160,8346,2,0,P|408:182|340:165,1,141.25000538826
245,97,9025,1,2,0:0:0:0:
245,97,9132,1,2,0:0:0:0:
339,164,9346,1,0,1:0:0:0:
215,284,9561,5,2,1:2:0:0:
199,283,9668,1,2,0:0:0:0:
233,282,9775,1,0,0:0:0:0:
185,286,9882,1,2,0:0:0:0:
388,346,10418,5,2,0:0:0:0:
370,347,10525,1,2,0:0:0:0:
406,349,10632,1,0,0:0:0:0:
354,344,10739,1,2,0:0:0:0:
123,371,11275,5,2,0:0:0:0:
105,372,11382,1,2,0:0:0:0:
141,374,11489,1,0,0:0:0:0:
89,369,11596,1,2,0:0:0:0:
465,262,12132,5,2,0:0:0:0:
445,263,12239,1,2,0:0:0:0:
484,265,12346,1,0,0:0:0:0:
427,259,12453,1,2,0:0:0:0:
45,175,12775,5,0,1:0:0:0:
48,180,12846,1,0,1:0:0:0:
50,185,12918,1,0,1:0:0:0:
52,190,12989,2,0,L|115:184,3,48.0250009160042,2|2|0|2,0:0|0:0|0:0|0:0,0:0:0:0:
455,132,13846,5,2,0:0:0:0:
439,130,13954,1,2,0:0:0:0:
423,129,14061,1,0,0:0:0:0:
407,127,14168,1,2,0:0:0:0:
338,175,14275,5,2,0:0:0:0:
341,180,14346,1,2,0:0:0:0:
344,185,14418,1,2,0:0:0:0:
346,190,14489,2,0,P|357:219|360:251,1,48.0250009160042,2|2,0:0|0:0,0:0:0:0:
245,141,14704,6,0,P|275:104|319:87,1,96.0500018320084,2|2,1:2|0:0,0:0:0:0:
182,71,15025,2,0,P|151:34|107:17,1,96.0500018320084,0|2,1:0|0:0,0:0:0:0:
107,17,15346,1,2,0:0:0:0:
346,190,15561,6,0,L|457:180,1,96.0500018320084,6|0,1:2|0:0,0:0:0:0:
271,187,15882,2,0,L|382:177,1,96.0500018320084,2|0,0:0|0:0,0:0:0:0:
194,174,16204,1,2,0:0:0:0:
487,273,16418,6,0,P|449:288|416:324,1,84.750003232956,6|0,1:2|0:0,0:0:0:0:
338,384,16739,1,2,0:0:0:0:
334,363,16846,2,2,P|291:307|184:297,1,141.25,2|0,0:0|0:0,0:1:0:0:
55,381,17275,5,0,1:0:0:0:
21,370,17382,1,0,0:0:0:0:
21,334,17489,1,0,0:0:0:0:
55,323,17596,1,0,0:0:0:0:
75,352,17704,1,2,0:0:0:0:
48,354,17918,5,2,0:0:0:0:
102,175,18132,6,0,L|197:183,1,79.0999975860596,2|0,1:2|0:0,0:0:0:0:
189,191,18454,1,2,0:0:0:0:
474,115,18989,5,0,1:0:0:0:
492,108,19096,1,0,0:0:0:0:
492,88,19203,1,0,0:0:0:0:
474,82,19310,1,0,0:0:0:0:
462,98,19418,2,0,L|466:145,1,39.5499987930298,2|2,0:0|0:0,0:0:0:0:
486,210,19632,1,2,0:0:0:0:
491,215,19704,1,0,0:0:0:0:
428,290,19846,6,0,P|391:290|359:273,1,73.449996637726,2|0,1:2|0:0,0:0:0:0:
293,193,20168,2,0,P|282:250|221:292,1,110.174994956589,2|0,0:0|0:0,0:0:0:0:
252,290,20704,1,0,1:0:0:0:
37,79,21132,5,2,0:0:0:0:
48,74,21239,1,2,0:0:0:0:
60,70,21346,1,2,0:0:0:0:
73,68,21454,1,0,0:0:0:0:
119,88,21561,5,2,1:2:0:0:
124,92,21632,2,0,P|154:101|181:101,1,45.1999986206055
222,36,21882,2,0,P|259:18|332:30,1,101.699996896362,2|0,0:0|0:0,0:0:0:0:
325,29,22418,1,2,1:2:0:0:
471,206,23275,5,0,1:0:0:0:
456,215,23382,1,0,1:0:0:0:
440,222,23489,1,0,1:0:0:0:
423,223,23596,2,0,P|406:226|389:226,1,33.8999989654541,2|0,0:0|0:0,0:0:0:0:
237,259,23811,5,2,1:2:0:0:
264,255,23918,2,0,P|289:259|329:273,1,39.5499987930298,2|0,1:2|0:0,0:0:0:0:
380,321,24132,5,2,1:2:0:0:
380,321,24239,1,2,1:2:0:0:
406,348,24346,1,0,1:0:0:0:
371,371,24454,1,2,1:2:0:0:
329,376,24561,2,0,P|306:377|279:375,1,45.2,2|0,1:2|0:0,0:0:0:0:
240,275,24775,5,2,1:2:0:0:
204,279,24882,2,0,P|175:282|145:288,1,50.8499984481812,2|0,1:2|1:0,0:0:0:0:
13,216,25096,5,2,1:2:0:0:
49,220,25203,2,0,P|78:223|108:229,1,50.8499984481812,2|0,1:2|1:0,0:0:0:0:
289,140,25418,5,2,1:2:0:0:
253,144,25525,2,0,P|224:147|194:153,1,50.8499984481812,2|0,1:2|1:0,0:0:0:0:
10,58,25739,5,2,1:2:0:0:
52,77,25846,1,2,1:2:0:0:
60,84,25918,2,0,P|129:84|149:19,1,131.833333333333,2|0,0:0|1:0,0:0:0:0:
274,34,26275,5,2,1:2:0:0:
303,60,26382,1,2,1:2:0:0:
339,74,26489,1,2,1:2:0:0:
378,69,26596,1,2,1:2:0:0:
468,91,26704,5,2,1:2:0:0:
468,101,26775,1,2,0:0:0:0:
469,111,26846,2,0,L|471:159,3,37.6666666666667,2|2|0|0,0:0|1:2|0:0|0:0,0:0:0:0:
410,200,27132,2,0,L|406:256,1,56.5,0|0,1:0|1:0,0:0:0:0:
454,319,27346,5,2,0:0:0:0:
460,328,27418,1,2,0:0:0:0:
467,336,27489,1,2,0:0:0:0:
473,344,27561,2,0,L|408:354,2,56.5,0|0|2,1:2|0:0|1:2,0:0:0:0:
348,315,27882,5,0,1:0:0:0:
329,330,27989,2,0,L|269:323,2,56.5,2|0|0,1:2|1:0|1:0,0:0:0:0:
209,365,28311,5,0,1:0:0:0:
175,384,28418,2,0,B|158:368|158:368|164:271,1,113,2|0,1:2|1:0,0:0:0:0:
56,219,28739,2,0,L|157:171,1,113,2|0,1:2|1:0,0:0:0:0:
186,89,29061,2,0,L|246:131,1,56.5,2|0,1:2|1:0,0:0:0:0:
311,336,29275,6,0,L|315:288,1,42.375,6|0,1:2|0:0,0:0:0:0:
305,182,29704,2,0,L|320:357,1,169.5,2|2,0:0|0:0,0:0:0:0:
502,363,30132,6,0,P|477:328|477:265,1,84.750003232956,2|2,1:2|0:0,0:0:0:0:
512,186,30454,1,2,0:0:0:0:
482,140,30561,2,2,B|373:120|423:206|283:190,1,203.399993792725,2|0,1:0|0:0,0:1:0:0:
227,145,30989,5,0,1:0:0:0:
152,281,31204,1,2,0:0:0:0:
150,304,31311,1,2,0:0:0:0:
149,256,31418,1,0,1:0:0:0:
154,324,31525,1,2,0:0:0:0:
456,354,31846,5,0,1:0:0:0:
387,252,32061,1,2,0:0:0:0:
385,229,32168,1,2,0:0:0:0:
384,277,32275,1,0,1:0:0:0:
389,209,32382,1,2,0:0:0:0:
84,117,32704,5,0,1:0:0:0:
255,72,32918,1,2,0:0:0:0:
179,40,33025,1,2,0:0:0:0:
265,81,33132,2,0,L|281:266,1,186.450005690003,2|0,0:0|0:0,0:0:0:0:
290,348,33561,5,2,1:2:0:0:
411,184,33775,1,2,0:0:0:0:
454,181,33882,1,2,0:0:0:0:
365,179,33989,1,0,1:0:0:0:
491,188,34096,1,2,0:0:0:0:
138,217,34418,5,0,1:0:0:0:
80,96,34632,1,2,0:0:0:0:
37,93,34739,1,2,0:0:0:0:
126,91,34846,1,0,1:0:0:0:
0,100,34953,1,2,0:0:0:0:
231,26,35275,5,0,1:0:0:0:
327,243,35489,1,2,0:0:0:0:
371,249,35596,1,2,0:0:0:0:
296,170,35704,2,0,L|216:176,1,76.275000290966,0|2,1:0|0:0,0:0:0:0:
165,248,35918,2,0,L|89:241,1,76.275000290966,2|0,0:0|0:0,0:0:0:0:
3,171,36132,1,0,1:0:0:0:
248,345,36346,6,0,L|327:338,1,76.275000290966,2|0,0:0|0:0,0:0:0:0:
428,285,36561,2,0,P|347:332|431:374,1,228.825000872898,4|0,1:2|0:0,0:0:0:0:
504,220,36989,5,6,1:2:0:0:
393,122,37204,1,2,0:0:0:0:
365,124,37311,1,2,0:0:0:0:
431,132,37418,1,0,1:0:0:0:
334,122,37525,1,2,0:0:0:0:
70,329,37846,5,0,1:0:0:0:
180,231,38061,1,2,0:0:0:0:
208,233,38168,1,2,0:0:0:0:
147,237,38275,1,0,1:0:0:0:
246,226,38382,1,2,0:0:0:0:
376,180,38704,5,0,1:0:0:0:
354,90,38846,1,2,1:2:0:0:
442,116,38989,1,2,1:2:0:0:
392,201,39132,5,0,1:0:0:0:
325,80,39274,1,2,1:2:0:0:
463,85,39417,1,2,1:2:0:0:
390,125,39561,6,0,B|311:112|328:148|247:141,1,141.25,0|2,1:0|0:0,0:0:0:0:
139,79,39882,1,2,0:0:0:0:
154,91,39989,2,0,P|153:181|53:223,1,203.399993792725
48,213,40418,6,0,P|87:218|103:233,1,56.5,0|0,1:0|0:0,0:0:0:0:
162,321,40632,1,2,0:0:0:0:
192,327,40739,1,2,0:0:0:0:
259,287,40846,1,0,1:0:0:0:
296,283,40954,1,2,0:0:0:0:
373,334,41061,6,0,L|381:238,1,70.625
328,175,41275,2,0,P|379:183|422:154,1,105.9375,2|0,1:2|0:0,0:0:0:0:
416,163,41489,2,0,P|373:191|321:183,1,105.9375,2|0,0:0|0:0,0:0:0:0:
314,191,41704,1,2,1:2:0:0:
107,26,41918,5,2,0:0:0:0:
188,6,42025,1,0,0:0:0:0:
78,1,42132,2,0,P|50:33|34:72,1,84.750003232956,0|0,1:0|0:0,0:0:0:0:
142,201,42346,5,2,0:0:0:0:
41,225,42454,1,0,0:0:0:0:
165,211,42561,2,0,P|193:243|209:282,1,84.750003232956,2|0,1:2|0:0,0:0:0:0:
149,380,42775,2,0,L|154:314,3,42.375001616478
213,287,42989,5,4,1:0:0:0:
308,360,43204,1,2,0:0:0:0:
482,285,43418,1,2,0:0:0:0:
469,129,43632,1,2,0:0:0:0:
213,287,43846,6,0,P|182:259|174:218,1,84.750003232956,4|0,1:0|0:0,0:0:0:0:
227,116,44168,1,0,0:0:0:0:
241,138,44275,2,2,B|137:141|195:222|49:228,1,203.399993792725,10|0,1:2|0:0,0:1:0:0:
9,172,44704,1,0,1:0:0:0:
325,18,45025,5,2,0:0:0:0:
312,21,45079,1,2,0:0:0:0:
301,28,45132,2,0,P|279:63|283:103,1,70.625,8|2,0:2|0:0,0:0:0:0:
342,143,45346,1,2,0:0:0:0:
430,144,45454,5,2,0:0:0:0:
436,151,45507,1,2,0:0:0:0:
442,159,45561,2,0,P|473:229|456:300,1,141.25,2|0,1:2|0:0,0:0:0:0:
335,337,45882,1,2,0:0:0:0:
368,368,45989,2,0,L|373:304,1,56.5,10|0,0:0|0:0,0:0:0:0:
289,206,46204,2,0,L|293:262,1,56.5,2|0,0:0|0:0,0:0:0:0:
223,366,46418,6,0,B|110:382|157:310|27:335,1,203.399993792725,2|2,1:2|0:0,0:0:0:0:
147,308,46846,1,10,1:2:0:0:
171,264,46954,1,2,0:0:0:0:
174,214,47061,1,2,0:0:0:0:
110,170,47168,5,2,0:0:0:0:
104,161,47222,1,2,0:0:0:0:
100,152,47275,2,0,P|152:116|226:132,1,141.25,2|0,1:2|0:0,0:0:0:0:
249,207,47596,5,2,0:0:0:0:
319,236,47704,1,10,0:0:0:0:
394,206,47811,1,2,0:0:0:0:
406,140,47918,1,2,0:0:0:0:
389,98,48025,1,2,0:0:0:0:
369,79,48132,2,0,P|361:130|400:184,1,113,2|0,1:2|0:0,0:0:0:0:
470,184,48454,5,0,0:0:0:0:
512,253,48561,1,10,0:2:0:0:
467,314,48668,1,2,0:0:0:0:
397,289,48775,1,2,0:0:0:0:
352,347,48882,5,2,0:0:0:0:
343,351,48935,1,2,0:0:0:0:
334,355,48989,2,0,P|258:368|220:351,1,84.750003232956,2|0,1:2|0:0,0:0:0:0:
173,313,49311,1,2,0:0:0:0:
191,303,49418,2,0,P|115:289|77:307,1,84.750003232956,10|0,0:0|0:0,0:0:0:0:
49,339,49846,1,2,1:2:0:0:
32,20,50275,5,4,1:2:0:0:
95,79,50382,1,2,0:0:0:0:
160,32,50489,1,2,1:2:0:0:
215,80,50596,5,2,0:0:0:0:
221,87,50650,1,2,0:0:0:0:
229,93,50704,2,0,P|293:109|401:85,1,141.25,2|0,1:2|0:0,0:0:0:0:
512,187,51025,1,0,0:0:0:0:
483,172,51132,2,0,P|432:179|388:202,1,101.699996896362,8|0,0:0|0:0,0:0:0:0:
121,378,51561,5,2,1:2:0:0:
67,57,51882,1,2,1:2:0:0:
80,183,52150,5,2,0:0:0:0:
137,232,52257,1,2,0:0:0:0:
141,242,52311,2,0,L|134:317,1,50.8499984481812,2|2,0:0|1:2,0:0:0:0:
211,104,52846,5,10,0:0:0:0:
252,96,52954,1,2,0:0:0:0:
291,105,53061,1,2,0:0:0:0:
324,128,53168,1,2,0:0:0:0:
351,201,53275,5,2,1:2:0:0:
305,265,53382,1,2,0:0:0:0:
276,189,53489,1,2,0:0:0:0:
273,174,53561,1,2,0:0:0:0:
274,159,53632,1,2,0:0:0:0:
280,145,53704,1,10,0:0:0:0:
292,130,53775,1,2,0:0:0:0:
302,114,53846,1,2,0:0:0:0:
305,95,53918,2,0,L|292:38,2,37.6666666666667,2|2|0,0:0|0:0|0:0,0:0:0:0:
350,4,54132,6,0,B|275:-13|296:42|223:37,1,135.599995861817,0|0,1:0|0:0,0:0:0:0:
98,1,54454,1,0,0:0:0:0:
134,23,54561,2,0,P|162:124|128:213,1,203.399993792725,8|0,0:0|0:0,0:0:0:0:
0,300,54989,6,0,B|95:278|68:349|161:342,1,158.199995172119,2|0,1:2|0:0,0:0:0:0:
330,199,55311,1,2,0:0:0:0:
288,176,55418,2,0,P|214:246|213:300,1,158.199995172119,8|2,0:0|0:0,0:0:0:0:
220,377,55704,5,2,0:0:0:0:
230,374,55775,1,2,0:0:0:0:
240,371,55846,2,0,L|436:388,1,158.199995172119,2|0,1:2|0:0,0:0:0:0:
491,263,56168,1,2,0:0:0:0:
462,238,56275,2,0,L|362:246,1,67.7999979309083,10|0,0:0|0:0,0:0:0:0:
315,303,56489,5,2,0:0:0:0:
306,301,56561,1,2,0:0:0:0:
297,299,56632,1,2,0:0:0:0:
288,297,56704,1,4,1:0:0:0:
189,197,56918,5,2,0:0:0:0:
271,110,57132,5,10,0:0:0:0:
111,21,57346,5,2,0:0:0:0:
348,12,57561,6,0,P|375:43|392:82,1,84.750003232956,6|0,1:2|0:0,0:0:0:0:
512,167,57882,1,0,0:0:0:0:
491,141,57989,2,2,B|339:147|417:254|254:251,1,254.250009698868,10|0,0:0|0:0,0:1:0:0:
159,186,58418,6,0,P|145:276|64:233,1,211.875,0|2,1:0|0:0,0:0:0:0:
70,225,58793,1,2,0:0:0:0:
74,215,58846,2,0,P|80:179|75:125,1,70.625,10|2,0:0|0:0,0:0:0:0:
25,38,59061,5,2,0:0:0:0:
101,12,59168,1,2,0:0:0:0:
109,17,59221,1,2,0:0:0:0:
116,21,59275,1,2,1:2:0:0:
185,86,59382,1,0,0:0:0:0:
233,82,59489,1,2,0:0:0:0:
281,78,59596,1,2,0:0:0:0:
356,13,59704,6,0,L|435:19,1,70.625,10|0,0:0|0:0,0:0:0:0:
494,93,59918,2,0,L|414:99,1,70.625,2|0,0:0|0:0,0:0:0:0:
269,179,60132,6,2,P|325:188|373:259,1,127.125004849434,2|0,1:0|0:0,0:1:0:0:
375,255,60346,2,2,P|334:246|306:216,1,84.750003232956,0|0,0:0|0:0,0:1:0:0:
269,92,60561,5,10,0:0:0:0:
221,96,60668,1,2,0:0:0:0:
173,100,60775,1,2,0:0:0:0:
104,147,60882,5,2,0:0:0:0:
99,152,60936,1,2,0:0:0:0:
95,158,60989,2,0,P|94:193|104:239,2,70.625,2|0|2,1:2|0:0|0:0,0:0:0:0:
14,291,61311,5,2,0:0:0:0:
30,265,61418,2,0,B|92:250|74:297|135:292,1,113,10|0,0:0|0:0,0:0:0:0:
273,215,61739,1,0,0:0:0:0:
221,272,61846,2,0,P|302:254|332:364,1,169.5,2|0,1:0|0:0,0:0:0:0:
443,358,62275,5,10,0:0:0:0:
428,326,62382,1,2,0:0:0:0:
426,271,62489,1,2,0:0:0:0:
455,205,62596,1,2,0:0:0:0:
512,138,62704,2,0,P|511:110|499:83,2,56.5,2|2|2,1:2|0:0|0:0,0:0:0:0:
374,205,63025,5,2,0:0:0:0:
349,218,63132,2,0,L|237:208,1,70.625,8|0,0:0|0:0,0:0:0:0:
131,107,63346,5,0,1:0:0:0:
210,88,63454,1,0,0:0:0:0:
104,91,63561,2,2,P|62:191|79:271,1,169.500006465912,0|0,1:0|0:0,0:1:0:0:
175,346,63882,5,0,0:0:0:0:
186,356,63989,1,10,0:0:0:0:
211,369,64096,1,2,0:0:0:0:
260,367,64204,1,2,1:2:0:0:
297,321,64311,1,2,0:0:0:0:
260,252,64418,2,0,P|243:187|297:148,1,141.25,2|0,1:2|0:0,0:0:0:0:
446,218,64739,5,0,0:0:0:0:
483,243,64846,2,0,B|496:216|496:216|470:70|470:70|485:36,1,211.875,8|0,0:0|0:0,0:0:0:0:
393,7,65275,6,0,P|350:62|282:43,1,141.25,2|0,1:2|0:0,0:0:0:0:
203,1,65596,2,0,L|193:70,1,70.625,2|8,0:0|0:0,0:0:0:0:
83,206,65864,5,2,0:0:0:0:
142,268,65989,1,2,0:0:0:0:
145,273,66061,1,2,0:0:0:0:
149,279,66132,2,2,B|203:289|214:252|295:278,1,127.125004849434,0|0,1:0|0:0,0:1:0:0:
274,272,66346,2,2,B|294:325|294:325|281:350,1,84.750003232956,0|0,0:0|0:0,0:1:0:0:
366,238,66561,6,0,P|405:217|441:219,1,70.625,8|2,0:0|0:0,0:0:0:0:
455,293,66775,2,0,P|416:314|380:312,1,70.625,2|2,0:0|0:0,0:0:0:0:
290,183,66989,5,2,1:2:0:0:
287,157,67096,1,2,0:0:0:0:
284,132,67204,2,0,L|279:80,2,47.0833333333333,2|2|2,0:0|0:0|0:0,0:0:0:0:
192,51,67418,5,10,0:0:0:0:
190,65,67489,1,2,0:0:0:0:
188,79,67561,1,2,0:0:0:0:
187,94,67632,1,2,0:0:0:0:
185,108,67704,1,2,0:0:0:0:
184,122,67775,1,2,0:0:0:0:
180,137,67846,2,0,P|119:175|51:148,1,141.25,2|0,1:2|0:0,0:0:0:0:
1,298,68168,5,0,0:0:0:0:
25,268,68275,2,0,B|166:241|118:335|269:323,1,247.1875,8|0,0:0|0:0,0:0:0:0:
257,323,68704,2,0,L|269:248,1,56.5,2|0,1:2|0:0,0:0:0:0:
331,198,68918,1,0,0:0:0:0:
354,211,69025,2,0,B|368:232|368:232|371:324,1,113,2|0,0:0|0:0,0:0:0:0:
446,373,69346,5,2,0:0:0:0:
449,358,69418,1,2,0:0:0:0:
455,344,69489,1,2,0:0:0:0:
464,327,69561,2,0,P|478:242|461:199,1,70.625,2|0,1:2|0:0,0:0:0:0:
435,186,69775,2,0,P|422:153|418:118,1,70.625,2|0,0:0|0:0,0:0:0:0:
450,45,69989,5,10,0:0:0:0:
457,11,70096,1,0,0:0:0:0:
424,2,70204,1,2,0:0:0:0:
415,36,70311,1,0,0:0:0:0:
437,30,70418,5,8,1:3:0:0:
332,79,70561,1,4,0:3:0:0:
229,28,70704,1,4,0:3:0:0:
336,91,70846,5,8,0:3:0:0:
378,175,70989,1,4,0:3:0:0:
318,249,71132,1,4,0:3:0:0:
488,308,71275,6,0,B|433:314|446:366|360:373,1,113,6|0,1:2|0:0,0:0:0:0:
325,341,71596,2,0,L|262:344,1,56.5,2|0,1:2|0:0,0:0:0:0:
151,384,71811,1,2,0:3:0:0:
45,315,72025,2,0,P|68:243|49:166,2,127.125004849434,2|0|0,0:3|0:0|0:0,0:0:0:0:
141,117,72989,6,0,L|236:125,1,84.750003232956,2|0,0:3|0:0,0:0:0:0:
247,114,73311,2,0,L|103:126,1,127.125004849434
193,247,73846,6,0,L|197:199,2,42.375001616478,2|2|0,0:3|0:3|0:0,0:0:0:0:
267,324,74168,1,0,0:0:0:0:
280,299,74275,2,0,L|274:235,1,42.375001616478
363,212,74489,2,0,L|359:254,1,42.375001616478
400,326,74704,1,2,0:3:0:0:
490,96,75025,6,0,B|465:57|465:57|476:143,1,127.125004849434,2|2,0:3|0:3,0:0:0:0:
359,32,75668,5,2,0:3:0:0:
329,28,75775,1,2,0:3:0:0:
299,29,75882,1,0,0:0:0:0:
271,38,75989,2,0,P|244:42|211:45,1,42.375001616478,2|0,0:3|0:0,0:0:0:0:
163,6,76204,2,0,P|136:1|103:-1,1,42.375001616478,2|0,0:3|0:0,0:0:0:0:
37,73,76418,5,2,0:3:0:0:
24,104,76525,1,0,1:0:0:0:
21,137,76632,1,2,0:3:0:0:
29,169,76739,1,0,1:0:0:0:
107,225,76846,5,2,0:3:0:0:
222,109,76989,1,2,1:3:0:0:
264,269,77132,1,2,1:3:0:0:
200,195,77275,1,4,1:0:0:0:
200,195,77811,6,0,B|171:188|171:188|254:179,1,113,10|0,0:3|0:0,0:0:0:0:
189,36,78132,6,0,L|93:44,1,96.0500018320084,4|0,1:0|0:0,0:0:0:0:
36,132,78454,1,2,0:0:0:0:
54,152,78561,2,0,L|133:158,1,48.0250009160042,2|0,1:2|0:0,0:0:0:0:
168,200,78775,2,0,L|247:206,1,48.0250009160042,0|0,1:0|0:0,0:0:0:0:
348,165,78989,5,2,1:2:0:0:
314,151,79096,1,0,1:0:0:0:
291,179,79204,1,0,1:0:0:0:
310,209,79311,1,0,1:0:0:0:
344,200,79418,1,2,1:2:0:0:
417,222,79525,5,0,1:0:0:0:
446,296,79632,1,0,1:0:0:0:
401,358,79739,1,0,1:0:0:0:
327,329,79846,2,0,P|300:321|272:324,1,56.5,2|0,1:2|1:0,0:0:0:0:
202,376,80061,2,0,P|175:383|147:380,1,56.5,0|0,1:0|1:0,0:0:0:0:
63,325,80275,5,2,1:2:0:0:
64,309,80382,1,0,1:0:0:0:
122,246,80489,1,0,1:0:0:0:
120,230,80596,1,0,1:0:0:0:
48,175,80704,5,2,1:2:0:0:
77,145,80811,1,0,1:0:0:0:
117,136,80918,1,0,1:0:0:0:
157,144,81025,1,0,1:0:0:0:
210,209,81132,5,2,1:2:0:0:
228,221,81239,1,2,1:2:0:0:
248,225,81346,1,0,1:2:0:0:
268,222,81453,1,2,1:2:0:0:
339,191,81561,6,0,P|307:135|234:132,1,129.9500024786,2|0,1:2|1:0,0:0:0:0:
157,144,81882,1,0,1:0:0:0:
157,144,81989,1,2,1:2:0:0:
148,95,82096,1,0,1:0:0:0:
215,45,82204,1,0,1:0:0:0:
216,1,82311,1,0,1:0:0:0:
299,36,82418,6,0,B|314:28|314:28|376:41,1,67.7999979309083,2|0,1:2|1:0,0:0:0:0:
483,111,82632,2,0,B|468:103|468:103|406:116,1,67.7999979309083,0|0,1:0|1:0,0:0:0:0:
425,280,82846,5,2,1:2:0:0:
426,302,82953,1,0,1:0:0:0:
420,185,83060,1,0,1:0:0:0:
419,163,83168,1,0,1:0:0:0:
422,234,83275,5,2,1:2:0:0:
360,237,83383,1,0,1:0:0:0:
300,241,83490,1,0,1:0:0:0:
239,244,83597,1,2,1:2:0:0:
149,226,83704,5,0,1:0:0:0:
93,174,83811,1,0,1:0:0:0:
144,122,83918,1,2,1:2:0:0:
197,172,84025,1,0,1:0:0:0:
50,267,84132,6,0,B|182:247|140:358|289:340,1,254.250009698868,6|0,1:2|0:0,0:0:0:0:
350,297,84561,5,2,0:0:0:0:
358,294,84614,1,2,0:0:0:0:
367,291,84668,2,0,L|411:297,5,39.5499987930298,2|0|0|0|0|0,0:0|0:0|0:0|0:0|0:0|0:0,0:0:0:0:
441,377,84989,6,0,B|455:342|455:342|424:160|424:160|454:125,1,254.250009698868,4|0,1:0|0:0,0:0:0:0:
512,71,85418,1,14,0:1:0:0:
477,46,85525,1,2,0:0:0:0:
434,46,85632,2,0,P|401:58|371:79,1,56.5,2|2,0:0|0:0,0:0:0:0:
240,144,85846,5,0,1:0:0:0:
316,165,85954,1,2,0:0:0:0:
227,159,86061,1,2,0:0:0:0:
332,151,86168,1,2,0:0:0:0:
200,75,86275,5,8,0:1:0:0:
191,61,86382,1,2,0:0:0:0:
186,44,86489,1,2,0:0:0:0:
183,28,86596,1,2,0:0:0:0:
86,0,86704,6,0,L|77:95,1,84.750003232956,0|2,1:0|0:0,0:0:0:0:
26,184,86918,2,0,L|34:279,1,84.750003232956,2|2,0:0|0:0,0:0:0:0:
198,309,87132,5,8,0:1:0:0:
158,295,87239,1,2,0:0:0:0:
132,260,87346,1,2,0:0:0:0:
134,217,87454,1,2,0:0:0:0:
161,184,87561,1,0,1:0:0:0:
262,232,87668,5,2,0:0:0:0:
268,237,87721,1,2,0:0:0:0:
274,243,87775,2,0,L|369:234,1,84.750003232956
459,146,87989,5,8,0:0:0:0:
379,123,88096,1,2,0:0:0:0:
472,130,88204,1,2,0:0:0:0:
363,138,88311,1,2,0:0:0:0:
512,235,88418,6,2,B|429:245|469:314|371:330,1,169.500006465912,2|0,1:0|0:0,0:1:0:0:
205,234,88739,1,0,0:0:0:0:
205,234,88846,1,8,0:0:0:0:
159,274,88954,1,2,0:0:0:0:
183,329,89061,1,2,0:0:0:0:
242,323,89168,1,2,0:0:0:0:
255,265,89275,5,0,1:0:0:0:
222,196,89382,1,2,0:0:0:0:
232,120,89489,1,2,0:0:0:0:
283,63,89596,1,2,0:0:0:0:
359,55,89704,2,0,P|376:93|383:135,1,84.750003232956,8|2,0:0|0:0,0:0:0:0:
431,212,89918,2,0,P|406:246|373:273,1,84.750003232956,2|2,0:0|0:0,0:0:0:0:
159,152,90132,5,0,1:0:0:0:
198,76,90239,1,2,0:1:0:0:
229,94,90347,1,2,0:1:0:0:
241,127,90454,1,2,0:1:0:0:
149,161,90561,5,8,0:0:0:0:
259,138,90668,1,2,0:1:0:0:
241,88,90775,1,2,0:1:0:0:
193,60,90883,1,2,0:1:0:0:
142,171,90989,5,0,1:0:0:0:
65,99,91096,2,0,L|11:111,2,48.0250009160042,2|2|2,0:0|0:0|0:0,0:0:0:0:
134,180,91311,1,2,1:2:0:0:
53,247,91418,5,8,0:0:0:0:
51,282,91525,1,2,0:0:0:0:
47,317,91632,1,0,1:0:0:0:
141,358,91739,5,2,0:0:0:0:
149,363,91793,1,2,0:0:0:0:
155,368,91846,2,2,B|213:360|205:302|266:298,1,127.125004849434,6|0,1:0|0:0,0:1:0:0:
257,299,92061,2,0,L|266:410,1,84.750003232956
435,327,92275,5,8,0:0:0:0:
424,303,92382,1,2,0:0:0:0:
414,282,92489,2,0,L|404:170,1,84.750003232956,2|2,0:0|0:0,0:0:0:0:
268,4,92704,6,0,L|260:88,1,84.750003232956,0|2,1:2|0:0,0:0:0:0:
250,191,92918,2,0,L|242:275,1,84.750003232956,2|0,0:0|0:0,0:0:0:0:
73,273,93132,5,8,0:0:0:0:
51,195,93240,1,2,0:0:0:0:
58,287,93347,1,2,0:0:0:0:
66,178,93454,1,2,0:0:0:0:
155,222,93561,6,0,B|246:199|233:259|326:227,1,169.500006465912,0|2,1:0|0:0,0:0:0:0:
412,163,93882,1,0,0:0:0:0:
487,224,93989,2,0,L|482:271,2,39.5499987930298,8|2|2,0:0|0:0|0:0,0:0:0:0:
395,261,94204,2,0,L|400:308,2,39.5499987930298,2|2|2,0:0|0:0|0:0,0:0:0:0:
260,135,94418,5,0,1:0:0:0:
188,179,94525,2,0,B|249:138|270:215|334:172,1,146.899993275452,2|0,0:0|0:0,0:0:0:0:
425,24,94846,5,8,0:0:0:0:
347,46,94954,1,2,0:0:0:0:
437,39,95061,1,2,0:0:0:0:
330,31,95168,1,2,0:0:0:0:
512,72,95275,6,2,B|502:94|502:94|522:212|522:212|508:240,1,169.500006465912,2|0,1:0|0:0,0:1:0:0:
442,312,95596,1,0,0:0:0:0:
460,329,95704,2,0,L|364:320,1,84.750003232956,8|2,0:0|0:0,0:0:0:0:
303,268,95918,2,0,L|207:276,1,84.750003232956,2|2,0:0|0:0,0:0:0:0:
109,335,96132,5,0,1:0:0:0:
75,304,96239,1,2,0:0:0:0:
61,254,96346,1,2,0:0:0:0:
74,204,96454,1,2,0:0:0:0:
143,124,96561,5,8,0:0:0:0:
146,166,96668,1,2,0:0:0:0:
188,162,96775,1,2,0:0:0:0:
185,120,96882,1,2,0:0:0:0:
63,120,96989,5,6,1:2:0:0:
58,103,97096,1,2,0:0:0:0:
60,86,97204,1,2,0:0:0:0:
130,22,97311,5,2,1:2:0:0:
141,34,97419,1,2,0:0:0:0:
149,48,97526,1,2,0:0:0:0:
225,98,97632,5,2,1:2:0:0:
233,84,97739,1,0,1:0:0:0:
310,19,97846,5,2,1:3:0:0:
323,56,97954,1,2,1:3:0:0:
267,265,98168,5,2,1:3:0:0:
336,348,98275,1,8,0:0:0:0:
342,272,98382,1,2,1:3:0:0:
260,341,98489,1,2,1:3:0:0:
115,24,98704,6,2,P|230:1|294:23,1,148.312501414418,6|0,1:0|0:0,0:1:0:0:
265,19,98918,2,0,P|214:8|164:15,1,98.8750009429455
107,114,99132,5,10,0:0:0:0:
189,179,99239,1,2,0:0:0:0:
192,176,99293,1,2,0:0:0:0:
195,172,99346,2,0,L|201:92,1,42.375001616478,2|2,0:0|0:0,0:0:0:0:
107,204,99561,5,0,1:0:0:0:
39,256,99668,1,2,0:0:0:0:
36,252,99721,1,2,0:0:0:0:
32,248,99775,2,0,L|25:168,1,42.375001616478,2|2,0:0|0:0,0:0:0:0:
113,351,99989,6,0,B|184:345|184:345|219:357|219:357|305:350,1,180.8,8|2,0:0|0:0,0:0:0:0:
433,309,100311,1,2,0:0:0:0:
433,309,100418,1,2,1:2:0:0:
369,249,100525,2,0,L|305:243,2,42.375001616478,2|2|2,0:0|0:0|0:0,0:0:0:0:
431,134,100739,5,0,0:0:0:0:
385,67,100846,2,0,B|355:34|355:34|301:39,1,84.750003232956,8|2,0:0|0:0,0:0:0:0:
275,115,101061,2,0,B|304:147|304:147|345:143,1,84.750003232956,2|2,0:0|0:0,0:0:0:0:
226,43,101275,5,2,1:2:0:0:
148,100,101382,1,2,0:0:0:0:
142,111,101436,1,2,0:0:0:0:
137,122,101489,2,0,L|147:219,1,84.750003232956,2|2,0:0|0:0,0:0:0:0:
200,306,101704,5,10,0:0:0:0:
107,332,101812,1,2,0:0:0:0:
215,324,101919,1,2,0:0:0:0:
87,314,102026,1,2,0:0:0:0:
285,359,102132,6,2,B|316:376|316:376|416:368,1,135.6,2|0,1:0|0:0,0:1:0:0:
425,350,102346,2,0,L|334:357,1,90.4
298,205,102561,5,8,0:0:0:0:
350,159,102668,1,2,0:0:0:0:
301,155,102775,1,2,0:0:0:0:
346,208,102882,1,2,0:0:0:0:
355,219,102989,5,2,1:2:0:0:
292,144,103096,1,2,0:0:0:0:
361,150,103203,1,2,0:0:0:0:
287,214,103310,1,2,0:0:0:0:
275,225,103418,5,8,0:0:0:0:
374,139,103525,1,2,0:0:0:0:
281,131,103632,1,2,0:0:0:0:
365,231,103739,1,2,0:0:0:0:
377,245,103846,6,0,L|488:235,1,90.4,2|2,1:2|0:0,0:0:0:0:
269,122,104061,2,0,L|157:131,1,90.4,2|2,0:0|0:0,0:0:0:0:
445,98,104275,6,0,B|461:76|461:76|452:-4,1,96.0500018320084,10|0,0:0|0:0,0:0:0:0:
209,283,104489,2,0,B|192:304|192:304|201:385,1,96.0500018320084,2|0,0:0|0:0,0:0:0:0:
391,258,104704,5,2,1:2:0:0:
321,181,104811,1,2,0:0:0:0:
311,175,104864,1,2,0:0:0:0:
303,172,104918,2,0,P|262:175|221:202,1,73.449996637726,2|0,0:0|0:0,0:0:0:0:
359,344,105132,5,10,0:0:0:0:
444,320,105240,1,2,0:0:0:0:
344,328,105347,1,2,1:2:0:0:
462,337,105454,1,2,0:0:0:0:
268,350,105561,6,2,B|213:354|213:354|187:345|187:345|121:350,1,135.6,2|0,1:0|0:0,0:1:0:0:
120,362,105775,2,0,L|215:353,1,90.4
334,258,105989,5,10,0:0:0:0:
268,217,106096,1,2,0:0:0:0:
265,214,106150,1,2,0:0:0:0:
262,211,106204,2,0,L|268:131,1,42.375001616478,2|2,0:0|0:0,0:0:0:0:
344,70,106418,5,2,1:2:0:0:
410,118,106525,1,2,0:0:0:0:
410,118,106579,1,2,0:0:0:0:
413,121,106632,2,0,L|407:201,1,42.375001616478,2|0,0:0|0:0,0:0:0:0:
235,51,106846,5,10,0:0:0:0:
173,106,106954,1,2,0:0:0:0:
167,113,107007,1,2,0:0:0:0:
162,121,107061,2,0,L|171:224,1,90.4,2|0,0:0|0:0,3:0:0:0:
170,366,107275,5,2,1:2:0:0:
99,307,107382,2,0,B|195:298|167:355|293:340,1,169.500006465912
386,266,107704,5,8,0:0:0:0:
469,304,107811,1,2,0:0:0:0:
474,299,107865,1,2,0:0:0:0:
478,293,107918,2,0,L|468:181,1,84.750003232956,2|2,0:0|0:0,0:0:0:0:
276,115,108132,5,2,1:2:0:0:
359,77,108239,1,2,0:0:0:0:
364,82,108293,1,2,0:0:0:0:
368,88,108346,2,0,L|358:199,1,79.0999975860596,2|0,0:0|0:0,0:0:0:0:
278,288,108561,5,10,0:2:0:0:
194,264,108669,1,2,0:0:0:0:
292,271,108776,1,2,0:0:0:0:
176,280,108883,1,2,0:0:0:0:
336,360,108989,6,2,P|380:309|385:242,1,135.6,2|0,1:0|0:0,0:1:0:0:
373,229,109204,1,0,0:0:0:0:
140,0,109418,5,8,0:0:0:0:
130,44,109525,1,0,0:0:0:0:
197,112,109632,1,2,0:0:0:0:
203,151,109739,1,2,0:0:0:0:
114,202,109846,2,0,B|192:195|192:195|231:208|231:208|326:200,1,180.8,2|2,1:2|0:0,0:0:0:0:
443,80,110168,5,2,0:0:0:0:
443,80,110275,1,8,0:0:0:0:
370,48,110382,1,2,0:0:0:0:
298,121,110489,1,2,0:0:0:0:
219,127,110596,1,2,0:0:0:0:
145,56,110704,2,0,P|117:141|133:229,1,180.8,2|0,1:2|0:0,0:0:0:0:
378,363,111025,5,2,0:0:0:0:
326,296,111132,2,0,B|233:294|269:360|165:369,1,180.8,10|0,0:0|0:0,0:0:0:0:
89,340,111454,5,2,0:0:0:0:
89,340,111561,1,6,1:2:0:0:
234,293,111704,1,2,1:2:0:0:
379,231,111846,1,2,1:2:0:0:
85,254,111989,5,0,1:0:0:0:
251,291,112132,1,2,1:2:0:0:
405,328,112275,1,2,1:2:0:0:
391,130,112418,5,0,1:0:0:0:
350,197,112525,1,2,1:2:0:0:
347,200,112579,1,2,0:0:0:0:
344,203,112633,2,0,L|264:197,1,42.375001616478,2|2,1:2|1:2,0:0:0:0:
176,153,112846,5,0,1:2:0:0:
217,86,112953,1,2,1:2:0:0:
220,83,113007,1,2,0:0:0:0:
223,80,113061,2,0,L|303:86,1,42.375001616478,2|2,1:2|1:2,0:0:0:0:
404,304,113275,5,2,1:2:0:0:
347,308,113382,1,0,1:0:0:0:
288,365,113489,1,0,1:0:0:0:
231,370,113596,1,0,1:0:0:0:
105,317,113704,5,2,1:2:0:0:
146,321,113811,1,0,1:0:0:0:
150,281,113918,1,0,1:0:0:0:
109,277,114025,1,0,1:0:0:0:
129,298,114132,6,0,L|135:218,1,67.7999979309083,2|2,1:2|1:2,0:0:0:0:
217,126,114346,2,0,L|222:193,1,67.7999979309083,2|2,1:2|1:2,0:0:0:0:
328,265,114561,5,2,1:2:0:0:
333,241,114668,1,0,1:0:0:0:
414,254,114775,1,2,1:2:0:0:
418,273,114882,1,0,1:0:0:0:
497,240,114989,6,0,L|508:113,1,101.699996896362,0|0,1:3|0:0,0:0:0:0:
500,127,115204,2,0,L|491:220,1,67.7999979309083,0|0,1:3|0:0,0:0:0:0:
279,370,115418,6,2,B|312:347|312:347|200:337|200:337|188:330|188:330|64:318|64:318|115:298,1,339.000012931824,10|2,0:3|0:0,0:1:0:0:
