osu file format v14

[General]
AudioFilename: audio.mp3
AudioLeadIn: 0
PreviewTime: 54950
Countdown: 0
SampleSet: None
StackLeniency: 0.7
Mode: 0
LetterboxInBreaks: 0
WidescreenStoryboard: 0

[Editor]
Bookmarks: 86724,118014
DistanceSpacing: 2.4
BeatDivisor: 6
GridSize: 32
TimelineZoom: 2.899999

[Metadata]
Title:Sing a Song Sign
TitleUnicode:Sing a Song Sign
Artist:HuEeR feat.NU-KO
ArtistUnicode:HuΣeR feat.NU-KO
Creator:RepL4y
Version:Extra
Source:pop'n music うさぎと猫と少年の夢
Tags:
BeatmapID:1773025
BeatmapSetID:847824

[Difficulty]
HPDrainRate:6
CircleSize:3.8
OverallDifficulty:8.5
ApproachRate:9.4
SliderMultiplier:1.6
SliderTickRate:1

[Events]
//Background and Video events
0,0,"BG.png",0,0
//Break Periods
2,86923,90216
//Storyboard Layer 0 (Background)
//Storyboard Layer 1 (Fail)
//Storyboard Layer 2 (Pass)
//Storyboard Layer 3 (Foreground)
//Storyboard Sound Samples

[TimingPoints]
273,322.58064516129,4,2,0,70,1,0
273,-100,4,2,1,70,0,0
4789,-83.3333333333333,4,2,1,70,0,0
5111,-58.8235294117647,4,2,1,70,0,0
7369,-71.4285714285714,4,2,1,70,0,0
8014,-83.3333333333333,4,2,1,70,0,0
21240,-111.111111111111,4,2,1,70,0,0
30918,-99.9999999999999,4,2,1,70,0,0
37692,-90.9090909090909,4,2,1,70,0,0
50918,-76.9230769230769,4,2,1,70,0,0
51240,-83.3333333333333,4,2,1,70,0,0
55756,-166.666666666667,4,2,1,70,0,0
56079,-76.9230769230769,4,2,1,70,0,1
64627,-100,4,2,1,70,0,1
64950,-71.4285714285714,4,2,1,70,0,1
65272,-66.6666666666667,4,2,1,70,0,1
65434,-66.6666666666667,4,2,1,70,0,0
66079,-76.9230769230769,4,2,1,70,0,1
76402,-76.9230769230769,4,2,1,70,0,0
81240,-58.8235294117647,4,2,1,70,0,1
81563,-58.8235294117647,4,2,1,70,0,1
86724,-100,4,2,1,70,0,0
91885,-83.3333333333333,4,2,1,70,0,0
97047,-125,4,2,1,70,0,0
97369,-76.9230769230769,4,2,1,70,0,1
107369,-83.3333333333333,4,2,1,70,0,0
112208,-66.6666666666667,4,2,1,70,0,0
122531,-66.6666666666667,4,2,1,5,0,0
122799,-71.4285714285714,4,2,1,60,0,0

[Colours]
Combo1 : 255,227,142
Combo2 : 162,255,162
Combo3 : 162,204,255
Combo4 : 251,172,184

[HitObjects]
274,287,273,6,0,B|327:277|327:277|364:295|364:295|434:283,1,160,6|2,0:0|0:0,0:0:0:0:
488,176,756,1,0,0:0:0:0:
488,176,918,2,0,L|409:160,1,80,2|0,0:0|0:0,0:0:0:0:
239,191,1240,1,2,0:0:0:0:
276,48,1402,6,0,B|329:28|329:28|312:143,1,160
356,256,1885,2,0,L|437:245,1,80,2|0,0:0|0:0,0:0:0:0:
275,355,2208,2,0,L|194:344,1,80,2|0,0:0|0:0,0:0:0:0:
82,262,2531,1,2,0:0:0:0:
82,262,2853,6,0,B|62:155|62:155|117:176,1,160,2|2,0:0|0:0,0:1:0:0:
267,115,3337,1,0,0:0:0:0:
267,115,3498,2,0,L|176:98,1,80,2|0,0:0|0:0,0:0:0:0:
258,256,3821,2,0,L|349:239,1,80,2|0,0:0|0:0,0:0:0:0:
387,40,4143,5,8,0:0:0:0:
392,66,4223,1,0,0:0:0:0:
398,92,4304,1,0,0:0:0:0:
404,118,4384,1,0,0:0:0:0:
486,164,4466,5,8,0:0:0:0:
481,190,4546,1,0,0:0:0:0:
475,216,4627,1,0,0:0:0:0:
469,242,4707,1,0,0:0:0:0:
395,302,4789,6,0,L|332:289,1,47.9999985351563,8|0,0:0|0:0,0:0:0:0:
267,187,4950,2,0,L|219:196,1,47.9999985351563,8|0,0:0|0:0,0:0:0:0:
118,303,5111,6,0,B|85:360|85:360|45:221,1,204.000003890991,8|0,0:0|0:0,0:0:0:0:
27,156,5434,5,12,0:0:0:0:
194,56,5595,1,2,0:0:0:0:
194,56,5676,1,2,0:0:0:0:
194,56,5756,1,2,0:0:0:0:
351,283,5918,5,12,0:0:0:0:
150,162,6079,1,2,0:0:0:0:
150,162,6160,1,2,0:0:0:0:
150,162,6240,1,2,0:0:0:0:
407,131,6402,5,12,0:0:0:0:
201,294,6563,1,2,0:0:0:0:
201,294,6643,1,2,0:0:0:0:
201,294,6724,1,2,0:0:0:0:
307,50,6885,5,12,0:0:0:0:
382,323,7047,1,2,0:0:0:0:
382,323,7127,1,2,0:0:0:0:
382,323,7208,1,2,0:0:0:0:
512,185,7369,6,0,B|428:212|435:152|341:181,1,167.999994873047,12|0,0:0|0:0,0:0:0:0:
270,226,7692,5,2,0:0:0:0:
238,239,7772,1,2,0:0:0:0:
203,238,7853,1,2,0:0:0:0:
172,222,7933,1,2,0:0:0:0:
150,193,8014,6,0,L|170:42,1,143.999995605469,12|0,0:0|0:0,0:0:0:0:
173,33,8337,5,2,0:0:0:0:
295,149,8498,1,2,0:0:0:0:
307,16,8660,5,2,0:0:0:0:
29,134,8821,1,2,0:0:0:0:
168,50,8982,5,2,0:0:0:0:
105,322,9143,1,2,0:0:0:0:
295,149,9305,5,2,0:0:0:0:
22,232,9466,1,2,0:0:0:0:
316,275,9627,5,2,0:0:0:0:
168,50,9789,2,0,B|129:87|129:87|155:202,1,167.999994873047,6|0,0:0|0:0,0:0:0:0:
165,225,10111,6,0,L|196:233,4,23.9999992675781,0|0|0|0|2,0:0|0:0|0:0|0:0|0:0,0:0:0:0:
406,70,10595,6,0,B|463:46|463:46|446:176,1,191.999994140625,6|8,0:0|0:0,0:0:0:0:
327,343,11079,1,0,0:0:0:0:
327,343,11160,1,0,0:0:0:0:
327,343,11240,2,0,P|279:335|218:327,1,95.9999970703126,2|0,0:0|0:0,0:0:0:0:
296,215,11563,1,8,0:0:0:0:
99,148,11724,6,0,L|112:245,1,95.9999970703126,0|2,0:0|0:0,0:0:0:0:
228,109,12047,1,0,0:0:0:0:
16,45,12208,1,8,0:0:0:0:
111,243,12369,2,0,B|197:194|203:267|297:213,1,191.999994140625,0|2,0:0|0:0,0:0:0:0:
401,33,12853,2,0,P|435:64|437:128,1,95.9999970703126,8|0,0:0|0:0,0:0:0:0:
442,111,13095,1,0,0:0:0:0:
442,111,13176,5,2,0:0:0:0:
221,62,13337,1,0,0:0:0:0:
390,250,13498,1,8,0:0:0:0:
188,158,13660,2,0,L|286:143,1,95.9999970703126,0|2,0:0|0:0,0:0:0:0:
426,342,13982,2,0,L|328:327,1,95.9999970703126,0|8,0:0|0:0,0:0:0:0:
180,247,14305,6,0,B|119:220|119:220|145:349,1,191.999994140625,0|2,0:0|0:0,0:0:0:0:
390,250,14789,1,8,0:0:0:0:
188,158,14950,1,0,0:0:0:0:
453,127,15111,5,2,0:0:0:0:
227,317,15272,1,0,0:0:0:0:
303,28,15434,6,0,L|359:35,1,47.9999985351563,8|0,0:0|0:0,0:0:0:0:
435,227,15595,1,0,0:0:0:0:
435,227,15676,1,0,0:0:0:0:
435,227,15756,6,0,L|331:243,1,95.9999970703126,6|0,0:0|0:0,0:0:0:0:
106,273,16079,1,8,0:0:0:0:
185,113,16240,2,0,B|215:138|215:138|208:212,1,95.9999970703126,0|2,0:0|0:0,0:0:0:0:
39,340,16563,2,0,B|9:315|9:315|16:241,1,95.9999970703126,0|8,0:0|0:0,0:0:0:0:
185,113,16885,6,0,B|257:121|257:121|300:99|300:99|373:109,1,191.999994140625,0|2,0:0|0:0,0:0:0:0:
325,239,17369,1,8,0:0:0:0:
438,24,17531,1,0,0:0:0:0:
438,24,17611,1,0,0:0:0:0:
438,24,17692,2,0,P|481:80|470:162,1,143.999995605469,2|0,0:0|0:0,0:0:0:0:
410,206,18014,5,8,0:0:0:0:
380,201,18094,1,8,0:0:0:0:
350,196,18175,1,8,0:0:0:0:
321,191,18255,1,8,0:0:0:0:
291,186,18337,6,0,P|276:141|272:84,1,95.9999970703126,6|0,0:0|0:0,0:0:0:0:
150,269,18660,2,0,P|145:316|130:362,1,95.9999970703126,8|0,0:0|0:0,0:0:0:0:
19,159,18982,6,0,B|42:139|58:117|58:117|99:131|146:141,1,143.999995605469,2|0,0:0|0:0,0:0:0:0:
249,123,19305,6,0,B|211:101|211:101|230:202,1,143.999995605469,8|0,0:0|0:0,0:0:0:0:
295,276,19627,6,0,L|341:266,1,47.9999985351563,2|0,0:0|0:0,0:0:0:0:
226,350,19789,2,0,L|179:340,1,47.9999985351563,2|0,0:0|0:0,0:0:0:0:
182,189,19950,2,0,L|229:199,1,47.9999985351563,8|0,0:0|0:0,0:0:0:0:
418,301,20111,6,0,P|367:255|386:187,1,143.999995605469,2|0,0:0|0:0,0:0:0:0:
456,129,20434,6,0,L|514:142,1,47.9999985351563,2|0,0:0|0:0,0:0:0:0:
401,50,20595,1,0,3:0:0:0:
372,56,20676,1,0,3:0:0:0:
342,62,20756,1,0,3:0:0:0:
313,68,20837,1,0,3:0:0:0:
283,75,20917,5,2,0:0:0:0:
283,75,21240,6,0,P|271:110|274:146,1,71.9999978027344
352,228,21563,2,0,P|403:219|467:213,1,107.999996704102
458,213,21885,1,0,0:0:0:0:
372,342,22047,1,0,0:0:0:0:
372,342,22208,6,0,P|337:335|299:330,1,71.9999978027344
243,233,22531,2,0,P|208:240|170:245,1,71.9999978027344
79,314,22853,1,0,0:0:0:0:
79,314,23014,1,0,0:0:0:0:
21,211,23176,2,0,L|31:128,1,71.9999978027344,0|2,0:0|0:0,0:0:0:0:
137,1,23498,6,0,P|187:42|184:123,1,143.999995605469,2|0,0:0|0:0,0:0:0:0:
117,185,23982,1,0,0:0:0:0:
186,264,24143,2,0,L|267:251,1,71.9999978027344
287,146,24466,2,0,L|359:158,1,71.9999978027344
486,256,24789,2,0,P|441:210|462:131,2,143.999995605469
371,323,25595,1,2,0:0:0:0:
371,323,25756,2,0,P|337:307|297:306,1,71.9999978027344,0|2,0:0|0:0,0:0:0:0:
165,360,26079,6,0,B|132:320|132:320|152:224,1,143.999995605469,2|0,0:0|0:0,0:0:0:0:
220,156,26563,1,0,0:0:0:0:
122,132,26724,2,0,L|51:144,1,71.9999978027344
194,60,27047,2,0,L|274:74,1,71.9999978027344
365,152,27369,6,0,B|395:113|395:113|377:17,2,143.999995605469
265,173,28176,1,0,0:0:0:0:
333,246,28337,1,0,0:0:0:0:
333,246,28498,1,2,0:0:0:0:
259,315,28660,6,0,B|188:340|187:290|117:317,1,143.999995605469,2|0,0:0|0:0,0:0:0:0:
35,259,29143,1,0,0:0:0:0:
35,259,29305,2,0,P|32:224|43:187,1,71.9999978027344
197,136,29627,1,0,0:0:0:0:
84,63,29789,6,0,P|108:129|133:204,1,143.999995605469
109,324,30272,1,0,0:0:0:0:
220,221,30434,1,0,0:0:0:0:
42,188,30595,1,0,0:0:0:0:
153,85,30756,1,0,0:0:0:0:
153,85,30837,1,0,0:0:0:0:
153,85,30918,2,0,L|241:100,1,80
476,212,31240,6,0,B|415:220|415:220|374:198|374:198|315:206,1,160,6|2,0:0|0:0,0:0:0:0:
220,221,31724,1,0,0:0:0:0:
341,368,31885,2,0,L|354:282,1,80,2|0,0:0|0:0,0:0:0:0:
208,141,32208,2,0,L|220:221,1,80,2|0,0:0|0:0,0:0:0:0:
443,190,32531,6,0,B|415:170|391:150|391:150|346:164|296:169,1,160,2|2,0:0|0:0,0:0:0:0:
134,189,33014,1,0,0:0:0:0:
197,61,33176,2,0,P|201:100|207:140,1,80,2|0,0:0|0:0,0:0:0:0:
72,326,33498,2,0,P|67:286|61:246,1,80,2|0,0:0|0:0,0:0:0:0:
3,84,33821,6,0,P|53:141|128:126,1,160,2|2,0:0|0:0,0:0:0:0:
218,61,34305,1,0,0:0:0:0:
218,61,34466,2,0,P|204:137|197:226,1,160,2|2,0:0|0:0,0:0:0:0:
269,318,34950,1,0,0:0:0:0:
269,318,35111,2,0,L|347:305,1,80,2|0,0:0|0:0,0:0:0:0:
468,178,35434,2,0,L|390:165,1,80,2|0,0:0|0:0,0:0:0:0:
293,225,35756,5,2,0:0:0:0:
450,327,35918,1,0,0:0:0:0:
398,59,36079,1,2,0:0:0:0:
398,59,36402,6,0,B|331:102|312:37|244:82,1,160,6|10,0:0|0:0,0:0:0:0:
161,151,36885,1,0,0:0:0:0:
161,151,37047,2,0,P|141:116|140:73,1,80,2|0,0:0|0:0,0:0:0:0:
261,181,37369,2,0,L|250:271,1,80,10|0,0:0|0:0,0:0:0:0:
171,342,37692,5,2,0:0:0:0:
328,283,37853,1,0,0:0:0:0:
152,195,38014,5,10,0:0:0:0:
268,361,38176,1,0,0:0:0:0:
357,175,38337,5,2,0:0:0:0:
117,273,38498,1,0,0:0:0:0:
187,117,38660,5,10,0:0:0:0:
268,361,38821,1,0,0:0:0:0:
379,196,38982,5,10,0:0:0:0:
107,300,39143,1,0,0:0:0:0:
400,301,39305,5,10,0:0:0:0:
91,167,39466,1,0,0:0:0:0:
333,91,39627,5,10,0:0:0:0:
136,352,39789,1,0,0:0:0:0:
429,254,39950,5,10,0:0:0:0:
62,184,40111,1,8,0:0:0:0:
237,43,40272,6,0,P|243:88|255:156,1,88.000002685547,2|8,0:0|0:0,0:0:0:0:
249,130,40514,1,0,0:0:0:0:
249,130,40595,1,2,0:0:0:0:
435,210,40756,1,8,0:0:0:0:
435,210,40837,1,2,0:0:0:0:
435,210,40918,6,0,P|431:236|427:261,1,44.0000013427735,2|2,0:0|0:0,0:0:0:0:
300,336,41079,2,0,P|296:314|293:292,1,44.0000013427735,10|2,0:0|0:0,0:0:0:0:
249,130,41240,5,8,0:0:0:0:
228,132,41320,1,8,0:0:0:0:
206,135,41401,1,8,0:0:0:0:
184,138,41481,1,8,0:0:0:0:
162,141,41562,5,6,0:0:0:0:
348,42,41724,6,0,B|372:72|372:72|364:137,1,88.000002685547,0|8,0:0|0:0,0:0:0:0:
194,295,42047,1,0,0:0:0:0:
194,295,42127,1,0,0:0:0:0:
194,295,42208,2,0,P|231:274|285:279,1,88.000002685547,2|0,0:0|0:0,0:0:0:0:
425,357,42531,2,0,P|383:312|398:231,1,132.00000402832,8|0,0:0|0:0,0:0:0:0:
417,220,42853,5,2,0:0:0:0:
206,135,43014,1,0,0:0:0:0:
386,65,43176,5,8,0:0:0:0:
275,275,43337,1,0,0:0:0:0:
448,203,43498,5,2,0:0:0:0:
178,109,43660,1,0,0:0:0:0:
178,109,43740,1,0,0:0:0:0:
178,109,43821,2,0,L|230:102,1,44.0000013427735,8|0,0:0|0:0,0:0:0:0:
394,76,43982,1,0,0:0:0:0:
385,90,44063,1,0,0:0:0:0:
377,105,44143,6,0,L|394:201,1,88.000002685547,6|0,0:0|0:0,0:0:0:0:
275,353,44466,1,8,0:0:0:0:
92,249,44627,2,0,B|118:229|142:204|142:204|186:218|272:235,1,176.000005371094,2|2,0:0|0:0,0:0:0:0:
221,103,45111,1,8,0:0:0:0:
350,282,45272,1,0,0:0:0:0:
350,282,45353,1,0,0:0:0:0:
350,282,45434,5,2,0:0:0:0:
450,141,45595,2,0,L|359:129,1,88.000002685547,0|8,0:0|0:0,0:0:0:0:
160,241,45918,2,0,L|251:229,1,88.000002685547,0|2,0:0|0:0,0:0:0:0:
92,134,46240,1,0,0:0:0:0:
54,301,46402,1,8,0:0:0:0:
186,113,46563,1,0,0:0:0:0:
186,113,46643,1,0,0:0:0:0:
186,113,46724,6,0,P|137:43|45:48,1,176.000005371094,6|8,0:0|0:0,0:0:0:0:
160,241,47208,2,0,P|200:231|253:224,1,88.000002685547,0|2,0:0|0:0,0:0:0:0:
337,116,47531,1,0,0:0:0:0:
219,324,47692,1,8,0:0:0:0:
376,225,47853,5,0,0:0:0:0:
376,225,47934,1,0,0:0:0:0:
376,225,48014,1,2,0:0:0:0:
155,152,48176,1,0,0:0:0:0:
332,71,48337,5,8,0:0:0:0:
219,324,48498,1,0,0:0:0:0:
413,187,48660,5,2,0:0:0:0:
95,243,48821,1,2,0:0:0:0:
319,301,48982,5,4,0:3:0:0:
189,129,49143,2,0,L|181:205,1,44.0000013427735,2|2,0:0|0:0,0:0:0:0:
141,337,49305,6,0,P|57:344|1:278,2,176.000005371094,6|8|2,0:0|0:0|0:0,0:0:0:0:
272,195,50111,1,0,0:0:0:0:
95,243,50272,1,8,0:0:0:0:
242,323,50434,1,0,0:0:0:0:
120,140,50595,2,0,P|75:148|18:156,1,88.000002685547,2|0,0:0|0:0,0:0:0:0:
194,65,50918,6,0,B|238:48|238:48|217:178,1,155.999992858887,8|0,0:0|0:0,0:0:0:0:
195,248,51240,6,0,B|269:267|257:218|338:238,1,143.999995605469,2|0,0:0|0:0,0:0:0:0:
364,256,51563,2,0,P|340:218|340:162,1,95.9999970703126,8|0,0:0|0:0,0:0:0:0:
452,62,51885,6,0,B|505:49|505:49|475:206,1,191.999994140625,2|8,0:0|0:0,0:0:0:0:
272,107,52369,2,0,P|313:82|367:83,1,95.9999970703126,0|2,0:0|0:0,0:0:0:0:
431,301,52692,2,0,P|388:277|362:230,1,95.9999970703126,0|8,0:0|0:0,0:0:0:0:
359,81,53014,1,0,0:0:0:0:
249,283,53176,5,12,0:0:0:0:
137,37,53337,1,2,0:0:0:0:
109,325,53498,5,12,0:0:0:0:
272,104,53660,1,2,0:0:0:0:
0,239,53821,5,12,0:0:0:0:
96,144,53982,5,2,0:0:0:0:
134,134,54062,1,2,0:0:0:0:
173,143,54143,1,8,0:0:0:0:
205,167,54223,1,8,0:0:0:0:
238,188,54304,1,2,0:0:0:0:
278,193,54385,1,2,0:0:0:0:
316,183,54466,2,0,P|335:169|351:151,1,47.9999985351563,12|0,0:0|0:0,0:0:0:0:
358,35,54627,6,0,L|298:43,5,47.9999985351563
432,93,55111,5,0,3:0:0:0:
446,129,55191,1,0,3:0:0:0:
445,167,55272,1,0,3:0:0:0:
430,203,55352,1,0,3:0:0:0:
402,230,55433,1,2,0:0:0:0:
366,244,55514,1,2,0:0:0:0:
327,244,55594,1,2,0:0:0:0:
292,229,55675,1,2,0:0:0:0:
264,201,55756,6,0,L|274:119,1,71.9999978027344,2|0,0:0|0:0,0:0:0:0:
316,69,56079,6,0,B|207:124|226:27|110:78,1,207.999990478516,12|2,0:0|0:0,0:0:0:0:
5,247,56563,1,0,0:0:0:0:
168,158,56724,1,8,0:0:0:0:
133,365,56885,2,0,P|83:354|14:349,1,103.999995239258,0|2,0:0|0:0,0:0:0:0:
238,282,57208,5,0,0:0:0:0:
101,87,57369,2,0,P|71:131|75:189,1,103.999995239258,8|0,0:0|0:0,0:0:0:0:
238,282,57692,2,0,P|288:271|357:266,1,103.999995239258,2|0,0:0|0:0,0:0:0:0:
480,72,58014,2,0,P|428:24|331:48,1,155.999992858887,8|0,0:0|0:0,0:0:0:0:
286,91,58337,6,0,P|293:144|306:208,1,103.999995239258,2|0,0:0|0:0,0:0:0:0:
460,359,58660,2,0,B|434:343|411:319|411:319|371:334|308:342,1,155.999992858887,8|0,0:0|0:0,0:0:0:0:
321,340,58982,1,2,0:0:0:0:
512,230,59143,5,0,0:0:0:0:
512,230,59224,1,0,0:0:0:0:
512,230,59305,1,8,0:0:0:0:
360,109,59466,2,0,P|304:117|234:122,1,103.999995239258,0|2,0:0|0:0,0:0:0:0:
82,310,59789,2,0,P|133:314|185:321,1,103.999995239258,0|8,0:0|0:0,0:0:0:0:
314,208,60111,1,0,0:0:0:0:
139,80,60272,5,2,0:0:0:0:
203,331,60434,1,0,0:0:0:0:
368,143,60595,1,8,0:0:0:0:
34,282,60756,5,0,0:0:0:0:
34,282,60837,1,8,0:0:0:0:
34,282,60918,2,0,B|-13:229|-13:229|23:92,1,207.999990478516,6|8,0:0|0:0,0:0:0:0:
205,11,61402,1,0,0:0:0:0:
218,272,61563,2,0,P|165:261|102:254,1,103.999995239258,2|0,0:0|0:0,0:0:0:0:
294,126,61885,2,0,P|345:119|396:108,1,103.999995239258,8|0,0:0|0:0,0:0:0:0:
205,11,62208,6,0,P|139:89|164:192,1,207.999990478516,2|8,0:0|0:0,0:0:0:0:
361,233,62692,1,0,0:0:0:0:
361,233,62772,1,0,0:0:0:0:
361,233,62853,5,2,0:0:0:0:
141,295,63014,1,0,0:0:0:0:
242,115,63176,5,8,0:0:0:0:
309,331,63337,1,0,0:0:0:0:
98,210,63498,5,12,0:0:0:0:
390,162,63660,1,2,0:0:0:0:
169,64,63821,5,12,0:0:0:0:
221,327,63982,1,2,0:0:0:0:
355,59,64143,5,12,0:0:0:0:
106,307,64305,1,2,0:0:0:0:
330,224,64466,5,12,0:0:0:0:
33,126,64627,2,0,P|25:71|86:19,1,120,2|0,0:0|0:0,0:0:0:0:
143,80,64950,6,0,P|137:150|102:253,1,167.999994873047,8|0,0:0|0:0,0:0:0:0:
24,339,65272,6,0,P|49:327|88:323,1,60.0000022888184,8|0,0:0|0:0,0:0:0:0:
232,374,65434,6,0,B|262:344|262:344|247:248,1,120.000004577637,6|2,0:0|0:0,0:0:0:0:
188,218,65676,5,2,0:0:0:0:
235,238,65756,1,8,0:3:0:0:
285,230,65837,1,2,0:2:0:0:
324,194,65917,1,2,0:0:0:0:
336,144,65998,1,2,0:0:0:0:
318,94,66079,6,0,B|225:155|203:58|100:125,1,207.999990478516,6|8,0:0|0:0,0:0:0:0:
96,337,66563,1,0,0:0:0:0:
25,217,66724,2,0,P|76:212|148:199,1,103.999995239258,2|0,0:0|0:0,0:0:0:0:
327,238,67047,1,8,0:0:0:0:
228,372,67208,2,0,B|204:335|204:335|217:264,1,103.999995239258,0|2,0:0|0:0,0:0:0:0:
252,80,67531,1,0,0:0:0:0:
416,196,67692,5,12,0:0:0:0:
129,162,67853,1,0,0:0:0:0:
379,80,68014,5,12,0:0:0:0:
281,327,68176,1,0,0:0:0:0:
207,32,68337,5,12,0:0:0:0:
364,260,68498,1,0,0:0:0:0:
364,260,68579,1,0,0:0:0:0:
364,260,68660,6,0,B|327:246|303:209|303:209|239:255|170:231,1,207.999990478516,6|8,0:0|0:0,0:0:0:0:
44,123,69143,1,0,0:0:0:0:
117,324,69305,1,2,0:0:0:0:
224,142,69466,1,0,0:0:0:0:
47,236,69627,5,8,0:0:0:0:
235,312,69789,2,0,P|283:297|341:292,1,103.999995239258,0|2,0:0|0:0,0:0:0:0:
458,153,70111,2,0,P|406:148|356:132,1,103.999995239258,0|8,0:0|0:0,0:0:0:0:
133,20,70434,2,0,L|152:141,1,103.999995239258,0|2,0:0|0:0,0:0:0:0:
117,324,70756,5,2,0:0:0:0:
127,291,70836,1,2,0:0:0:0:
149,264,70917,1,8,0:0:0:0:
179,248,70997,1,8,0:0:0:0:
213,244,71078,1,8,0:0:0:0:
247,253,71159,1,8,0:0:0:0:
274,274,71240,5,12,0:0:0:0:
59,150,71402,1,2,0:0:0:0:
59,150,71482,1,2,0:0:0:0:
59,150,71563,1,2,0:0:0:0:
114,323,71724,5,12,0:0:0:0:
280,48,71885,1,2,0:0:0:0:
280,48,71965,1,2,0:0:0:0:
280,48,72046,1,2,0:0:0:0:
368,226,72208,6,0,P|258:206|148:197,1,207.999990478516,12|2,0:0|0:0,0:0:0:0:
360,323,72692,5,8,0:3:0:0:
402,319,72772,1,2,0:0:0:0:
439,297,72853,1,2,0:0:0:0:
463,262,72933,1,2,0:0:0:0:
469,220,73014,1,2,0:0:0:0:
458,179,73095,1,2,0:0:0:0:
430,147,73175,1,12,0:0:0:0:
177,300,73337,5,2,0:0:0:0:
177,300,73418,1,2,0:0:0:0:
177,300,73498,2,0,L|161:195,1,103.999995239258,12|0,0:0|0:0,0:0:0:0:
291,81,73821,5,12,0:0:0:0:
261,209,73982,1,2,0:0:0:0:
184,86,74143,5,12,0:0:0:0:
347,181,74305,1,2,0:0:0:0:
180,324,74466,5,14,0:0:0:0:
313,81,74627,1,2,0:0:0:0:
86,168,74789,5,14,0:0:0:0:
383,261,74950,1,2,0:0:0:0:
161,52,75111,5,14,0:0:0:0:
257,359,75272,1,2,0:0:0:0:
407,166,75434,5,14,0:0:0:0:
24,275,75595,1,2,0:0:0:0:
94,118,75756,5,8,0:0:0:0:
120,136,75836,1,8,0:0:0:0:
151,145,75917,1,2,0:0:0:0:
184,142,75997,1,2,0:0:0:0:
214,131,76078,1,8,0:0:0:0:
245,120,76159,1,8,0:0:0:0:
277,120,76239,1,2,0:0:0:0:
307,132,76320,1,2,0:0:0:0:
336,150,76402,6,0,L|319:36,1,103.999995239258,12|0,0:0|0:0,0:0:0:0:
134,248,76724,2,0,L|151:134,1,103.999995239258,8|0,0:0|0:0,0:0:0:0:
258,353,77047,5,8,0:0:0:0:
349,231,77208,1,2,0:0:0:0:
149,145,77369,1,8,0:0:0:0:
276,33,77531,5,2,0:0:0:0:
276,33,77611,1,0,0:0:0:0:
276,33,77692,2,0,L|344:49,3,51.999997619629,8|0|2|0,0:0|0:0|0:0|0:0,0:0:0:0:
425,132,78014,6,0,L|475:120,3,51.999997619629,8|0|2|0,0:0|0:0|0:0|0:0,0:0:0:0:
349,231,78337,6,0,L|298:219,3,51.999997619629,8|0|2|0,0:0|0:0|0:0|0:0,0:0:0:0:
214,161,78660,5,8,0:0:0:0:
196,195,78740,1,2,0:0:0:0:
193,233,78821,1,2,0:0:0:0:
207,270,78901,1,2,0:0:0:0:
235,297,78982,5,6,0:0:0:0:
339,146,79143,1,2,0:0:0:0:
178,47,79305,5,8,0:0:0:0:
145,50,79385,1,0,0:0:0:0:
112,55,79466,1,2,0:0:0:0:
80,60,79546,1,0,0:0:0:0:
47,63,79627,1,8,0:0:0:0:
127,177,79789,5,2,0:0:0:0:
76,307,79950,5,8,0:0:0:0:
109,304,80030,1,0,0:0:0:0:
142,299,80111,1,2,0:0:0:0:
174,294,80191,1,0,0:0:0:0:
207,291,80272,1,8,0:0:0:0:
316,206,80434,5,2,0:0:0:0:
178,47,80595,2,0,P|153:90|159:147,1,103.999995239258,8|2,0:0|0:0,0:0:0:0:
380,325,80918,2,8,P|327:328|265:340,1,103.999995239258,8|2,0:0|0:0,0:0:0:0:
395,47,81240,6,0,P|470:88|450:202,1,204.000003890991,12|0,0:0|0:0,0:0:0:0:
385,250,81563,5,14,0:0:0:0:
358,226,81643,1,2,0:0:0:0:
324,214,81724,1,2,0:0:0:0:
288,216,81804,1,2,0:0:0:0:
254,230,81885,1,2,0:0:0:0:
220,241,81966,1,2,0:0:0:0:
184,241,82046,1,14,0:0:0:0:
152,227,82127,1,2,0:0:0:0:
125,202,82208,6,0,P|129:173|140:131,3,68.0000012969971,2|2|2|2,0:0|0:0|0:0|0:0,0:0:0:0:
64,278,82531,2,0,P|37:288|-4:300,3,68.0000012969971,14|2|2|2,0:0|0:0|0:0|0:0,0:0:0:0:
165,299,82853,5,14,0:0:0:0:
195,323,82933,1,2,0:0:0:0:
231,331,83014,1,2,0:0:0:0:
267,323,83094,1,2,0:0:0:0:
296,301,83175,1,2,0:0:0:0:
314,268,83256,1,2,0:0:0:0:
314,231,83336,1,14,0:0:0:0:
299,197,83417,1,2,0:0:0:0:
270,173,83498,5,2,0:0:0:0:
227,177,83578,1,2,0:0:0:0:
185,181,83659,1,2,0:0:0:0:
143,186,83739,1,2,0:0:0:0:
100,190,83821,6,0,P|90:159|85:122,1,68.0000012969971,14|2,0:0|0:0,0:0:0:0:
231,19,83982,2,0,P|242:51|246:84,1,68.0000012969971,2|2,0:0|0:0,0:0:0:0:
179,284,84143,5,12,0:0:0:0:
373,213,84305,1,2,0:0:0:0:
179,133,84466,1,2,0:0:0:0:
287,344,84627,5,14,0:0:0:0:
112,220,84789,1,2,0:0:0:0:
379,115,84950,1,2,0:0:0:0:
186,45,85111,5,14,0:0:0:0:
315,350,85272,1,2,0:0:0:0:
428,219,85434,5,12,0:0:0:0:
117,137,85595,1,12,0:0:0:0:
422,97,85756,5,12,0:0:0:0:
92,310,85918,1,12,0:0:0:0:
274,47,86079,5,2,0:0:0:0:
304,252,86240,1,2,0:0:0:0:
283,260,86320,1,2,0:0:0:0:
260,264,86401,1,2,0:0:0:0:
238,261,86481,1,2,0:0:0:0:
217,254,86562,1,2,0:0:0:0:
198,241,86643,1,2,0:0:0:0:
183,224,86723,1,6,0:0:0:0:
403,40,90756,5,4,0:3:0:0:
403,40,90837,1,4,0:3:0:0:
403,40,90918,1,2,0:0:0:0:
337,146,91079,6,0,L|518:122,1,160,4|2,0:3|0:0,0:0:0:0:
428,229,91563,1,2,0:3:0:0:
428,229,91885,6,0,P|359:162|264:192,1,191.999994140625,6|2,0:0|0:0,0:0:0:0:
197,258,92369,2,0,L|214:356,1,95.9999970703126,0|2,0:0|0:0,0:0:0:0:
96,209,92692,2,0,L|113:307,1,95.9999970703126,0|2,0:0|0:0,0:0:0:0:
157,33,93014,1,0,0:0:0:0:
18,147,93176,6,0,P|108:129|218:115,1,191.999994140625,2|2,0:0|0:0,0:0:0:0:
395,167,93660,1,0,0:0:0:0:
327,16,93821,2,0,P|315:66|308:125,1,95.9999970703126,2|0,0:0|0:0,0:0:0:0:
355,306,94143,5,8,0:0:0:0:
151,231,94305,1,0,0:0:0:0:
151,231,94385,1,0,0:0:0:0:
151,231,94466,2,0,L|198:220,3,47.9999985351563,2|0|0|0,0:0|0:0|0:0|0:0,0:0:0:0:
355,306,94789,2,0,L|308:295,3,47.9999985351563,2|0|0|0,0:0|0:0|0:0|0:0,0:0:0:0:
214,353,95111,5,2,0:0:0:0:
354,211,95272,1,0,0:0:0:0:
354,211,95353,1,0,0:0:0:0:
354,211,95434,1,8,0:0:0:0:
117,77,95595,2,0,L|218:60,1,95.9999970703126,6|0,0:0|0:0,0:0:0:0:
197,220,95918,5,2,0:0:0:0:
197,220,95998,1,2,0:0:0:0:
197,220,96079,1,8,0:0:0:0:
378,113,96240,1,0,0:0:0:0:
312,361,96402,1,2,0:0:0:0:
453,153,96563,5,2,0:0:0:0:
459,105,96643,1,2,0:0:0:0:
439,62,96724,1,8,0:0:0:0:
399,36,96804,1,8,0:0:0:0:
352,37,96885,1,8,0:0:0:0:
312,64,96966,1,8,0:0:0:0:
292,107,97047,6,0,P|297:152|306:211,1,96,2|0,0:0|0:0,0:0:0:0:
356,292,97369,6,0,B|322:262|302:240|302:240|242:266|154:273,1,207.999990478516,12|2,0:0|0:0,0:0:0:0:
34,116,97853,1,0,0:0:0:0:
34,116,97934,1,0,0:0:0:0:
34,116,98014,1,8,0:0:0:0:
218,169,98176,1,0,0:0:0:0:
100,276,98337,5,12,0:0:0:0:
168,68,98498,1,0,0:0:0:0:
289,286,98660,5,12,0:0:0:0:
79,187,98821,1,0,0:0:0:0:
295,77,98982,5,12,0:0:0:0:
160,338,99143,1,0,0:0:0:0:
382,194,99305,5,12,0:0:0:0:
87,63,99466,1,0,0:0:0:0:
87,63,99547,1,0,0:0:0:0:
87,63,99627,6,0,B|148:35|148:35|122:197,1,207.999990478516,6|8,0:0|0:0,0:0:0:0:
0,353,100111,2,0,P|41:329|104:334,1,103.999995239258,0|2,0:0|0:0,0:0:0:0:
357,269,100434,2,0,P|305:271|260:246,1,103.999995239258,0|8,0:0|0:0,0:0:0:0:
138,48,100756,2,0,P|149:98|162:182,1,103.999995239258,0|2,0:0|0:0,0:0:0:0:
96,330,101079,1,0,0:0:0:0:
326,177,101240,5,8,0:0:0:0:
73,229,101402,1,0,0:0:0:0:
228,332,101563,1,2,0:0:0:0:
212,137,101724,5,2,0:0:0:0:
196,105,101804,1,2,0:0:0:0:
172,82,101885,1,8,0:0:0:0:
140,68,101965,1,2,0:0:0:0:
105,66,102046,1,2,0:0:0:0:
73,77,102127,1,2,0:0:0:0:
45,99,102207,5,12,0:0:0:0:
129,315,102369,1,2,0:0:0:0:
129,315,102450,1,2,0:0:0:0:
129,315,102531,1,2,0:0:0:0:
352,239,102692,5,12,0:0:0:0:
114,192,102853,1,2,0:0:0:0:
114,192,102934,1,2,0:0:0:0:
114,192,103014,1,2,0:0:0:0:
334,70,103176,6,0,B|282:31|282:31|304:189,1,207.999990478516,12|2,0:0|0:0,0:0:0:0:
415,333,103660,1,12,0:0:0:0:
415,333,103740,1,2,0:0:0:0:
415,333,103821,2,0,P|366:311|298:324,1,103.999995239258,2|2,0:0|0:0,0:0:0:0:
101,304,104143,5,8,0:0:0:0:
76,269,104223,1,8,0:0:0:0:
72,228,104304,1,2,0:0:0:0:
90,191,104384,1,2,0:0:0:0:
124,166,104465,1,8,0:0:0:0:
165,163,104546,1,8,0:0:0:0:
203,181,104626,1,2,0:0:0:0:
226,215,104707,1,2,0:0:0:0:
228,257,104788,5,12,0:0:0:0:
48,124,104950,1,2,0:0:0:0:
304,50,105111,5,12,0:0:0:0:
150,241,105272,1,2,0:0:0:0:
96,27,105434,5,12,0:0:0:0:
379,177,105595,1,2,0:0:0:0:
148,338,105756,5,12,0:0:0:0:
234,22,105918,1,2,0:0:0:0:
325,288,106079,5,10,0:0:0:0:
131,117,106240,1,2,0:0:0:0:
379,177,106402,5,10,0:0:0:0:
157,239,106563,1,2,0:0:0:0:
341,90,106724,5,8,0:0:0:0:
377,82,106804,1,2,0:0:0:0:
413,90,106885,1,2,0:0:0:0:
444,111,106965,1,2,0:0:0:0:
464,142,107046,1,8,0:0:0:0:
470,179,107127,1,2,0:0:0:0:
462,215,107207,1,2,0:0:0:0:
441,245,107288,1,2,0:0:0:0:
409,264,107369,6,0,P|355:254|288:248,1,95.9999970703126,6|0,0:0|0:0,0:0:0:0:
138,316,107692,1,8,0:0:0:0:
199,221,107853,2,0,L|182:126,1,95.9999970703126,0|2,0:0|0:0,0:0:0:0:
37,57,108176,2,0,L|20:151,1,95.9999970703126,0|8,0:0|0:0,0:0:0:0:
138,316,108498,6,0,B|233:365|242:283|330:330,1,191.999994140625,2|2,0:0|0:0,0:0:0:0:
434,264,108982,2,0,P|426:213|416:158,1,95.9999970703126,8|0,0:0|0:0,0:0:0:0:
321,36,109305,1,2,0:0:0:0:
489,94,109466,1,2,0:0:0:0:
341,242,109627,2,0,P|271:230|194:220,1,143.999995605469,8|0,0:0|0:0,0:0:0:0:
153,245,109950,6,0,P|135:203|134:143,1,95.9999970703126,2|0,0:0|0:0,0:0:0:0:
225,23,110272,2,0,L|336:37,1,95.9999970703126,8|0,0:0|0:0,0:0:0:0:
449,195,110595,1,2,0:0:0:0:
284,302,110756,2,0,P|260:261|270:203,1,95.9999970703126,0|8,0:0|0:0,0:0:0:0:
414,87,111079,6,0,B|471:66|471:66|449:196,1,191.999994140625,0|2,0:0|0:0,0:0:0:0:
245,117,111563,1,8,0:0:0:0:
375,310,111724,1,0,0:0:0:0:
342,151,111885,1,2,0:0:0:0:
234,319,112047,1,0,0:0:0:0:
234,319,112127,1,0,0:0:0:0:
234,319,112208,2,0,B|146:348|154:274|56:311,1,180.000006866455,8|0,0:0|0:0,0:0:0:0:
37,333,112531,5,12,0:0:0:0:
201,226,112692,1,2,0:0:0:0:
94,137,112853,5,12,0:0:0:0:
142,334,113014,1,2,0:0:0:0:
307,193,113176,5,12,0:0:0:0:
50,239,113337,1,2,0:0:0:0:
215,90,113498,5,12,0:0:0:0:
126,344,113660,1,2,0:0:0:0:
70,150,113821,5,12,0:0:0:0:
321,275,113982,1,2,0:0:0:0:
337,79,114143,5,12,0:0:0:0:
127,261,114305,1,2,0:0:0:0:
127,261,114385,1,2,0:0:0:0:
127,261,114466,1,8,0:0:0:0:
402,188,114627,5,2,0:0:0:0:
253,5,114789,1,8,0:0:0:0:
221,28,114869,1,2,0:0:0:0:
207,62,114950,1,2,0:0:0:0:
211,102,115030,1,2,0:0:0:0:
233,133,115111,6,0,P|319:117|411:107,1,180.000006866455,12|0,0:0|0:0,0:0:0:0:
439,118,115434,5,12,0:0:0:0:
286,219,115595,1,2,0:0:0:0:
348,29,115756,5,12,0:0:0:0:
383,299,115918,1,2,0:0:0:0:
130,163,116079,5,12,0:0:0:0:
415,207,116240,1,2,0:0:0:0:
177,341,116402,5,12,0:0:0:0:
266,60,116563,1,2,0:0:0:0:
417,324,116724,5,12,0:0:0:0:
78,104,116885,1,2,0:0:0:0:
146,303,117047,5,8,0:0:0:0:
176,314,117127,1,2,0:0:0:0:
209,316,117208,1,2,0:0:0:0:
240,305,117288,1,2,0:0:0:0:
266,285,117369,1,8,0:0:0:0:
292,265,117450,1,2,0:0:0:0:
324,255,117530,1,2,0:0:0:0:
356,257,117611,1,2,0:0:0:0:
388,267,117692,6,0,L|377:193,1,60.0000022888184,2|2,0:0|0:0,0:0:0:0:
208,122,117853,2,0,L|199:181,1,60.0000022888184,2|2,0:0|0:0,0:0:0:0:
450,56,118014,1,6,0:0:0:0:
256,192,118095,12,0,122531,0:0:0:0:
228,188,122799,6,0,L|290:201,3,55.9999982910157,8|4|2|2,0:3|0:3|0:0|0:0,0:0:0:0:
