osu file format v14

[General]
AudioFilename: audio.mp3
AudioLeadIn: 0
PreviewTime: 63819
Countdown: 0
SampleSet: Soft
StackLeniency: 0.7
Mode: 2
LetterboxInBreaks: 0
WidescreenStoryboard: 1

[Editor]
Bookmarks: 1534,16363,20055,29901,49593,64363,84055,93901,113593,128363,148055,167747,187439,213286,241593,263747,265901
DistanceSpacing: 1.6
BeatDivisor: 6
GridSize: 16
TimelineZoom: 3.859997

[Metadata]
Title:Hoihoi*Gensou Holoism
TitleUnicode:ホイホイ☆幻想ホロイズム
Artist:Houshou Marine with Holoism Fantasy
ArtistUnicode:宝鐘マリン with ホロイズムファンタジー
Creator:Secre
Version:AHOY
Source:東方風神録 ~ Mountain of Faith.
Tags:chickenbible amateurre japanese electronic video game vtuber virtual youtuber ホロライブ hololive 兎田ぺこら usada pekora 潤羽るしあ uruha rushia 不知火フレア shiranui flare 白銀ノエル shirogane noel beatmario iosys touhou 東方project th10 神々が恋した幻想郷 ~ the gensokyo gods loved zun senchou COOL&CREATE ビートまりお 上海アリス幻樂団 Team Shanghai Alice 4cwc 4 digit catch world cup gf grand finals nm1 nomod 1 one
BeatmapID:4295633
BeatmapSetID:2055714

[Difficulty]
HPDrainRate:5
CircleSize:4
OverallDifficulty:9.4
ApproachRate:9.4
SliderMultiplier:1.8
SliderTickRate:2

[Events]
//Background and Video events
0,0,"MARIRIRIN.jpg",0,0
//Break Periods
//Storyboard Layer 0 (Background)
//Storyboard Layer 1 (Fail)
//Storyboard Layer 2 (Pass)
//Storyboard Layer 3 (Foreground)
//Storyboard Layer 4 (Overlay)
//Storyboard Sound Samples

[TimingPoints]
597,375,4,2,1,45,1,0
2097,-125,4,2,1,45,0,0
11472,405.405405405405,4,2,1,45,1,0
12688,458.015267175573,4,2,1,45,1,0
14062,483.870967741935,4,2,1,45,1,0
14545,454.545454545455,4,2,1,45,1,0
16373,307.692307692308,4,2,1,60,1,0
17603,-100,4,2,1,70,0,0
17911,-100,4,2,1,70,0,0
18219,-100,4,2,1,70,0,0
18526,-100,4,2,1,70,0,0
19757,-40,4,2,1,70,0,0
20065,-100,4,2,1,75,0,1
20373,-100,4,2,1,75,0,1
20526,-100,4,2,1,75,0,1
23757,-100,4,2,1,75,0,1
23988,-100,4,2,1,75,0,1
24065,-100,4,2,1,75,0,1
24296,-100,4,2,1,75,0,1
24373,-100,4,2,1,75,0,1
24603,-100,4,2,1,75,0,1
24680,-100,4,2,1,75,0,1
24988,-100,4,2,1,75,0,1
25296,-100,4,2,1,75,0,1
25449,-100,4,2,1,75,0,1
27449,-100,4,2,1,75,0,1
27757,-100,4,2,1,75,0,1
28065,-100,4,2,1,75,0,1
28834,-100,4,2,1,75,0,1
29603,-100,4,2,1,75,0,1
29911,-100,4,2,1,60,0,0
34757,-100,4,2,1,60,0,0
34834,-100,4,2,1,60,0,0
37526,-100,4,2,1,60,0,0
37603,-100,4,2,1,60,0,0
37834,-100,4,2,1,60,0,0
37911,-100,4,2,1,60,0,0
38142,-100,4,2,1,60,0,0
38219,-100,4,2,1,60,0,0
38988,-100,4,2,1,60,0,0
39296,-100,4,2,1,60,0,0
39757,-100,4,2,1,65,0,0
42526,-100,4,2,1,65,0,0
44680,-100,4,2,1,65,0,0
44988,-100,4,2,1,65,0,0
46219,-100,4,2,1,65,0,0
47449,-100,4,2,1,65,0,0
49603,-100,4,2,1,70,0,0
52296,-100,4,2,1,70,0,0
52373,-100,4,2,1,70,0,0
53603,-100,4,2,1,70,0,0
53911,-100,4,2,1,70,0,0
59142,-100,4,2,1,70,0,0
62526,-100,4,2,1,70,0,0
62834,-100,4,2,1,70,0,0
63449,-100,4,2,1,70,0,0
64373,-100,4,2,1,80,0,1
69526,-100,4,2,1,80,0,1
69603,-100,4,2,1,80,0,1
69834,-100,4,2,1,80,0,1
69911,-100,4,2,1,80,0,1
70757,-100,4,2,1,80,0,1
70834,-100,4,2,1,80,0,1
71065,-100,4,2,1,80,0,1
71142,-100,4,2,1,80,0,1
71757,-100,4,2,1,80,0,1
71988,-100,4,2,1,80,0,1
72065,-100,4,2,1,80,0,1
72449,-100,4,2,1,80,0,1
72526,-100,4,2,1,80,0,1
72834,-66.6666666666667,4,2,1,80,0,1
73065,-66.6666666666667,4,2,1,80,0,1
73142,-66.6666666666667,4,2,1,80,0,1
73603,-100,4,2,1,80,0,1
73834,-100,4,2,1,80,0,1
73911,-100,4,2,1,80,0,1
74142,-100,4,2,1,80,0,1
74219,-100,4,2,1,80,0,1
75680,-100,4,2,1,80,0,1
75757,-100,4,2,1,80,0,1
75988,-100,4,2,1,80,0,1
76065,-100,4,2,1,80,0,1
79373,-100,4,2,1,80,0,1
79449,-100,4,2,1,80,0,1
79680,-100,4,2,1,80,0,1
79757,-100,4,2,1,80,0,1
80603,-100,4,2,1,80,0,1
80680,-100,4,2,1,80,0,1
80911,-100,4,2,1,80,0,1
80988,-100,4,2,1,80,0,1
82680,-100,4,2,1,80,0,1
82834,-100,4,2,1,80,0,0
83296,-100,4,2,1,80,0,0
83757,-100,4,2,1,80,0,0
84065,-100,4,2,1,75,0,1
84296,-100,4,2,1,75,0,1
84373,-100,4,2,1,75,0,1
84526,-100,4,2,1,75,0,1
84603,-100,4,2,1,75,0,1
84680,-100,4,2,1,75,0,1
85373,-100,4,2,1,75,0,1
85449,-100,4,2,1,75,0,1
87219,-100,4,2,1,75,0,1
87296,-100,4,2,1,75,0,1
87757,-100,4,2,1,75,0,1
87988,-100,4,2,1,75,0,1
88065,-100,4,2,1,75,0,1
88296,-100,4,2,1,75,0,1
88373,-100,4,2,1,75,0,1
88603,-100,4,2,1,75,0,1
88680,-100,4,2,1,75,0,1
88988,-100,4,2,1,75,0,1
89219,-100,4,2,1,75,0,1
89296,-100,4,2,1,75,0,1
89449,-100,4,2,1,75,0,1
89526,-100,4,2,1,75,0,1
89603,-100,4,2,1,75,0,1
90296,-100,4,2,1,75,0,1
90373,-100,4,2,1,75,0,1
91449,-100,4,2,1,75,0,1
91757,-100,4,2,1,75,0,1
92065,-100,4,2,1,75,0,1
92834,-100,4,2,1,75,0,1
93603,-100,4,2,1,75,0,1
93911,-100,4,2,1,55,0,0
102526,-100,4,2,1,60,0,0
102834,-100,4,2,1,60,0,0
102988,-100,4,2,1,60,0,0
103296,-100,4,2,1,60,0,0
103757,-100,4,2,1,60,0,0
104065,-100,4,2,1,65,0,0
106526,-100,4,2,1,65,0,0
108680,-100,4,2,1,65,0,0
108988,-100,4,2,1,65,0,0
110219,-100,4,2,1,65,0,0
111449,-100,4,2,1,65,0,0
113603,-100,4,2,1,70,0,0
113911,-100,4,2,1,70,0,0
114219,-100,4,2,1,70,0,0
115142,-100,4,2,1,70,0,0
115449,-100,4,2,1,70,0,0
115757,-100,4,2,1,70,0,0
116065,-100,4,2,1,70,0,0
116373,-100,4,2,1,70,0,0
116680,-100,4,2,1,70,0,0
116988,-100,4,2,1,70,0,0
117296,-100,4,2,1,70,0,0
117603,-100,4,2,1,70,0,0
117911,-100,4,2,1,70,0,0
118526,-100,4,2,1,70,0,0
118834,-100,4,2,1,70,0,0
119142,-100,4,2,1,70,0,0
120988,-100,4,2,1,70,0,0
123142,-100,4,2,1,70,0,0
126526,-100,4,2,1,70,0,0
126834,-100,4,2,1,70,0,0
127449,-100,4,2,1,70,0,0
128373,-100,4,2,1,80,0,1
130142,-100,4,2,1,80,0,1
130219,-100,4,2,1,80,0,1
133526,-100,4,2,1,80,0,1
133603,-100,4,2,1,80,0,1
133834,-100,4,2,1,80,0,1
133911,-100,4,2,1,80,0,1
134757,-100,4,2,1,80,0,1
134834,-100,4,2,1,80,0,1
135065,-100,4,2,1,80,0,1
135142,-100,4,2,1,80,0,1
135757,-100,4,2,1,80,0,1
135988,-100,4,2,1,80,0,1
136065,-100,4,2,1,80,0,1
136296,-100,4,2,1,80,0,1
136373,-100,4,2,1,80,0,1
136834,-66.6666666666667,4,2,1,80,0,1
137603,-100,4,2,1,80,0,1
138219,-100,4,2,1,80,0,1
139988,-100,4,2,1,80,0,1
140065,-100,4,2,1,80,0,1
143373,-100,4,2,1,80,0,1
143449,-100,4,2,1,80,0,1
143680,-100,4,2,1,80,0,1
143757,-100,4,2,1,80,0,1
144603,-100,4,2,1,80,0,1
144680,-100,4,2,1,80,0,1
144911,-100,4,2,1,80,0,1
144988,-100,4,2,1,80,0,1
145603,-100,4,2,1,80,0,1
146834,-100,4,2,1,80,0,0
148065,-100,4,2,1,60,0,0
157911,-100,4,2,1,60,0,0
162219,-100,4,2,1,60,0,0
165296,-100,4,2,1,60,0,0
167449,-100,4,2,1,60,0,1
167680,-100,4,2,1,60,0,1
167757,-100,4,2,1,75,0,0
172065,-86.9565217391304,4,2,1,75,0,0
172680,-100,4,2,1,75,0,0
177603,-100,4,2,1,75,0,0
177911,-100,4,2,1,75,0,0
178680,-100,4,2,1,75,0,0
180065,-100,4,2,1,75,0,0
180373,-100,4,2,1,75,0,0
181296,-100,4,2,1,75,0,0
184988,-100,4,2,1,75,0,0
185219,-100,4,2,1,75,0,0
185296,-100,4,2,1,75,0,0
185526,-100,4,2,1,75,0,0
185603,-100,4,2,1,75,0,0
185834,-100,4,2,1,75,0,0
185911,-100,4,2,1,75,0,0
186449,-100,4,2,1,75,0,0
186526,-100,4,2,1,75,0,0
186680,-100,4,2,1,75,0,0
186988,-100,4,2,1,75,0,0
187142,-100,4,2,1,75,0,1
187449,-100,4,2,1,70,0,0
191449,-100,4,2,1,70,0,0
191757,-100,4,2,1,70,0,0
197296,-100,4,2,1,70,0,0
199988,-100,4,2,1,70,0,0
200065,-100,4,2,1,70,0,0
201911,-100,4,2,1,70,0,0
204680,-100,4,2,1,70,0,0
208373,-100,4,2,1,70,0,0
212373,-100,4,2,1,70,0,0
213296,-100,4,2,1,80,0,1
213526,-100,4,2,1,80,0,1
213603,-100,4,2,1,80,0,1
214757,-100,4,2,1,80,0,1
214834,-100,4,2,1,80,0,1
218449,-100,4,2,1,80,0,1
218526,-100,4,2,1,80,0,1
218757,-100,4,2,1,80,0,1
218834,-100,4,2,1,80,0,1
219680,-100,4,2,1,80,0,1
219757,-100,4,2,1,80,0,1
219988,-100,4,2,1,80,0,1
220065,-100,4,2,1,80,0,1
220680,-100,4,2,1,80,0,1
220911,-100,4,2,1,80,0,1
220988,-100,4,2,1,80,0,1
221219,-100,4,2,1,80,0,1
221296,-100,4,2,1,80,0,1
221757,-66.6666666666667,4,2,1,80,0,1
222219,-100,4,2,1,80,0,1
222680,-100,4,2,1,80,0,1
223065,-100,4,2,1,80,0,1
223142,-100,4,2,1,80,0,1
223373,-100,4,2,1,80,0,1
223449,-100,4,2,1,80,0,1
225219,-100,4,2,1,80,0,1
225296,-100,4,2,1,80,0,1
228296,-100,4,2,1,80,0,1
228372,-100,4,2,1,80,0,1
228603,-100,4,2,1,80,0,1
228680,-100,4,2,1,80,0,1
229526,-100,4,2,1,80,0,1
229603,-100,4,2,1,80,0,1
229834,-100,4,2,1,80,0,1
229911,-100,4,2,1,80,0,1
234219,-100,4,2,1,80,0,1
235142,-100,4,2,1,80,0,1
238834,-100,4,2,1,80,0,0
240373,-100,4,2,1,80,0,0
241603,-100,4,2,1,70,0,0
241834,-100,4,2,1,70,0,0
241911,-100,4,2,1,70,0,0
242219,-100,4,2,1,70,0,0
242449,-100,4,2,1,70,0,0
242526,-100,4,2,1,70,0,0
243757,-40,4,2,1,70,0,0
243988,-40,4,2,1,70,0,0
244065,-100,4,2,1,75,0,1
244296,-100,4,2,1,75,0,1
244373,-100,4,2,1,75,0,1
244526,-100,4,2,1,75,0,1
244603,-100,4,2,1,75,0,1
244680,-100,4,2,1,75,0,1
247757,-100,4,2,1,75,0,1
247988,-100,4,2,1,75,0,1
248065,-100,4,2,1,75,0,1
248296,-100,4,2,1,75,0,1
248373,-100,4,2,1,75,0,1
248603,-100,4,2,1,75,0,1
248680,-100,4,2,1,75,0,1
248988,-100,4,2,1,75,0,1
249296,-100,4,2,1,75,0,1
249449,-100,4,2,1,75,0,1
249526,-100,4,2,1,75,0,1
249603,-100,4,2,1,75,0,1
250296,-100,4,2,1,75,0,1
250373,-100,4,2,1,75,0,1
253603,-100,4,2,1,75,0,1
253834,-100,4,2,1,75,0,1
253911,-100,4,2,1,75,0,1
254065,-100,4,2,1,75,0,1
254142,-100,4,2,1,75,0,0
254219,-100,4,2,1,75,0,1
255219,-100,4,2,1,75,0,1
255296,-100,4,2,1,75,0,1
257603,-100,4,2,1,75,0,1
257834,-100,4,2,1,75,0,1
257911,-100,4,2,1,75,0,1
258142,-100,4,2,1,75,0,1
258219,-100,4,2,1,75,0,1
258449,-100,4,2,1,75,0,1
258526,-100,4,2,1,75,0,1
258757,-100,4,2,1,75,0,1
258834,-100,4,2,1,75,0,1
263757,-100,4,2,1,70,0,0
264065,-100,4,2,1,70,0,0
264296,-100,4,2,1,70,0,0
264373,-100,4,2,1,70,0,0
264834,-100,4,2,1,70,0,0
265834,-100,4,2,1,70,0,0
265911,-100,4,2,1,70,0,0
266526,-100,4,2,1,55,0,0
267142,-100,4,2,1,33,0,0
267757,-100,4,2,1,15,0,0

[Colours]
Combo1 : 81,156,249
Combo2 : 237,63,89
Combo3 : 242,218,49

[HitObjects]
330,145,1534,5,2,0:2:0:0:
220,82,1722,1,2,0:2:0:0:
348,37,1909,1,2,0:2:0:0:
179,64,2097,6,0,P|123:73|112:157,1,144,2|0,0:2|0:0,0:2:0:0:
217,206,2659,1,0,0:2:0:0:
107,149,2847,2,0,L|105:57,1,72,2|0,0:2|0:0,0:2:0:0:
261,69,3222,1,0,0:0:0:0:
105,77,3409,1,0,0:2:0:0:
261,69,3597,6,0,P|335:77|404:269,1,288,2|2,0:2|0:2,0:2:0:0:
269,264,4534,1,2,0:2:0:0:
404,208,4722,2,0,L|408:120,1,72,2|2,0:2|0:2,0:0:0:0:
251,97,5097,6,0,P|200:109|202:194,1,144,2|0,0:2|0:0,0:2:0:0:
377,229,5659,2,0,P|418:217|365:119,1,192,2|2,0:2|0:2,0:0:0:0:
255,84,6597,5,2,0:2:0:0:
167,55,6784,1,0,0:2:0:0:
271,26,6972,1,2,0:2:0:0:
156,132,7159,1,2,0:2:0:0:
331,110,7347,1,2,0:2:0:0:
258,76,7534,1,2,0:2:0:0:
395,98,7722,2,0,L|394:187,1,72,2|2,0:2|0:2,0:0:0:0:
250,198,8097,6,0,P|212:197|184:296,1,144,2|0,0:2|0:2,0:2:0:0:
303,299,8659,2,0,L|306:215,1,72,2|0,0:2|0:0,0:0:0:0:
157,118,9034,2,0,L|237:104,2,72,2|2|2,0:2|0:2|0:2,0:0:0:0:
302,113,9597,6,0,P|362:116|383:207,1,144,2|0,0:2|0:2,0:2:0:0:
250,192,10159,2,0,P|201:196|173:284,1,144,2|0,0:2|0:2,0:2:0:0:
291,296,10722,1,2,0:2:0:0:
168,265,10909,1,0,0:2:0:0:
318,198,11097,6,0,L|322:105,1,72,2|0,0:2|0:0,0:0:0:0:
183,98,11472,1,2,0:2:0:0:
292,86,11674,1,2,0:2:0:0:
292,86,11877,1,2,0:2:0:0:
183,98,12080,1,2,0:2:0:0:
345,113,12282,2,0,L|436:100,1,90,2|2,0:2|0:2,0:0:0:0:
284,179,12688,5,2,0:2:0:0:
206,242,12917,1,2,0:2:0:0:
341,213,13146,1,2,0:2:0:0:
196,147,13375,1,2,0:2:0:0:
291,103,13604,1,2,0:2:0:0:
166,73,13833,1,2,0:2:0:0:
333,74,14062,2,0,L|336:174,1,90,2|2,0:2|0:2,0:0:0:0:
166,190,14545,5,2,0:2:0:0:
256,192,14772,12,0,16135,0:2:0:0:
333,200,16373,5,0,1:2:0:0:
215,130,16526,1,0,3:2:0:0:
149,130,16602,1,0,3:2:0:0:
215,130,16680,1,0,3:2:0:0:
441,138,16834,1,0,1:2:0:0:
312,93,16988,1,0,3:2:0:0:
441,138,17142,1,0,3:2:0:0:
312,93,17296,1,0,3:2:0:0:
441,138,17449,1,0,0:0:0:0:
140,137,17603,6,0,L|136:262,1,90,4|0,1:2|0:0,0:2:0:0:
194,263,17834,1,0,0:2:0:0:
341,187,17911,1,0,3:2:0:0:
285,177,17987,1,0,3:2:0:0:
212,151,18065,1,0,3:2:0:0:
154,141,18141,1,0,3:2:0:0:
372,137,18219,6,0,L|376:262,1,90,4|0,1:2|0:0,0:2:0:0:
318,263,18450,1,0,0:2:0:0:
147,194,18527,1,0,3:2:0:0:
204,189,18603,1,0,3:2:0:0:
283,137,18681,1,0,3:2:0:0:
344,126,18757,1,0,3:2:0:0:
196,86,18834,6,0,L|124:81,1,45,4|0,3:2|0:2,0:2:0:0:
227,51,18988,2,0,L|308:47,1,45,0|0,3:2|0:2,0:2:0:0:
193,53,19142,2,0,L|119:45,1,45,0|0,3:2|0:2,0:2:0:0:
361,140,19296,2,0,L|432:129,1,45,0|0,3:2|0:2,0:2:0:0:
199,96,19449,6,0,L|125:91,1,45,0|0,3:2|3:2,0:2:0:0:
375,50,19603,2,0,L|453:46,1,45,0|0,3:2|3:2,0:2:0:0:
253,137,19757,2,0,B|28:134|28:134|21:18,1,337.5,8|0,1:2|0:2,0:2:0:0:
307,98,20065,6,0,L|434:93,1,90,2|0,3:2|3:2,0:0:0:0:
156,81,20373,2,0,L|63:76,1,90,6|0,1:2|0:2,0:2:0:0:
342,222,20680,1,2,3:2:0:0:
108,176,20834,1,2,3:2:0:0:
106,131,20910,1,0,0:0:0:0:
104,86,20987,1,0,1:2:0:0:
355,79,21142,6,0,L|228:77,1,90,2|0,3:2|0:0,0:2:0:0:
485,167,21449,1,2,3:2:0:0:
225,109,21603,1,0,1:2:0:0:
295,95,21680,1,0,0:2:0:0:
365,86,21757,1,2,3:2:0:0:
127,200,21911,1,2,3:2:0:0:
244,144,22065,2,0,L|176:142,1,45,2|2,3:2|3:2,0:0:0:0:
374,94,22219,2,0,L|489:94,1,90,2|2,1:2|3:2,0:0:0:0:
203,80,22526,6,0,L|255:79,1,45,2|0,3:2|3:2,0:0:0:0:
387,52,22680,2,0,L|461:46,1,45,2|0,3:2|3:2,0:0:0:0:
246,167,22834,2,0,L|169:166,1,45,2|0,1:2|0:0,0:0:0:0:
377,212,22988,6,0,P|423:196|367:135,1,135,2|0,3:2|0:2,0:2:0:0:
315,105,23296,2,0,L|261:89,1,45,2|0,3:2|0:0,0:0:0:0:
354,57,23449,2,0,L|432:46,1,45,2|0,1:2|0:2,0:2:0:0:
233,39,23603,2,0,L|175:27,1,45,2|0,3:2|0:2,0:2:0:0:
403,102,23757,6,0,L|408:220,1,90,6|0,3:2|3:2,0:2:0:0:
346,232,23988,1,0,3:2:0:0:
175,174,24065,1,6,1:2:0:0:
299,115,24219,1,0,3:2:0:0:
243,110,24295,1,0,3:2:0:0:
72,82,24373,5,6,3:2:0:0:
125,68,24449,1,0,0:2:0:0:
302,52,24526,1,0,3:2:0:0:
353,42,24602,1,0,0:2:0:0:
173,163,24680,1,6,1:2:0:0:
121,142,24756,1,0,1:2:0:0:
330,137,24834,1,0,1:2:0:0:
384,151,24910,1,0,1:2:0:0:
190,106,24988,6,0,L|63:101,1,90,6|0,3:2|3:2,0:0:0:0:
341,89,25296,2,0,L|434:84,1,90,6|0,1:2|0:2,0:2:0:0:
155,230,25603,1,2,3:2:0:0:
389,184,25757,1,2,3:2:0:0:
441,145,25833,1,0,0:0:0:0:
392,94,25910,1,0,1:2:0:0:
148,76,26065,6,0,L|275:74,1,90,2|0,3:2|0:0,0:2:0:0:
12,175,26372,1,2,3:2:0:0:
272,117,26526,1,0,1:2:0:0:
202,103,26603,1,0,0:2:0:0:
132,94,26680,1,2,3:2:0:0:
365,212,26834,1,2,3:2:0:0:
242,148,26988,2,0,L|310:146,1,45,2|2,3:2|3:2,0:0:0:0:
123,102,27142,2,0,L|8:102,1,90,2|2,1:2|3:2,0:0:0:0:
81,48,27373,1,2,3:2:0:0:
331,59,27449,5,6,3:2:0:0:
103,91,27757,1,6,3:2:0:0:
481,127,28065,1,6,1:2:0:0:
256,123,28219,1,2,3:2:0:0:
31,127,28373,1,2,1:2:0:0:
383,108,28526,6,0,P|437:121|379:199,1,180,4|2,3:2|3:2,0:2:0:0:
179,175,28988,1,2,1:2:0:0:
322,165,29142,1,2,3:2:0:0:
37,193,29296,2,0,L|19:123,3,45,6|0|0|0,3:2|0:0|0:0|0:2,0:2:0:0:
245,109,29603,2,0,L|353:108,1,90,8|0,1:2|0:0,0:2:0:0:
119,253,29911,6,0,P|67:224|141:137,1,180,6|0,3:2|3:2,0:2:0:0:
254,118,30373,1,0,0:2:0:0:
110,124,30526,2,0,L|250:105,2,135,2|2|2,3:2|0:0|0:0,0:2:0:0:
371,242,31142,6,0,P|422:220|351:142,1,180,2|0,3:2|3:2,0:2:0:0:
230,147,31603,2,0,L|440:113,1,180,2|0,0:2|0:2,0:2:0:0:
268,232,32065,2,0,L|388:220,1,90,2|0,3:2|0:2,0:2:0:0:
131,129,32373,6,0,L|28:124,1,90,2|0,3:2|0:0,0:2:0:0:
93,77,32603,1,0,0:2:0:0:
296,102,32680,2,0,L|300:200,1,90,2|0,3:1|0:0,0:2:0:0:
159,232,32988,1,2,3:1:0:0:
396,161,33142,2,0,L|399:60,1,90,2|0,0:1|3:2,0:2:0:0:
179,73,33449,6,0,L|59:68,1,90,2|0,0:1|3:2,0:2:0:0:
227,165,33757,2,0,L|112:157,1,90,2|0,0:1|3:2,0:2:0:0:
391,121,34065,2,0,P|461:135|479:232,1,180,2|2,0:1|0:1,0:0:0:0:
225,259,34526,2,0,L|109:248,1,90,2|0,3:1|0:2,0:2:0:0:
389,181,34834,6,0,L|408:125,3,45,2|0|0|0,3:2|0:0|0:0|0:2,0:2:0:0:
195,160,35142,2,0,L|80:153,1,90,2|0,3:1|0:2,0:2:0:0:
259,94,35449,2,0,L|111:81,2,135,2|2|2,3:2|0:2|0:2,0:2:0:0:
35,237,36065,6,0,L|37:123,1,90,2|0,3:2|0:0,0:2:0:0:
99,113,36296,1,0,0:2:0:0:
293,114,36373,2,0,L|423:102,1,90,2|0,3:1|0:2,0:2:0:0:
223,199,36680,2,0,L|359:186,2,135,2|2|2,3:2|0:2|0:2,0:2:0:0:
488,126,37296,6,0,L|381:113,1,90,2|0,3:1|0:2,0:2:0:0:
126,64,37603,2,0,L|16:54,1,90,2|0,3:1|0:2,0:2:0:0:
305,126,37911,2,0,L|436:109,1,90,2|0,3:1|0:2,0:2:0:0:
146,66,38219,2,0,L|25:57,1,90,0|0,1:1|3:2,0:0:0:0:
101,118,38449,1,0,3:2:0:0:
324,82,38526,5,2,1:2:0:0:
266,74,38602,1,0,0:0:0:0:
126,168,38680,1,0,0:0:0:0:
177,161,38756,1,0,0:0:0:0:
344,145,38834,1,2,1:2:0:0:
291,136,38910,1,0,0:0:0:0:
95,128,38988,2,0,L|92:17,1,90,2|0,1:2|0:0,0:2:0:0:
317,60,39296,1,2,1:2:0:0:
187,62,39449,1,0,1:2:0:0:
432,76,39603,1,0,3:2:0:0:
374,77,39679,1,0,3:2:0:0:
153,117,39757,6,0,L|47:112,1,90,2|0,3:2|0:2,0:2:0:0:
300,125,40065,2,0,L|418:120,1,90,0|0,1:2|0:2,0:2:0:0:
166,227,40373,2,0,L|286:214,1,90,2|0,3:2|3:2,0:2:0:0:
209,162,40603,1,2,3:2:0:0:
69,158,40680,2,0,L|62:60,1,90,0|2,1:2|3:2,0:0:0:0:
279,82,40988,6,0,L|147:72,1,90,2|0,3:2|0:0,0:2:0:0:
331,89,41296,1,0,1:2:0:0:
382,96,41372,1,0,0:0:0:0:
234,180,41449,1,2,0:2:0:0:
177,198,41526,1,0,0:0:0:0:
324,162,41603,2,0,L|453:141,1,90,0|2,3:2|3:2,0:0:0:0:
193,101,41911,2,0,L|64:89,1,90,2|2,1:2|3:2,0:0:0:0:
357,112,42219,6,0,L|356:231,1,90,2|0,3:2|0:0,0:2:0:0:
302,234,42449,1,0,0:2:0:0:
136,188,42526,1,2,1:1:0:0:
188,158,42603,1,0,0:0:0:0:
363,144,42680,1,0,0:2:0:0:
415,114,42757,1,0,0:0:0:0:
251,76,42834,1,2,3:1:0:0:
123,99,42988,2,0,L|121:-24,1,90,2|0,0:1|1:2,0:2:0:0:
344,50,43296,6,0,L|470:42,1,90,2|0,0:1|3:2,0:2:0:0:
295,153,43603,2,0,L|428:146,1,90,2|0,0:1|1:2,0:2:0:0:
120,75,43911,2,0,L|237:68,1,90,2|2,0:1|3:2,0:0:0:0:
458,51,44219,1,2,0:1:0:0:
240,64,44373,2,0,L|236:181,1,90,2|0,1:1|0:0,0:2:0:0:
295,184,44603,1,0,0:2:0:0:
465,161,44680,5,2,3:2:0:0:
406,151,44756,1,0,0:0:0:0:
321,113,44834,1,0,0:0:0:0:
262,103,44911,1,0,0:2:0:0:
465,161,44988,2,0,L|467:32,1,90,2|0,1:1|0:2,0:2:0:0:
206,187,45296,2,0,L|312:172,1,90,2|0,3:2|0:2,0:2:0:0:
341,142,45526,1,2,0:2:0:0:
170,104,45603,2,0,L|39:101,1,90,0|2,0:0|3:2,0:0:0:0:
303,66,45911,6,0,L|377:57,1,45,2|0,3:2|0:0,0:2:0:0:
180,40,46065,2,0,L|103:32,1,45,0|0,0:0|0:2,0:0:0:0:
310,104,46219,2,0,L|426:90,1,90,2|0,1:1|0:2,0:2:0:0:
145,184,46526,2,0,L|79:175,2,45,2|0|0,3:2|0:0|0:2,0:2:0:0:
301,136,46757,2,0,L|352:129,2,45,2|0|0,0:2|0:0|0:2,0:2:0:0:
150,98,46988,2,0,L|66:89,1,45,2|0,3:2|0:0,0:0:0:0:
294,71,47142,5,2,3:2:0:0:
237,62,47218,1,0,0:0:0:0:
154,34,47296,1,0,0:0:0:0:
101,22,47372,1,0,0:2:0:0:
253,202,47449,1,2,1:2:0:0:
304,179,47526,1,0,0:0:0:0:
87,199,47603,1,0,3:2:0:0:
37,175,47680,1,0,3:2:0:0:
195,86,47757,5,2,3:2:0:0:
256,108,47834,1,0,0:0:0:0:
397,153,47911,1,0,3:2:0:0:
455,128,47988,1,0,0:0:0:0:
229,202,48065,1,2,1:2:0:0:
173,170,48142,1,0,0:0:0:0:
337,122,48219,1,0,3:2:0:0:
392,87,48296,1,0,0:0:0:0:
211,121,48373,5,2,1:2:0:0:
322,102,48526,1,0,1:2:0:0:
322,57,48602,1,0,0:0:0:0:
323,12,48679,1,0,0:0:0:0:
211,121,48834,1,0,0:0:0:0:
442,124,48988,1,2,1:2:0:0:
320,164,49142,1,0,1:2:0:0:
320,119,49218,1,0,0:0:0:0:
320,74,49295,1,0,0:0:0:0:
442,124,49449,1,0,0:0:0:0:
117,205,49603,6,0,L|-1:190,1,90,2|0,1:2|0:2,0:2:0:0:
241,126,49911,2,0,L|132:116,1,90,2|0,1:2|0:2,0:2:0:0:
364,197,50219,1,2,1:2:0:0:
237,133,50373,1,2,3:2:0:0:
237,88,50449,1,0,0:0:0:0:
237,43,50526,1,0,1:2:0:0:
452,114,50680,6,0,L|253:118,1,180,2|2,3:2|3:2,0:0:0:0:
416,192,51142,2,0,L|291:187,1,90,2|2,1:2|3:2,0:0:0:0:
92,185,51449,2,0,L|85:57,1,90,2|0,1:2|0:2,0:2:0:0:
224,60,51757,1,2,1:2:0:0:
87,95,51911,1,2,1:2:0:0:
357,95,52065,6,0,L|466:86,1,90,2|0,1:2|0:2,0:2:0:0:
197,143,52373,2,0,L|76:128,1,90,2|0,1:3|3:2,0:3:0:0:
349,152,52680,1,2,1:3:0:0:
217,143,52834,2,0,L|213:25,1,90,0|0,3:2|1:2,0:2:0:0:
465,33,53142,2,0,L|384:31,1,45,0|0,3:2|3:2,0:0:0:0:
194,42,53296,5,2,1:3:0:0:
140,54,53373,1,0,0:0:0:0:
86,81,53449,1,0,0:0:0:0:
86,81,53526,1,0,0:2:0:0:
318,42,53603,1,2,1:3:0:0:
372,54,53680,1,0,0:0:0:0:
426,81,53756,1,0,0:0:0:0:
426,81,53833,1,0,0:2:0:0:
210,157,53911,6,0,L|139:153,1,45,2|2,1:2|0:2,0:2:0:0:
306,91,54065,2,0,L|373:82,1,45,2|2,0:2|0:2,0:0:0:0:
177,71,54219,2,0,L|106:64,1,45,2|2,1:2|0:2,0:2:0:0:
342,24,54373,2,0,L|413:16,1,45,2|2,0:2|0:2,0:0:0:0:
168,129,54526,6,0,L|50:119,1,90,2|0,1:2|0:2,0:2:0:0:
351,135,54834,2,0,L|358:258,1,90,2|0,1:2|0:2,0:2:0:0:
116,253,55142,1,2,1:2:0:0:
242,197,55296,2,0,L|246:79,1,90,2|0,3:2|1:2,0:2:0:0:
14,90,55603,6,0,L|133:74,1,90,2|0,3:2|1:2,0:0:0:0:
347,78,55911,2,0,L|228:71,2,90,2|2|2,3:2|1:2|3:2,0:0:0:0:
73,188,56373,2,0,P|32:164|92:113,1,135,2|0,1:2|0:0,0:2:0:0:
226,100,56680,2,0,L|299:93,1,45,0|0,1:2|0:0,0:0:0:0:
103,43,56834,2,0,L|34:29,1,45,0|0,3:2|3:2,0:0:0:0:
262,137,56988,5,0,3:2:0:0:
399,105,57142,1,0,3:2:0:0:
171,85,57296,1,2,0:2:0:0:
230,84,57372,1,0,0:0:0:0:
410,64,57449,2,0,L|330:58,1,45,0|0,0:2|0:0,0:0:0:0:
171,204,57603,2,0,L|275:192,2,90,2|0|0,0:2|0:0|0:2,0:2:0:0:
426,209,58065,1,2,3:2:0:0:
363,202,58142,1,0,3:2:0:0:
185,134,58219,5,0,3:2:0:0:
414,122,58373,1,2,3:2:0:0:
415,77,58449,1,0,0:0:0:0:
417,32,58526,1,0,0:2:0:0:
185,134,58680,1,2,0:2:0:0:
457,47,58834,1,2,0:2:0:0:
506,50,58911,1,0,0:0:0:0:
457,47,58988,1,0,0:0:0:0:
210,73,59143,1,0,3:2:0:0:
155,66,59218,1,0,3:2:0:0:
322,71,59296,1,0,3:2:0:0:
377,64,59372,1,0,3:2:0:0:
181,208,59449,5,2,3:2:0:0:
45,176,59603,1,0,3:2:0:0:
181,208,59757,1,0,3:2:0:0:
45,176,59911,1,0,3:2:0:0:
331,208,60065,1,0,3:2:0:0:
467,176,60219,1,0,3:2:0:0:
331,208,60373,1,0,3:2:0:0:
467,176,60527,1,0,3:2:0:0:
186,125,60680,5,2,3:2:0:0:
329,74,60834,1,0,3:2:0:0:
186,125,60988,1,0,3:2:0:0:
329,74,61142,1,0,3:2:0:0:
71,150,61296,1,0,3:0:0:0:
329,74,61449,1,0,3:2:0:0:
386,94,61525,1,0,3:2:0:0:
386,136,61602,1,0,3:2:0:0:
329,150,61679,1,0,3:2:0:0:
135,203,61757,1,0,3:2:0:0:
196,204,61833,1,0,3:2:0:0:
369,112,61911,5,2,1:2:0:0:
419,105,61987,1,0,3:2:0:0:
228,72,62065,1,0,3:2:0:0:
173,63,62141,1,0,3:2:0:0:
380,239,62219,1,0,1:2:0:0:
431,225,62295,1,0,3:2:0:0:
245,217,62373,1,0,3:2:0:0:
191,180,62449,1,0,3:2:0:0:
347,112,62526,5,0,1:3:0:0:
401,97,62603,1,0,3:3:0:0:
201,123,62680,1,0,3:3:0:0:
150,99,62757,1,0,3:3:0:0:
304,47,62834,1,0,1:3:0:0:
357,74,62911,1,0,1:3:0:0:
153,55,62988,1,0,1:3:0:0:
97,37,63065,1,0,1:3:0:0:
289,70,63142,6,0,L|287:199,1,90,0|0,3:2|0:0,0:0:0:0:
67,242,63449,1,2,0:3:0:0:
14,234,63525,1,2,0:3:0:0:
15,193,63602,1,2,0:3:0:0:
68,182,63679,1,2,0:3:0:0:
275,167,63757,1,2,0:3:0:0:
327,162,63833,1,2,0:3:0:0:
185,98,63911,5,2,0:2:0:0:
129,87,63987,1,0,0:2:0:0:
346,64,64065,1,2,0:2:0:0:
401,53,64141,1,0,0:2:0:0:
138,29,64219,1,2,0:2:0:0:
83,24,64295,1,0,0:2:0:0:
376,85,64373,6,0,P|421:94|356:168,1,180,6|0,3:2|1:2,0:2:0:0:
141,198,64834,1,2,3:2:0:0:
197,192,64910,1,0,3:2:0:0:
430,176,64988,2,0,L|429:288,1,90,2|2,3:2|3:2,0:2:0:0:
296,300,65296,1,2,1:2:0:0:
429,265,65449,1,2,3:2:0:0:
172,142,65603,6,0,L|63:132,1,90,2|0,3:2|0:2,0:2:0:0:
349,71,65911,2,0,L|427:67,2,45,2|0|0,1:2|0:0|0:0,0:2:0:0:
121,66,66219,1,2,3:2:0:0:
179,58,66295,1,0,0:0:0:0:
358,153,66373,1,2,3:2:0:0:
300,145,66449,1,0,0:2:0:0:
128,81,66526,1,2,1:2:0:0:
73,74,66602,1,0,0:2:0:0:
280,55,66680,1,2,3:2:0:0:
332,59,66756,1,0,0:2:0:0:
141,167,66834,6,0,L|9:159,2,90,2|0|0,3:2|0:0|1:2,0:2:0:0:
386,200,67296,1,2,3:2:0:0:
251,146,67449,2,0,L|247:28,1,90,0|2,3:2|3:2,0:0:0:0:
482,62,67757,2,0,L|371:51,1,90,2|2,1:2|3:2,0:2:0:0:
123,146,68065,5,4,3:3:0:0:
363,122,68219,1,4,1:3:0:0:
366,77,68295,1,0,0:2:0:0:
369,32,68372,1,4,3:3:0:0:
81,88,68526,1,0,3:2:0:0:
79,43,68602,1,0,0:2:0:0:
78,0,68679,1,0,3:2:0:0:
352,48,68834,5,2,3:2:0:0:
301,44,68910,1,0,0:0:0:0:
133,99,68988,1,4,1:3:0:0:
187,92,69064,1,0,0:0:0:0:
382,99,69142,1,2,3:2:0:0:
331,95,69218,1,0,0:0:0:0:
117,52,69296,6,0,L|10:47,1,90,2|0,3:2|0:0,0:2:0:0:
336,84,69603,2,0,L|445:71,1,90,0|0,1:2|0:2,0:2:0:0:
133,192,69911,5,0,3:2:0:0:
193,186,69987,1,0,0:0:0:0:
359,125,70065,2,0,L|291:116,1,45,2|0,3:2|0:0,0:0:0:0:
133,68,70219,2,0,L|69:59,1,45,2|0,1:2|0:0,0:0:0:0:
271,40,70373,2,0,L|335:34,1,45,2|0,3:2|0:0,0:0:0:0:
91,117,70526,6,0,L|0:110,1,90,2|0,3:2|0:0,0:2:0:0:
343,93,70834,2,0,L|443:81,1,90,0|0,1:2|0:2,0:2:0:0:
166,103,71142,5,0,3:2:0:0:
225,95,71218,1,0,0:2:0:0:
403,118,71296,1,2,3:2:0:0:
344,110,71372,1,0,3:2:0:0:
126,130,71449,1,2,1:2:0:0:
178,123,71525,1,0,0:0:0:0:
384,46,71603,1,2,3:2:0:0:
438,55,71679,1,0,0:0:0:0:
168,192,71757,6,0,L|165:306,1,90,2|0,1:2|0:0,0:0:0:0:
443,261,72065,2,0,L|449:146,1,90,2|0,1:2|0:0,0:0:0:0:
190,115,72373,1,2,1:2:0:0:
449,136,72526,2,0,L|453:15,1,90,2|0,1:2|0:0,0:2:0:0:
133,71,72834,6,0,L|427:72,1,270.000010299683,6|2,3:2|3:2,0:2:0:0:
267,143,73296,1,2,1:2:0:0:
402,71,73449,1,2,3:2:0:0:
129,81,73603,2,0,L|18:79,1,90,0|0,3:2|3:2,0:0:0:0:
269,66,73911,5,0,1:2:0:0:
330,61,73987,1,0,3:2:0:0:
153,29,74065,1,0,3:2:0:0:
97,26,74141,1,0,3:2:0:0:
369,89,74219,6,0,P|430:94|449:198,1,180,6|0,3:2|1:2,0:2:0:0:
205,235,74680,1,2,3:2:0:0:
452,145,74834,2,0,L|326:142,1,90,2|2,3:2|3:2,0:2:0:0:
71,104,75142,2,0,L|195:103,1,90,2|2,1:2|3:2,0:2:0:0:
411,133,75449,5,2,3:2:0:0:
412,88,75525,1,0,0:0:0:0:
413,43,75602,1,0,0:2:0:0:
142,52,75757,2,0,L|81:52,2,45,2|0|0,1:2|0:0|0:0,0:2:0:0:
358,148,76065,5,2,3:2:0:0:
300,147,76141,1,0,0:0:0:0:
157,100,76219,1,0,3:2:0:0:
99,99,76295,1,0,3:2:0:0:
259,65,76373,1,2,1:2:0:0:
317,66,76449,1,0,0:2:0:0:
136,52,76526,1,2,3:2:0:0:
78,53,76602,1,0,0:2:0:0:
286,175,76680,5,2,1:2:0:0:
425,154,76834,2,0,L|432:52,1,90,0|0,1:2|0:0,0:0:0:0:
158,146,77142,6,0,L|356:131,1,180,2|2,1:2|3:2,0:2:0:0:
279,78,77526,1,0,3:2:0:0:
137,55,77603,1,2,1:2:0:0:
80,48,77679,1,0,0:2:0:0:
252,27,77757,1,2,3:2:0:0:
309,20,77833,1,0,0:2:0:0:
148,157,77911,5,2,3:2:0:0:
255,120,78065,2,0,L|261:13,1,90,0|0,1:2|3:2,0:0:0:0:
476,106,78373,2,0,L|481:-7,1,90,0|0,1:2|3:2,0:0:0:0:
258,148,78680,1,2,3:2:0:0:
387,177,78834,1,4,1:3:0:0:
258,148,78988,1,2,3:2:0:0:
205,141,79064,1,0,0:0:0:0:
361,81,79142,6,0,L|473:74,1,90,2|0,3:2|0:0,0:2:0:0:
174,73,79449,2,0,L|83:75,1,90,0|0,1:2|0:2,0:2:0:0:
344,77,79757,5,0,3:2:0:0:
291,77,79833,1,0,0:0:0:0:
130,134,79911,1,2,3:2:0:0:
68,127,79987,1,0,0:0:0:0:
220,84,80065,1,2,1:2:0:0:
282,77,80141,1,0,0:0:0:0:
115,85,80219,1,2,3:2:0:0:
53,78,80295,1,0,0:0:0:0:
276,139,80373,6,0,L|405:137,1,90,2|0,3:2|0:0,0:2:0:0:
102,76,80680,2,0,L|-5:62,1,90,0|0,1:2|3:2,0:2:0:0:
245,99,80988,6,0,L|142:90,1,90,0|0,3:2|3:2,0:0:0:0:
382,47,81296,1,2,1:2:0:0:
442,40,81372,1,0,0:0:0:0:
239,33,81449,1,0,3:2:0:0:
182,28,81525,1,0,3:2:0:0:
393,182,81603,5,2,1:2:0:0:
149,124,81911,1,0,1:2:0:0:
422,88,82219,1,0,1:2:0:0:
202,51,82373,1,0,1:2:0:0:
425,41,82680,1,2,3:2:0:0:
202,51,82834,6,0,P|151:51|95:180,1,180,6|0,1:2|0:2,0:2:0:0:
226,173,83296,2,0,P|291:178|306:292,1,180,2|0,0:2|0:2,0:2:0:0:
51,239,83757,6,0,L|18:213,6,22.5,2|0|0|0|0|0|0,3:2|0:0|0:0|0:0|0:0|0:0|0:2,0:2:0:0:
228,263,84065,6,0,L|233:150,1,90,2|0,3:2|3:2,0:0:0:0:
452,147,84373,2,4,L|456:41,1,90,4|0,1:2|0:2,1:2:0:0:
206,70,84680,1,2,3:2:0:0:
428,72,84834,1,2,3:2:0:0:
427,116,84910,1,0,0:0:0:0:
427,161,84987,1,0,1:2:0:0:
205,191,85142,6,0,L|81:183,1,90,2|0,3:2|0:0,0:2:0:0:
330,110,85449,1,2,3:2:0:0:
204,73,85603,1,0,1:2:0:0:
330,110,85757,1,2,3:2:0:0:
79,194,85911,1,2,3:2:0:0:
79,149,85987,1,0,0:0:0:0:
79,104,86064,1,2,3:2:0:0:
204,73,86219,1,2,1:2:0:0:
79,104,86373,1,2,3:2:0:0:
341,155,86526,6,0,L|292:151,1,45,2|2,3:2|3:2,0:0:0:0:
210,111,86680,2,0,L|265:104,1,45,2|2,3:2|3:2,0:0:0:0:
341,155,86834,2,0,L|292:151,1,45,2|0,1:2|0:0,0:0:0:0:
87,224,86988,6,0,P|43:205|103:147,1,135,0|0,3:2|0:2,0:2:0:0:
156,125,87296,2,0,L|203:116,1,45,2|0,3:2|0:0,0:0:0:0:
118,57,87449,2,0,L|59:44,1,45,2|0,1:2|0:2,0:2:0:0:
273,37,87603,2,0,L|319:32,1,45,2|0,3:2|0:2,0:2:0:0:
133,177,87757,6,0,L|23:165,1,90,6|0,3:2|3:2,0:2:0:0:
95,116,87988,1,0,3:2:0:0:
302,137,88065,2,0,L|412:125,1,90,6|0,1:2|3:2,0:2:0:0:
340,76,88296,1,0,3:2:0:0:
161,98,88373,5,6,3:2:0:0:
41,46,88526,2,0,L|100:41,1,45,0|0,3:2|0:2,0:2:0:0:
336,98,88680,1,6,1:2:0:0:
456,46,88833,2,0,L|397:41,1,45,0|0,1:2|1:2,0:0:0:0:
177,156,88988,6,0,L|175:273,1,90,2|0,3:2|3:2,0:0:0:0:
422,263,89296,2,0,L|304:263,1,90,6|0,1:2|0:2,0:2:0:0:
93,180,89603,1,2,3:2:0:0:
321,166,89757,2,0,L|321:42,1,90,2|0,3:2|1:2,0:2:0:0:
98,68,90065,6,0,L|41:68,2,45,2|0|0,3:2|0:0|0:0,0:2:0:0:
341,57,90373,1,2,3:2:0:0:
100,68,90526,2,2,L|98:183,1,90,2|2,1:2|3:2,0:2:0:0:
339,196,90834,1,2,3:2:0:0:
207,126,90988,2,0,L|287:129,1,45,2|2,3:2|3:2,0:0:0:0:
449,125,91142,2,0,L|449:250,1,90,2|2,1:2|3:2,0:0:0:0:
165,274,91449,5,6,3:2:0:0:
411,192,91757,1,6,3:2:0:0:
18,128,92065,1,6,1:2:0:0:
237,131,92219,1,2,3:2:0:0:
18,128,92373,1,2,1:2:0:0:
276,118,92526,6,0,P|336:123|378:235,1,180,4|2,3:2|3:2,0:2:0:0:
150,231,92988,2,0,L|29:221,1,90,2|2,1:2|3:2,0:0:0:0:
296,207,93296,2,0,L|304:76,1,90,6|0,3:2|0:0,0:2:0:0:
46,112,93603,6,0,L|26:52,3,45,8|0|0|0,1:2|0:0|0:0|0:2,0:2:0:0:
214,115,93911,6,0,P|281:119|333:318,1,270,2|0,3:2|0:0,0:0:0:0:
211,277,94526,2,0,L|374:226,2,135,2|2|2,0:2|0:2|0:2,0:2:0:0:
361,218,95142,6,0,P|416:202|346:132,1,180,2|0,0:2|0:0,0:0:0:0:
234,148,95603,2,0,L|233:35,1,90,2|0,0:2|0:0,0:2:0:0:
363,44,95911,2,0,L|250:47,2,90,2|2|2,0:2|0:2|0:2,0:0:0:0:
126,227,96373,6,0,P|73:204|144:132,1,180,2|0,0:2|0:0,0:0:0:0:
269,125,96834,2,0,P|322:128|350:248,1,180,2|0,0:2|0:0,0:0:0:0:
218,264,97296,2,0,L|217:141,1,90,2|0,0:2|0:2,0:2:0:0:
352,157,97603,5,2,0:2:0:0:
224,157,97757,2,0,P|174:139|247:75,1,180,2|0,0:2|0:0,0:0:0:0:
385,63,98219,2,0,L|292:55,1,90,2|0,0:2|0:2,0:2:0:0:
148,39,98526,2,0,L|40:27,1,90,2|0,0:2|0:2,0:2:0:0:
312,107,98834,6,0,P|368:108|416:288,1,270,2|0,0:2|0:0,0:0:0:0:
274,271,99449,2,0,L|406:225,2,135,2|2|2,0:2|0:2|0:2,0:2:0:0:
119,221,100065,6,0,P|65:194|155:48,1,270,2|0,0:2|0:0,0:0:0:0:
266,68,100680,2,0,L|120:45,2,135,2|2|2,0:2|0:2|0:2,0:2:0:0:
421,84,101296,6,0,L|419:295,1,180,2|2,0:2|0:2,0:2:0:0:
213,295,101911,2,0,L|427:277,1,180,2|2,0:2|0:2,0:0:0:0:
393,280,102373,1,0,0:2:0:0:
174,181,102526,5,6,3:2:0:0:
296,104,102680,1,0,0:0:0:0:
238,98,102756,1,0,0:2:0:0:
76,88,102834,1,6,3:2:0:0:
292,89,102988,2,0,L|292:218,1,90,6|0,3:2|0:0,0:2:0:0:
38,196,103296,2,0,L|166:192,2,90,6|0|0,3:2|0:0|1:2,0:2:0:0:
181,121,103757,5,2,3:2:0:0:
36,196,103911,1,0,3:2:0:0:
98,195,103988,1,0,3:2:0:0:
311,174,104065,2,0,L|432:167,1,90,4|0,3:2|0:0,0:2:0:0:
166,227,104373,2,0,L|286:214,1,90,2|0,3:2|0:2,0:2:0:0:
209,162,104603,1,2,0:2:0:0:
39,161,104680,2,0,L|32:63,1,90,0|2,0:0|3:2,0:0:0:0:
250,54,104988,6,0,L|379:54,2,90,2|0|0,3:2|0:0|1:2,0:2:0:0:
488,142,105449,2,0,L|438:142,1,45,2|0,3:2|0:0,0:2:0:0:
208,138,105603,2,0,L|203:265,1,90,0|2,0:2|3:2,0:0:0:0:
441,287,105911,2,0,L|505:285,2,45,2|0|0,1:2|0:0|3:2,0:0:0:0:
161,194,106219,6,0,L|228:192,1,45,2|0,3:2|0:0,0:2:0:0:
289,162,106373,2,0,L|300:101,1,45,0|0,0:0|0:2,0:0:0:0:
105,74,106526,2,0,L|175:69,1,45,2|0,1:1|0:0,0:2:0:0:
306,46,106680,2,0,L|380:39,1,45,0|0,0:2|0:0,0:0:0:0:
189,150,106834,1,2,3:1:0:0:
58,137,106988,2,0,L|54:29,1,90,2|0,0:1|1:2,0:2:0:0:
336,109,107296,6,0,L|446:105,1,90,2|0,0:1|3:2,0:2:0:0:
163,246,107603,2,0,L|73:247,1,90,2|0,0:1|1:2,0:2:0:0:
328,166,107911,2,0,L|426:167,1,90,2|2,0:1|3:2,0:0:0:0:
94,179,108219,1,2,2:1:0:0:
328,166,108373,2,0,L|334:277,1,90,2|0,1:1|0:0,0:2:0:0:
47,161,108680,5,2,3:2:0:0:
106,151,108756,1,0,0:0:0:0:
183,114,108834,1,0,0:0:0:0:
242,104,108911,1,0,0:2:0:0:
47,161,108988,2,0,L|45:32,1,90,2|0,1:1|0:2,0:2:0:0:
306,187,109296,2,0,L|200:172,1,90,2|0,3:2|0:2,0:2:0:0:
171,142,109526,1,2,0:2:0:0:
342,104,109603,2,0,L|473:101,1,90,0|2,0:0|3:2,0:0:0:0:
209,66,109911,6,0,L|135:57,1,45,2|0,3:2|0:0,0:2:0:0:
332,40,110065,2,0,L|409:32,1,45,0|0,0:0|0:2,0:0:0:0:
202,104,110219,2,0,L|86:90,1,90,2|0,1:1|0:2,0:2:0:0:
367,184,110526,2,0,L|433:175,2,45,2|0|0,3:2|0:0|0:2,0:2:0:0:
211,136,110757,2,0,L|160:129,2,45,2|0|0,0:2|0:0|0:2,0:2:0:0:
362,98,110988,2,0,L|446:89,1,45,2|0,3:2|0:0,0:0:0:0:
218,71,111142,5,2,3:2:0:0:
275,62,111218,1,0,0:0:0:0:
353,36,111296,1,0,0:0:0:0:
406,24,111372,1,0,0:2:0:0:
248,167,111449,1,2,1:2:0:0:
197,144,111526,1,0,0:0:0:0:
394,178,111603,1,0,3:2:0:0:
444,154,111680,1,0,3:2:0:0:
308,75,111757,5,2,1:2:0:0:
250,100,111834,1,0,0:0:0:0:
115,153,111911,1,0,3:2:0:0:
57,128,111988,1,0,0:0:0:0:
283,202,112065,1,2,1:2:0:0:
339,170,112142,1,0,0:0:0:0:
175,122,112219,1,0,3:2:0:0:
120,87,112296,1,0,0:0:0:0:
301,121,112373,5,2,1:2:0:0:
190,102,112526,1,0,1:2:0:0:
190,57,112602,1,0,0:0:0:0:
189,12,112679,1,0,0:0:0:0:
301,121,112834,1,0,0:0:0:0:
51,118,112988,1,2,1:2:0:0:
170,161,113142,1,0,1:2:0:0:
170,116,113218,1,0,0:0:0:0:
170,71,113295,1,0,0:0:0:0:
51,118,113449,1,0,0:0:0:0:
348,106,113603,6,0,L|463:92,1,90,4|0,3:3|0:0,0:2:0:0:
163,233,113911,2,0,L|70:222,1,90,4|0,3:3|0:0,0:2:0:0:
330,162,114219,1,4,3:3:0:0:
64,168,114373,2,0,L|173:164,1,90,4|4,3:3|3:3,0:2:0:0:
446,149,114680,1,0,3:2:0:0:
218,83,114834,6,0,L|340:81,1,90,4|0,3:3|0:0,0:2:0:0:
186,161,115142,1,4,3:3:0:0:
327,162,115296,1,0,0:0:0:0:
80,189,115449,2,0,L|75:87,1,90,8|0,3:3|0:0,0:2:0:0:
322,57,115757,1,8,3:3:0:0:
72,68,115911,1,0,0:0:0:0:
341,181,116065,5,4,3:3:0:0:
288,153,116142,1,0,0:0:0:0:
91,85,116219,1,0,0:0:0:0:
36,57,116296,1,0,0:2:0:0:
291,78,116373,2,0,L|401:75,1,90,4|0,3:3|0:0,0:2:0:0:
122,213,116680,1,4,3:3:0:0:
258,187,116834,1,0,0:0:0:0:
122,213,116988,1,4,3:3:0:0:
393,118,117142,1,4,3:3:0:0:
258,79,117296,5,8,3:3:0:0:
308,75,117372,1,0,0:0:0:0:
392,68,117449,1,0,0:0:0:0:
343,57,117525,1,0,0:2:0:0:
180,145,117603,1,8,3:3:0:0:
129,140,117679,1,0,0:0:0:0:
286,92,117757,1,0,0:0:0:0:
340,85,117833,1,0,0:2:0:0:
163,52,117911,1,8,3:3:0:0:
22,48,118065,1,8,3:3:0:0:
240,41,118219,1,8,1:3:0:0:
295,32,118295,1,0,0:0:0:0:
147,166,118373,1,0,0:0:0:0:
92,157,118449,1,0,0:2:0:0:
319,114,118526,6,0,L|425:108,1,90,4|0,3:3|0:0,0:2:0:0:
164,78,118834,2,0,L|67:73,1,90,4|0,3:3|0:0,0:2:0:0:
337,206,119142,1,4,3:3:0:0:
202,132,119296,2,0,L|196:4,1,90,4|4,3:3|3:3,0:3:0:0:
465,37,119603,6,0,L|366:35,1,90,0|4,0:0|3:3,0:0:0:0:
88,161,119911,1,4,3:3:0:0:
219,153,120065,1,4,3:3:0:0:
88,161,120219,1,4,3:3:0:0:
301,73,120373,1,4,0:3:0:0:
446,59,120526,1,4,0:3:0:0:
184,73,120680,1,4,0:3:0:0:
39,59,120833,1,4,3:3:0:0:
261,183,120988,5,0,3:2:0:0:
126,178,121142,1,0,3:2:0:0:
397,165,121296,1,2,0:2:0:0:
453,158,121372,1,0,0:0:0:0:
452,116,121449,1,0,0:2:0:0:
396,106,121526,1,0,0:0:0:0:
245,85,121603,6,0,L|182:79,1,45,2|0,0:2|0:0,0:2:0:0:
282,29,121757,2,0,L|340:25,1,45
245,85,121911,2,0,L|182:79,1,45,0|0,0:2|0:0,0:0:0:0:
341,142,122065,2,0,L|418:133,1,45,2|0,3:2|3:2,0:0:0:0:
188,101,122219,6,0,L|119:93,1,45,0|0,3:2|0:2,0:2:0:0:
335,65,122373,1,2,3:2:0:0:
395,75,122449,1,0,0:0:0:0:
396,116,122526,1,0,0:2:0:0:
336,125,122603,1,0,0:0:0:0:
126,250,122680,1,2,0:2:0:0:
183,236,122756,1,0,0:0:0:0:
365,185,122834,5,2,0:2:0:0:
421,178,122910,1,0,0:0:0:0:
418,136,122987,1,0,0:0:0:0:
361,125,123064,1,0,0:2:0:0:
160,59,123142,1,0,3:2:0:0:
221,72,123218,1,0,3:2:0:0:
392,99,123296,1,0,3:2:0:0:
453,86,123372,1,0,3:2:0:0:
240,129,123449,5,2,3:2:0:0:
103,111,123603,1,0,3:2:0:0:
240,129,123757,1,0,3:2:0:0:
103,111,123911,1,0,3:2:0:0:
345,91,124065,1,0,3:2:0:0:
482,73,124219,1,0,3:2:0:0:
345,91,124373,1,0,3:2:0:0:
482,73,124527,1,0,3:2:0:0:
181,156,124680,5,2,3:2:0:0:
318,138,124834,1,0,3:2:0:0:
181,156,124988,1,0,3:2:0:0:
318,138,125142,1,0,3:2:0:0:
53,98,125296,1,0,3:2:0:0:
116,94,125372,1,0,0:2:0:0:
266,65,125449,1,0,3:2:0:0:
329,61,125525,1,0,3:2:0:0:
183,166,125603,1,0,3:2:0:0:
236,161,125679,1,0,3:2:0:0:
415,116,125756,1,0,3:2:0:0:
363,106,125834,1,0,3:2:0:0:
186,82,125911,5,2,1:2:0:0:
41,72,125988,2,0,L|19:28,2,45,0|0|0,3:2|3:2|3:2,0:0:0:0:
246,187,126219,1,0,1:2:0:0:
391,177,126296,2,0,L|413:133,2,45,0|0|0,3:2|3:2|3:2,0:0:0:0:
185,241,126526,5,0,1:3:0:0:
236,222,126602,1,0,3:3:0:0:
434,213,126680,1,0,3:3:0:0:
384,199,126756,1,0,3:3:0:0:
159,157,126834,1,0,1:3:0:0:
210,144,126910,1,0,1:3:0:0:
413,136,126988,6,0,P|456:117|383:-21,1,225,0|0,1:3|0:0,0:3:0:0:
188,119,127449,2,0,L|125:112,1,45,2|2,0:3|0:3,0:0:0:0:
211,69,127603,2,0,L|281:62,1,45,2|2,0:3|0:3,0:0:0:0:
188,119,127757,2,0,L|125:112,1,45,2|2,0:3|0:3,0:0:0:0:
307,236,127911,5,2,0:2:0:0:
361,231,127987,1,0,0:2:0:0:
148,175,128065,1,2,0:2:0:0:
90,168,128141,1,0,0:2:0:0:
364,105,128219,1,2,0:2:0:0:
422,94,128295,1,0,0:2:0:0:
136,85,128373,6,0,P|91:94|156:168,1,180,6|0,3:2|1:2,0:2:0:0:
371,198,128834,1,2,3:2:0:0:
315,192,128910,1,0,3:2:0:0:
82,176,128988,2,0,L|83:288,1,90,2|2,3:2|3:2,0:2:0:0:
216,300,129296,1,2,1:2:0:0:
83,265,129449,1,2,3:2:0:0:
340,142,129603,6,0,L|449:132,1,90,2|0,3:2|0:2,0:2:0:0:
163,71,129911,2,0,L|85:67,2,45,0|0|0,1:2|0:0|0:0,0:2:0:0:
391,66,130219,5,0,3:2:0:0:
333,58,130295,1,0,0:0:0:0:
154,153,130373,1,2,3:2:0:0:
212,145,130449,1,0,0:2:0:0:
384,81,130526,1,2,1:2:0:0:
439,74,130602,1,0,0:2:0:0:
232,55,130680,1,2,3:2:0:0:
180,59,130756,1,0,0:2:0:0:
371,167,130834,6,0,L|503:159,2,90,2|0|0,3:2|0:0|1:2,0:2:0:0:
126,200,131296,1,2,3:2:0:0:
261,146,131449,2,0,L|265:28,1,90,0|2,3:2|3:2,0:0:0:0:
30,62,131757,2,0,L|141:51,1,90,2|2,1:2|3:2,0:2:0:0:
389,146,132065,5,4,3:3:0:0:
149,122,132219,1,4,1:3:0:0:
146,77,132295,1,0,0:2:0:0:
143,32,132372,1,0,3:2:0:0:
431,88,132526,1,0,3:2:0:0:
433,43,132602,1,0,0:2:0:0:
434,0,132679,1,0,3:2:0:0:
160,48,132834,5,2,3:2:0:0:
211,44,132910,1,0,0:0:0:0:
379,99,132988,1,2,1:2:0:0:
325,92,133064,1,0,0:0:0:0:
130,99,133142,1,2,3:2:0:0:
181,95,133218,1,0,0:0:0:0:
395,52,133296,6,0,L|502:47,1,90,2|0,3:2|0:0,0:2:0:0:
176,84,133603,2,0,L|67:71,1,90,0|0,1:2|0:2,0:2:0:0:
379,192,133911,5,0,3:2:0:0:
319,186,133987,1,0,0:0:0:0:
153,125,134065,2,0,L|221:116,1,45,2|0,3:2|0:0,0:0:0:0:
379,68,134219,2,0,L|443:59,1,45,2|0,1:2|0:0,0:0:0:0:
241,40,134373,2,0,L|177:34,1,45,2|0,3:2|0:0,0:0:0:0:
421,117,134526,6,0,L|512:110,1,90,2|0,3:2|0:0,0:2:0:0:
169,93,134834,2,0,L|69:81,1,90,0|0,1:2|0:2,0:2:0:0:
346,103,135142,5,0,3:2:0:0:
287,95,135218,1,0,0:2:0:0:
109,118,135296,1,2,3:2:0:0:
168,110,135372,1,0,3:2:0:0:
386,130,135449,1,2,1:2:0:0:
334,123,135525,1,0,0:0:0:0:
128,46,135603,1,0,3:2:0:0:
74,55,135679,1,0,0:0:0:0:
344,192,135757,6,0,L|347:306,1,90,2|0,1:2|0:0,0:0:0:0:
69,261,136065,2,0,L|63:146,1,90,2|0,1:2|0:0,0:0:0:0:
322,115,136373,1,2,1:2:0:0:
63,136,136526,2,0,L|59:15,1,90,2|0,1:2|0:0,0:2:0:0:
379,71,136834,6,0,L|85:72,1,270.000010299683,6|2,3:2|3:2,0:2:0:0:
245,143,137296,1,2,1:2:0:0:
110,71,137449,1,2,3:2:0:0:
383,81,137603,2,0,L|494:79,1,90,2|0,3:2|3:2,0:0:0:0:
243,66,137911,5,0,1:2:0:0:
182,61,137987,1,0,0:0:0:0:
359,29,138065,1,0,0:0:0:0:
415,26,138141,1,0,0:2:0:0:
143,89,138219,6,0,P|82:94|63:198,1,180,2|0,3:2|1:2,0:2:0:0:
307,235,138680,1,2,3:2:0:0:
60,145,138834,2,0,L|186:142,1,90,2|2,3:2|3:2,0:2:0:0:
441,104,139142,2,0,L|317:103,1,90,2|2,1:2|3:2,0:2:0:0:
101,133,139449,5,2,3:2:0:0:
100,88,139525,1,0,0:0:0:0:
99,43,139602,1,0,0:2:0:0:
370,52,139757,2,0,L|431:52,2,45,2|0|0,1:2|0:0|0:0,0:2:0:0:
154,148,140065,5,2,3:2:0:0:
212,147,140141,1,0,0:0:0:0:
355,100,140219,1,2,3:2:0:0:
413,99,140295,1,0,3:2:0:0:
253,65,140373,1,2,1:2:0:0:
195,66,140449,1,0,0:2:0:0:
376,52,140526,1,2,3:2:0:0:
434,53,140602,1,0,0:2:0:0:
226,175,140680,5,2,1:2:0:0:
87,154,140834,2,0,L|80:52,1,90,0|0,1:2|0:0,0:0:0:0:
354,146,141142,6,0,L|156:131,1,180,2|2,1:2|3:2,0:2:0:0:
233,78,141526,1,0,3:2:0:0:
375,55,141603,1,2,1:2:0:0:
432,48,141679,1,0,0:2:0:0:
260,27,141757,1,2,3:2:0:0:
203,20,141833,1,0,0:2:0:0:
378,151,141911,5,2,3:2:0:0:
265,122,142065,2,0,L|259:15,1,90,0|0,1:2|3:2,0:0:0:0:
36,106,142373,2,0,L|31:-7,1,90,0|0,1:2|3:2,0:0:0:0:
254,148,142680,1,2,3:2:0:0:
125,177,142834,1,4,1:3:0:0:
254,148,142988,1,2,3:2:0:0:
307,141,143064,1,0,0:0:0:0:
151,81,143142,6,0,L|39:74,1,90,2|0,3:2|0:0,0:2:0:0:
338,73,143449,2,0,L|429:75,1,90,0|0,1:2|0:2,0:2:0:0:
168,77,143757,5,0,3:2:0:0:
221,77,143833,1,0,0:0:0:0:
382,134,143911,1,2,3:2:0:0:
444,127,143987,1,0,0:0:0:0:
292,84,144065,1,2,1:2:0:0:
230,77,144141,1,0,0:0:0:0:
397,85,144219,1,2,3:2:0:0:
459,78,144295,1,0,0:0:0:0:
236,139,144373,6,0,L|107:137,1,90,2|0,3:2|0:0,0:2:0:0:
410,76,144680,2,0,L|517:62,1,90,0|0,1:2|3:2,0:2:0:0:
267,99,144988,6,0,L|370:90,1,90,0|0,3:2|3:2,0:0:0:0:
130,47,145296,1,2,1:2:0:0:
70,40,145372,1,0,0:0:0:0:
273,33,145449,1,0,3:2:0:0:
330,28,145525,1,0,3:2:0:0:
119,182,145603,5,2,1:2:0:0:
363,124,145911,1,0,1:2:0:0:
94,81,146219,1,0,1:2:0:0:
310,51,146373,1,0,1:2:0:0:
88,40,146680,1,2,1:2:0:0:
310,51,146834,6,0,P|361:51|417:180,1,180,2|0,3:2|0:0,0:2:0:0:
286,173,147296,2,0,P|221:178|206:292,1,180,2|0,0:2|0:0,0:0:0:0:
461,239,147757,6,0,L|494:213,6,22.5,2|0|0|0|0|0|0,0:2|0:0|0:0|0:0|0:0|0:0|0:0,0:0:0:0:
284,263,148065,6,0,L|279:150,1,90,0|0,3:2|0:0,0:0:0:0:
167,157,148373,2,0,L|164:58,1,90,0|0,3:2|0:0,0:0:0:0:
295,48,148680,2,0,L|407:33,3,90,0|0|0|0,3:2|0:0|3:2|0:0,0:0:0:0:
251,141,149296,6,0,L|244:250,1,90,0|0,3:2|0:0,0:0:0:0:
342,265,149603,2,0,L|346:368,1,90,0|0,3:2|0:0,0:0:0:0:
193,285,149911,2,0,L|91:260,1,90,0|0,3:2|0:0,0:0:0:0:
262,204,150219,2,0,L|386:192,1,90,0|0,3:2|3:2,0:0:0:0:
202,209,150526,6,0,L|195:92,1,90,0|0,3:2|0:0,0:0:0:0:
331,87,150834,1,0,3:2:0:0:
51,126,150988,2,0,P|58:60|154:23,1,180
289,86,151449,2,0,L|289:190,1,90,0|0,3:2|0:0,0:0:0:0:
144,249,151757,6,0,L|266:243,1,90,0|0,3:2|0:0,0:0:0:0:
379,207,152065,2,0,L|389:113,1,90,0|0,3:2|0:0,0:0:0:0:
252,103,152373,2,0,L|159:93,1,90,0|0,3:2|3:2,0:0:0:0:
314,46,152680,2,0,L|413:33,1,90,0|0,3:2|3:2,0:0:0:0:
126,153,152988,6,0,L|116:267,1,90,8|0,3:2|0:2,0:2:0:0:
274,263,153296,2,0,L|284:372,1,90,8|0,3:2|0:2,0:2:0:0:
134,309,153603,2,0,L|225:293,1,90,8|0,3:2|0:2,0:2:0:0:
376,255,153911,2,0,L|485:226,1,90,8|0,3:2|0:2,0:2:0:0:
306,184,154219,6,0,L|295:67,1,90,8|0,3:2|0:2,0:2:0:0:
138,111,154526,2,0,L|127:11,1,90,8|0,3:2|0:2,0:2:0:0:
282,78,154834,2,0,L|288:-27,1,90,8|0,3:2|0:2,0:2:0:0:
136,109,155142,1,8,3:2:0:0:
121,46,155296,2,0,L|199:41,1,45,0|0,3:2|3:2,0:0:0:0:
314,83,155449,6,0,L|433:78,1,90,8|0,3:2|0:2,0:2:0:0:
264,177,155757,2,0,L|375:172,1,90,8|0,3:2|0:2,0:2:0:0:
93,125,156065,2,0,L|-26:120,1,90,8|0,3:2|0:2,0:2:0:0:
146,223,156373,2,0,L|35:218,1,90,8|0,3:2|0:2,0:2:0:0:
291,96,156680,6,0,L|360:90,2,45,0|0|0,3:2|3:2|3:2,0:0:0:0:
198,108,156988,2,0,L|199:205,1,90,0|0,3:2|3:2,0:0:0:0:
331,222,157296,2,0,L|189:194,2,135,0|0|0,3:2|3:2|0:0,0:2:0:0:
55,195,157911,6,0,L|48:79,1,90,2|0,3:2|0:2,0:0:0:0:
191,61,158219,2,0,L|258:55,2,45,2|0|2,1:2|0:0|0:2,0:0:0:0:
333,83,158526,2,0,L|337:188,1,90,2|2,3:2|0:2,0:0:0:0:
196,217,158834,2,0,L|121:205,2,45,2|0|0,1:2|0:0|0:2,0:0:0:0:
468,162,159142,6,0,L|354:151,1,90,2|2,3:2|0:2,0:0:0:0:
233,90,159449,2,0,L|171:88,2,45,2|0|2,1:2|0:0|0:2,0:0:0:0:
90,172,159757,2,0,L|204:161,1,90,2|2,3:2|0:2,0:0:0:0:
395,107,160065,2,0,L|330:96,1,45,2|0,1:2|0:0,0:0:0:0:
164,56,160219,2,0,L|236:49,1,45,2|0,3:2|3:2,0:0:0:0:
381,43,160373,6,0,L|481:40,1,90,2|0,3:2|0:2,0:0:0:0:
322,140,160680,1,2,1:2:0:0:
320,184,160756,1,0,0:0:0:0:
318,229,160833,1,0,0:2:0:0:
168,79,160988,2,0,L|68:76,1,90,2|2,3:2|0:2,0:0:0:0:
227,176,161295,1,2,1:2:0:0:
228,220,161373,1,0,0:0:0:0:
230,265,161448,1,0,0:2:0:0:
366,138,161603,6,0,L|261:112,3,90,0|0|0|0,3:2|0:2|3:2|0:0,0:2:0:0:
50,108,162219,2,0,L|132:101,1,45,0|0,3:2|3:2,0:2:0:0:
255,62,162373,2,0,L|330:52,1,45,0|0,3:2|0:0,0:0:0:0:
145,34,162526,2,0,L|20:28,1,90,0|0,3:2|3:2,0:0:0:0:
322,77,162834,5,2,3:2:0:0:
375,89,162910,1,2,0:2:0:0:
375,140,162987,1,2,3:2:0:0:
322,148,163064,1,0,0:2:0:0:
175,199,163142,2,0,L|234:194,1,45,2|0,1:2|0:2,0:2:0:0:
309,164,163296,2,0,L|324:107,1,45,2|2,3:2|3:2,0:0:0:0:
178,78,163449,5,2,3:2:0:0:
125,90,163525,1,2,0:2:0:0:
125,141,163602,1,2,3:2:0:0:
178,149,163679,1,2,0:2:0:0:
325,200,163757,2,0,L|266:195,1,45,2|2,1:2|3:2,0:0:0:0:
131,217,163911,2,0,L|190:212,1,45,2|2,3:2|3:2,0:0:0:0:
351,132,164065,5,2,3:2:0:0:
482,112,164219,1,2,3:2:0:0:
222,77,164373,1,2,1:2:0:0:
280,66,164449,1,2,0:2:0:0:
430,46,164526,1,2,3:2:0:0:
490,38,164602,1,0,0:0:0:0:
208,170,164680,1,2,3:2:0:0:
77,150,164834,1,2,3:2:0:0:
337,115,164988,1,2,1:2:0:0:
279,109,165064,1,2,0:2:0:0:
48,64,165141,1,2,3:2:0:0:
108,57,165219,1,2,0:2:0:0:
300,48,165296,5,2,1:2:0:0:
371,35,165373,2,0,L|401:-30,2,45,2|2|2,3:2|3:2|3:2,0:0:0:0:
170,104,165603,1,2,1:2:0:0:
99,91,165680,2,0,L|69:26,2,45,2|2|2,3:2|3:2|3:2,0:0:0:0:
288,108,165911,5,2,1:2:0:0:
434,109,165988,2,0,L|511:98,2,45,2|2|2,3:2|3:2|3:2,0:0:0:0:
224,108,166219,1,0,1:2:0:0:
78,109,166296,2,0,L|18:97,2,45,2|2|2,3:2|3:2|3:2,0:0:0:0:
270,169,166526,5,2,3:2:0:0:
324,162,166602,1,2,0:2:0:0:
182,92,166680,1,2,3:2:0:0:
128,82,166756,1,2,0:2:0:0:
317,41,166834,1,2,3:2:0:0:
376,33,166910,1,2,0:2:0:0:
154,185,166988,1,2,3:2:0:0:
87,170,167064,1,2,0:2:0:0:
310,176,167142,5,2,3:2:0:0:
337,178,167180,1,0,0:0:0:0:
358,195,167218,1,2,0:2:0:0:
366,221,167257,1,0,0:0:0:0:
358,247,167295,1,2,3:2:0:0:
337,264,167334,1,0,0:0:0:0:
310,266,167372,1,2,0:2:0:0:
42,244,167449,2,0,L|36:73,1,135,8|0,0:2|0:2,0:2:0:0:
263,91,167757,6,0,L|369:82,1,90,4|2,3:2|3:2,0:0:0:0:
86,182,168065,2,0,P|51:116|108:77,1,135,2|0,1:2|0:2,0:2:0:0:
228,76,168373,2,0,L|296:63,1,45,2|2,3:2|3:2,0:0:0:0:
205,132,168526,2,0,L|132:125,1,45,0|2,0:2|3:2,0:0:0:0:
337,91,168680,2,0,L|407:90,1,45,0|2,0:2|3:2,0:0:0:0:
210,117,168834,6,0,P|139:115|115:234,1,180,2|2,1:2|3:2,0:2:0:0:
349,257,169296,1,2,1:2:0:0:
221,173,169449,2,0,L|303:174,1,45,2|2,3:2|1:2,0:0:0:0:
433,168,169603,1,0,0:0:0:0:
476,93,169757,2,0,L|402:88,1,45,2|2,3:2|3:2,0:0:0:0:
235,69,169911,1,2,1:2:0:0:
370,28,170065,1,2,3:2:0:0:
139,117,170219,6,0,L|218:107,1,45,2|2,1:2|3:2,0:0:0:0:
313,177,170449,2,0,L|247:186,1,45,2|2,1:2|3:2,0:0:0:0:
17,116,170680,2,0,L|225:100,1,180,2|2,3:2|3:2,0:2:0:0:
53,196,171142,2,0,L|177:188,1,90,2|2,1:2|3:2,0:2:0:0:
409,170,171449,6,0,L|282:161,1,90,2|0,3:2|0:2,0:2:0:0:
259,138,171680,1,0,3:2:0:0:
491,97,171757,2,0,L|364:88,1,90,2|0,1:2|0:2,0:2:0:0:
334,65,171988,1,0,3:2:0:0:
116,189,172065,6,0,L|251:183,1,103.500001974106,2|0,3:2|0:2,0:2:0:0:
289,154,172296,1,0,3:2:0:0:
47,84,172373,2,0,L|193:76,1,103.500001974106,2|0,1:2|1:2,0:0:0:0:
290,58,172604,1,0,1:2:0:0:
432,69,172680,6,0,L|441:171,1,90,2|2,3:2|3:2,0:2:0:0:
183,227,172988,1,2,1:2:0:0:
318,210,173142,1,0,0:2:0:0:
61,121,173296,1,2,3:2:0:0:
190,116,173449,1,2,3:2:0:0:
61,121,173603,1,2,1:2:0:0:
342,131,173757,6,0,P|394:134|444:245,1,180,2|2,3:2|3:2,0:2:0:0:
149,264,174219,2,0,L|141:154,1,90,2|2,1:2|3:2,0:2:0:0:
387,124,174526,1,2,3:2:0:0:
450,124,174603,1,2,3:2:0:0:
387,124,174680,1,2,3:2:0:0:
253,55,174834,1,2,1:2:0:0:
387,124,174988,1,2,3:2:0:0:
103,216,175142,6,0,L|94:91,1,90,2|2,1:2|3:2,0:0:0:0:
242,89,175449,1,0,1:2:0:0:
96,126,175603,1,2,3:2:0:0:
354,131,175757,2,2,L|363:256,1,90,2|2,1:2|3:2,1:2:0:0:
215,258,176064,1,2,1:2:0:0:
475,190,176219,6,0,P|508:148|451:92,1,135,2|0,1:2|0:2,0:2:0:0:
280,71,176526,1,2,1:2:0:0:
223,67,176602,1,2,1:2:0:0:
56,47,176680,1,2,3:2:0:0:
193,58,176834,1,2,1:2:0:0:
255,50,176910,1,2,3:2:0:0:
414,83,176988,1,2,3:2:0:0:
288,46,177142,1,2,3:2:0:0:
225,35,177218,1,2,3:2:0:0:
378,147,177296,2,0,L|470:143,1,90,2|2,1:2|3:2,0:2:0:0:
156,185,177603,6,0,L|139:297,1,90,6|0,3:2|0:0,0:2:0:0:
300,311,177911,2,0,L|313:407,1,90,0|0,1:2|0:0,0:2:0:0:
67,215,178219,2,0,L|181:197,3,90,0|0|0|0,3:2|3:2|1:2|3:2,0:0:0:0:
367,182,178834,6,0,P|407:154|354:89,1,135,0|0,3:2|3:2,0:2:0:0:
185,65,179142,2,0,L|64:62,1,90,2|2,1:2|3:2,0:2:0:0:
310,85,179449,2,0,P|355:91|367:198,1,135,2|0,3:2|0:2,0:2:0:0:
152,207,179757,1,2,1:2:0:0:
211,198,179833,1,0,0:0:0:0:
371,159,179911,1,0,0:0:0:0:
430,150,179987,1,0,0:2:0:0:
176,113,180065,6,0,L|74:104,3,90,2|0|0|0,3:2|0:0|1:2|0:0,0:2:0:0:
341,58,180680,2,0,L|441:47,2,90,0|0|0,3:2|3:2|1:2,0:0:0:0:
92,208,181142,6,0,P|48:185|108:132,1,135,0|0,0:2|3:2,3:2:0:0:
274,103,181449,2,0,L|341:93,1,45,0|0,3:2|3:2,0:0:0:0:
164,54,181603,2,0,L|33:40,1,90,2|0,1:2|3:2,0:2:0:0:
330,57,181911,2,0,L|431:39,1,90,2|0,3:2|3:2,0:2:0:0:
160,189,182219,2,0,L|61:182,1,90,2|0,1:2|3:2,0:2:0:0:
117,128,182449,1,0,3:2:0:0:
325,134,182526,6,0,L|331:262,1,90,0|0,1:2|0:2,0:2:0:0:
184,293,182834,1,2,1:2:0:0:
329,223,182988,1,2,3:2:0:0:
63,154,183142,1,2,1:2:0:0:
199,141,183296,1,2,3:2:0:0:
63,154,183449,1,2,1:2:0:0:
350,144,183603,6,0,P|402:146|425:269,1,180,2|2,3:2|3:2,0:2:0:0:
207,282,184065,2,0,L|88:272,1,90,2|2,1:2|3:2,0:2:0:0:
391,178,184373,2,0,L|470:177,2,45,2|2|2,3:2|3:2|3:2,0:0:0:0:
150,137,184680,1,2,3:2:0:0:
205,131,184756,1,2,1:2:0:0:
407,106,184834,1,2,1:2:0:0:
347,94,184910,1,2,1:2:0:0:
149,57,184988,6,0,P|93:62|103:147,1,135,2|0,3:2|0:2,0:2:0:0:
275,171,185296,2,0,L|282:222,1,45,4|0,3:2|0:0,0:2:0:0:
100,273,185449,2,0,L|176:264,1,45,0|0,0:0|0:2,0:0:0:0:
363,57,185603,6,0,P|419:62|409:147,1,135,2|0,3:2|0:2,0:2:0:0:
237,171,185911,2,0,L|230:222,1,45,6|0,3:2|0:2,0:2:0:0:
412,273,186064,2,0,L|336:264,1,45,0|0,3:0|0:0,0:0:0:0:
162,160,186219,5,2,1:2:0:0:
281,117,186373,1,0,0:0:0:0:
49,71,186526,1,2,1:2:0:0:
349,52,186680,1,0,1:2:0:0:
111,197,186988,1,2,3:2:0:0:
371,184,187142,2,0,L|371:296,1,90,8|0,1:2|0:0,0:2:0:0:
58,310,187449,6,0,L|164:296,1,90,2|0,1:2|0:2,0:2:0:0:
369,225,187757,2,0,L|478:207,1,90,2|0,1:2|0:2,0:2:0:0:
234,162,188065,1,2,1:2:0:0:
369,154,188219,2,0,L|374:52,1,90,2|0,3:2|1:2,0:2:0:0:
87,176,188526,6,0,P|44:156|125:87,1,180,2|2,3:2|3:2,0:0:0:0:
335,121,188988,1,2,1:2:0:0:
193,107,189142,1,2,3:2:0:0:
420,138,189296,2,0,L|419:240,1,90,2|0,1:2|0:2,0:2:0:0:
184,271,189603,1,2,1:2:0:0:
419,227,189757,1,2,1:2:0:0:
165,170,189911,6,0,L|58:170,1,90,2|0,1:2|0:2,0:2:0:0:
321,86,190219,2,0,L|423:83,1,90,2|0,1:3|3:2,0:2:0:0:
193,240,190526,1,2,1:3:0:0:
327,184,190680,2,0,L|331:74,1,90,0|0,3:2|1:2,0:2:0:0:
44,111,190988,6,0,L|243:91,1,180,2|0,3:3|0:0,0:0:0:0:
456,81,191449,1,2,1:3:0:0:
315,68,191603,1,0,0:0:0:0:
456,81,191757,2,0,L|457:191,1,90,2|2,1:2|0:2,0:2:0:0:
228,210,192065,2,0,L|152:202,1,45,2|2,1:2|0:2,0:2:0:0:
364,134,192219,2,0,L|428:126,1,45,2|2,0:2|0:2,0:0:0:0:
177,115,192373,6,0,L|69:104,1,90,2|0,1:2|0:2,0:2:0:0:
366,73,192680,2,0,L|250:64,1,90,2|0,1:2|0:2,0:2:0:0:
60,150,192988,1,2,1:2:0:0:
286,122,193142,2,0,L|287:232,1,90,2|0,3:2|1:2,0:2:0:0:
69,297,193449,6,0,L|286:283,1,180,2|2,3:2|3:2,0:0:0:0:
11,202,193911,2,0,L|119:195,1,90,2|2,1:2|3:2,0:0:0:0:
395,192,194219,2,0,L|395:71,1,90,2|0,1:2|0:2,0:2:0:0:
160,93,194526,1,2,1:2:0:0:
307,81,194680,1,2,3:2:0:0:
86,79,194834,6,0,P|42:96|53:193,1,135,2|0,1:2|0:0,0:2:0:0:
242,237,195142,2,0,L|352:232,1,90,2|0,1:2|1:2,0:0:0:0:
60,143,195449,2,0,L|165:147,1,90,2|0,3:2|1:2,0:0:0:0:
397,275,195911,6,0,L|179:262,1,180,2|2,3:2|3:2,0:2:0:0:
456,199,196373,1,2,1:2:0:0:
479,130,196526,2,0,L|409:119,1,45,0|0,3:2|3:2,0:0:0:0:
257,104,196680,1,2,3:2:0:0:
377,35,196834,2,0,L|313:33,1,45,0|0,1:2|1:2,0:0:0:0:
190,172,196988,1,0,1:2:0:0:
324,173,197142,1,0,0:0:0:0:
50,125,197296,6,0,L|151:127,1,90,2|2,1:2|3:2,0:0:0:0:
361,120,197603,2,0,L|361:225,1,90,2|0,1:2|3:2,0:2:0:0:
141,260,197911,1,2,1:2:0:0:
266,201,198065,2,0,L|272:93,1,90,2|0,3:2|1:2,0:2:0:0:
38,118,198373,6,0,L|256:103,1,180,2|2,3:2|3:2,0:0:0:0:
476,107,198834,2,0,L|360:97,1,90,2|2,1:2|3:2,0:0:0:0:
130,140,199142,2,0,L|127:252,1,90,2|0,1:2|3:2,0:2:0:0:
364,302,199449,1,2,1:2:0:0:
127,229,199603,1,2,3:2:0:0:
382,298,199757,6,0,P|428:279|378:216,1,135,2|0,1:2|0:0,0:2:0:0:
207,182,200065,2,0,L|78:173,1,90,2|0,1:3|3:2,0:2:0:0:
353,93,200373,1,2,1:3:0:0:
480,73,200526,1,0,3:2:0:0:
353,93,200680,1,0,1:2:0:0:
75,185,200834,6,0,L|296:176,1,180,2|2,3:3|3:3,0:2:0:0:
23,98,201296,2,0,L|133:89,1,90,2|0,1:3|3:2,0:0:0:0:
368,66,201603,1,2,3:3:0:0:
240,50,201757,1,0,3:2:0:0:
451,174,201911,1,0,1:2:0:0:
396,168,201987,1,0,0:0:0:0:
192,118,202065,1,0,3:2:0:0:
134,107,202141,1,0,3:2:0:0:
348,86,202219,5,2,1:2:0:0:
404,101,202295,1,0,3:2:0:0:
404,142,202372,1,0,3:2:0:0:
349,150,202449,1,0,3:2:0:0:
182,221,202526,1,2,1:2:0:0:
239,212,202602,1,0,3:2:0:0:
294,170,202680,2,0,L|302:108,1,45,0|0,3:2|3:2,0:0:0:0:
165,81,202834,6,0,L|94:74,1,45,2|0,1:2|3:2,0:0:0:0:
286,73,202988,1,2,3:2:0:0:
338,83,203064,1,0,3:2:0:0:
336,124,203141,1,0,1:2:0:0:
284,134,203218,1,0,3:2:0:0:
120,209,203296,1,2,3:2:0:0:
186,199,203372,1,0,3:2:0:0:
390,184,203449,6,0,L|391:262,1,45,0|0,1:2|3:2,0:0:0:0:
211,295,203603,2,0,L|268:293,1,45,2|0,3:2|3:2,0:0:0:0:
445,251,203757,2,0,L|359:248,1,45,2|0,1:2|3:2,0:0:0:0:
151,201,203911,2,0,L|227:197,1,45,2|0,3:2|3:2,0:0:0:0:
389,151,204065,5,2,1:2:0:0:
448,145,204141,1,0,0:2:0:0:
448,103,204218,1,0,1:2:0:0:
388,90,204295,1,0,0:2:0:0:
218,78,204373,1,0,1:2:0:0:
154,73,204449,1,0,0:2:0:0:
345,37,204526,1,0,1:2:0:0:
408,18,204602,1,0,0:2:0:0:
192,184,204680,5,0,3:2:0:0:
47,166,204834,1,0,3:2:0:0:
339,181,204988,2,0,L|340:304,1,90,2|0,0:2|0:2,0:2:0:0:
54,277,205296,2,0,L|169:268,2,90,2|0|0,0:2|0:0|0:2,0:2:0:0:
41,206,205757,1,0,0:0:0:0:
101,199,205833,1,0,0:0:0:0:
277,184,205911,5,2,3:2:0:0:
43,189,206065,2,0,L|36:63,1,90,2|0,3:2|0:2,0:2:0:0:
320,76,206373,1,2,0:2:0:0:
174,102,206526,2,0,L|170:212,1,90,2|0,0:2|0:0,0:2:0:0:
424,250,206834,1,0,3:2:0:0:
364,237,206910,1,0,3:2:0:0:
140,167,206988,1,0,3:2:0:0:
80,154,207064,1,0,3:2:0:0:
308,98,207142,5,2,3:2:0:0:
439,82,207296,1,0,3:2:0:0:
308,98,207449,1,0,3:2:0:0:
439,82,207603,1,0,3:2:0:0:
179,88,207757,1,0,3:2:0:0:
34,71,207911,1,0,3:2:0:0:
179,88,208064,1,0,3:2:0:0:
34,71,208218,1,0,0:2:0:0:
101,83,208296,1,0,3:2:0:0:
311,94,208373,5,2,3:2:0:0:
179,88,208526,1,0,3:2:0:0:
311,94,208680,1,0,3:2:0:0:
179,88,208834,1,0,3:2:0:0:
443,117,208988,1,0,3:2:0:0:
316,46,209142,1,0,3:2:0:0:
250,33,209219,1,0,3:2:0:0:
75,42,209296,1,0,3:2:0:0:
66,45,209449,1,0,3:2:0:0:
132,58,209526,1,0,3:2:0:0:
311,109,209603,5,2,1:2:0:0:
93,137,209757,2,0,L|91:265,1,90,0|0,1:2|0:0,0:0:0:0:
337,261,210065,1,0,1:2:0:0:
72,205,210219,2,0,L|70:89,1,90,0|0,1:2|0:0,0:0:0:0:
359,131,210526,1,0,1:2:0:0:
41,73,210680,1,0,1:2:0:0:
262,58,210834,5,10,0:3:0:0:
256,192,210988,12,0,212065,0:2:0:0:
196,180,212373,6,0,L|264:175,1,45,2|2,0:3|0:3,0:0:0:0:
327,145,212526,2,0,L|259:140,1,45,2|2,0:3|0:3,0:0:0:0:
185,145,212680,2,0,L|253:140,1,45,2|2,0:3|0:3,0:0:0:0:
396,79,212834,5,2,0:2:0:0:
339,71,212910,1,0,0:2:0:0:
139,75,212988,1,2,0:2:0:0:
196,67,213064,1,0,0:2:0:0:
429,44,213142,1,2,0:2:0:0:
372,36,213218,1,0,0:2:0:0:
117,176,213296,6,0,L|5:169,2,90,6|0|0,3:2|0:0|1:2,0:2:0:0:
347,181,213757,1,2,3:2:0:0:
115,178,213911,2,0,L|233:172,1,90,2|2,3:2|3:2,0:2:0:0:
455,148,214219,1,2,1:2:0:0:
473,72,214373,2,0,L|411:67,1,45,2|0,3:2|3:2,0:0:0:0:
225,73,214526,6,0,L|106:66,1,90,2|0,3:2|0:2,0:2:0:0:
362,68,214834,2,0,L|451:62,1,90,2|0,1:2|0:0,0:2:0:0:
135,216,215142,5,2,3:2:0:0:
189,210,215218,1,0,0:0:0:0:
379,160,215296,1,2,3:2:0:0:
325,154,215372,1,0,0:2:0:0:
106,135,215449,1,2,1:2:0:0:
163,126,215525,1,0,0:2:0:0:
362,78,215603,1,2,3:2:0:0:
418,67,215679,1,0,0:2:0:0:
223,61,215757,5,2,3:2:0:0:
80,76,215911,2,0,L|76:184,1,90,0|0,0:0|1:2,0:0:0:0:
369,240,216219,2,0,L|157:223,1,180,2|2,3:2|3:2,0:2:0:0:
496,152,216680,2,0,L|373:143,1,90,2|2,1:2|0:2,0:2:0:0:
123,137,216988,5,4,3:3:0:0:
383,146,217142,1,4,1:3:0:0:
433,190,217218,1,0,0:2:0:0:
384,235,217295,1,0,3:2:0:0:
129,146,217449,1,0,3:2:0:0:
79,190,217525,1,0,0:2:0:0:
127,235,217602,1,0,3:2:0:0:
384,235,217757,5,2,3:2:0:0:
127,235,217911,1,2,1:2:0:0:
184,232,217987,1,0,0:0:0:0:
384,235,218065,1,2,3:2:0:0:
328,248,218141,1,0,0:0:0:0:
103,127,218219,6,0,L|-17:120,1,90,2|0,3:2|0:0,0:2:0:0:
314,146,218526,2,0,L|323:248,1,90,0|0,1:2|0:2,0:2:0:0:
76,207,218834,5,0,3:2:0:0:
132,199,218910,1,0,0:0:0:0:
302,149,218988,1,2,3:2:0:0:
357,142,219064,1,0,0:0:0:0:
188,88,219142,1,2,1:2:0:0:
132,80,219218,1,0,0:0:0:0:
342,65,219296,1,2,3:2:0:0:
399,54,219372,1,0,0:0:0:0:
127,140,219449,6,0,L|19:135,1,90,2|0,3:2|0:0,0:2:0:0:
357,150,219757,2,0,L|363:243,1,90,0|0,1:2|0:2,0:2:0:0:
101,286,220065,5,0,3:2:0:0:
160,275,220141,1,0,0:2:0:0:
344,210,220219,1,2,3:2:0:0:
286,202,220295,1,0,3:2:0:0:
142,159,220373,1,2,1:2:0:0:
199,151,220449,1,0,0:0:0:0:
408,115,220526,1,2,3:2:0:0:
348,107,220602,1,0,0:0:0:0:
167,74,220680,6,0,L|52:71,1,90,2|0,1:2|0:0,0:0:0:0:
361,68,220988,2,0,L|466:63,1,90,2|0,1:2|0:0,0:0:0:0:
146,175,221296,1,2,1:2:0:0:
401,167,221449,2,0,L|404:58,1,90,2|0,1:2|0:0,0:2:0:0:
135,98,221757,6,0,L|424:98,1,270.000010299683,6|2,3:2|3:2,0:2:0:0:
146,204,222219,1,2,1:2:0:0:
394,133,222373,1,2,3:2:0:0:
146,204,222526,2,0,L|141:321,1,90,2|0,3:2|3:2,0:0:0:0:
413,283,222834,2,0,P|456:260|415:196,1,135,0|0,1:2|0:2,0:2:0:0:
258,215,223142,6,0,L|254:64,1,135,2|0,0:2|0:2,0:2:0:0:
69,103,223449,1,0,1:2:0:0:
317,93,223603,1,2,3:2:0:0:
183,98,223757,1,2,3:2:0:0:
317,93,223911,1,2,3:2:0:0:
91,183,224065,1,2,1:2:0:0:
226,134,224219,1,2,3:2:0:0:
173,132,224295,1,0,3:2:0:0:
20,125,224373,6,0,L|19:-2,1,90,2|0,3:2|0:2,0:2:0:0:
282,45,224680,1,0,1:2:0:0:
421,43,224834,1,0,3:2:0:0:
166,208,224988,5,0,3:2:0:0:
112,190,225064,1,0,0:0:0:0:
115,147,225141,1,0,0:0:0:0:
172,130,225218,1,0,0:2:0:0:
364,130,225296,1,2,1:2:0:0:
301,123,225372,1,0,0:2:0:0:
167,69,225449,1,2,3:2:0:0:
104,62,225525,1,2,0:2:0:0:
331,51,225603,5,2,1:2:0:0:
467,51,225757,1,0,1:2:0:0:
87,251,226065,2,0,P|32:226|110:159,1,180,2|2,1:2|3:2,0:2:0:0:
138,143,226449,1,0,3:2:0:0:
319,106,226526,1,2,1:2:0:0:
373,100,226602,1,0,0:2:0:0:
183,58,226680,1,2,3:2:0:0:
123,52,226756,1,0,0:2:0:0:
305,170,226834,5,0,3:2:0:0:
199,137,226988,2,0,L|197:25,1,90,0|0,1:2|3:2,0:0:0:0:
410,48,227296,2,0,L|501:44,1,90,0|0,1:2|3:2,0:0:0:0:
206,184,227603,1,2,3:2:0:0:
439,118,227757,1,2,1:2:0:0:
380,111,227833,1,0,0:0:0:0:
197,87,227911,1,2,3:2:0:0:
138,80,227987,1,0,0:0:0:0:
331,52,228065,6,0,L|451:50,1,90,2|0,3:2|0:0,0:2:0:0:
126,190,228373,2,0,L|30:182,1,90,0|0,1:2|0:2,0:2:0:0:
347,119,228680,5,0,3:2:0:0:
292,111,228756,1,0,0:0:0:0:
138,83,228834,1,2,3:2:0:0:
197,76,228910,1,0,0:0:0:0:
350,50,228988,1,2,1:2:0:0:
407,47,229064,1,0,0:0:0:0:
191,171,229142,1,2,3:2:0:0:
132,169,229218,1,0,0:0:0:0:
369,103,229296,6,0,L|497:97,1,90,2|0,3:2|0:0,0:2:0:0:
237,288,229603,2,0,L|363:272,1,90,0|0,1:2|3:2,0:2:0:0:
109,212,229911,5,0,3:2:0:0:
165,197,229988,1,0,0:0:0:0:
329,170,230065,1,0,3:2:0:0:
385,155,230142,1,0,0:0:0:0:
216,98,230219,1,2,1:2:0:0:
161,94,230295,1,0,0:0:0:0:
339,50,230373,1,2,3:2:0:0:
394,46,230449,1,0,3:2:0:0:
211,41,230526,5,2,1:2:0:0:
79,38,230680,1,0,3:2:0:0:
346,118,230834,2,0,L|346:230,1,90,0|0,3:2|1:2,0:0:0:0:
219,259,231142,1,0,3:2:0:0:
346,208,231296,1,0,3:2:0:0:
54,208,231449,2,0,L|56:111,1,90,2|0,1:2|3:2,0:2:0:0:
307,97,231757,5,2,1:2:0:0:
178,95,231911,1,0,3:2:0:0:
307,97,232065,1,2,3:2:0:0:
86,153,232219,1,2,1:2:0:0:
221,151,232373,1,0,3:2:0:0:
356,159,232526,1,0,3:2:0:0:
130,259,232680,1,2,1:2:0:0:
277,269,232834,1,2,3:2:0:0:
39,122,232988,5,2,1:2:0:0:
176,126,233142,1,0,3:2:0:0:
39,122,233296,2,0,L|35:21,1,90,0|0,3:2|1:2,0:0:0:0:
342,195,233603,1,0,3:2:0:0:
193,210,233757,1,0,3:2:0:0:
342,195,233911,2,0,L|338:94,1,90,2|0,1:2|3:2,0:0:0:0:
87,102,234219,5,4,1:3:0:0:
222,94,234373,1,0,0:0:0:0:
87,102,234526,1,0,0:2:0:0:
345,113,234680,2,0,P|395:114|446:223,1,180,4|0,1:3|0:2,0:2:0:0:
187,234,235142,1,2,3:2:0:0:
328,231,235296,1,2,3:2:0:0:
99,129,235449,5,0,1:2:0:0:
232,113,235603,1,2,3:2:0:0:
364,100,235757,1,0,1:2:0:0:
99,129,235911,1,2,3:2:0:0:
232,113,236065,1,0,1:2:0:0:
99,129,236219,1,0,3:2:0:0:
364,100,236373,1,0,1:2:0:0:
232,113,236526,1,2,3:2:0:0:
451,190,236680,5,2,1:2:0:0:
318,175,236834,1,0,3:2:0:0:
185,145,236988,1,0,1:2:0:0:
451,190,237142,1,0,3:2:0:0:
318,175,237296,1,0,1:2:0:0:
451,190,237450,1,0,3:2:0:0:
186,145,237604,1,2,3:2:0:0:
318,175,237757,1,0,0:0:0:0:
57,199,237911,5,2,1:2:0:0:
3,180,237987,1,0,3:2:0:0:
4,137,238064,1,0,3:2:0:0:
58,114,238141,1,0,3:2:0:0:
235,93,238219,1,0,1:2:0:0:
294,90,238295,1,0,3:2:0:0:
138,203,238373,2,0,L|182:197,1,45,0|0,3:2|3:2,0:0:0:0:
264,155,238526,6,0,L|219:149,1,45,0|0,1:3|3:3,0:3:0:0:
79,118,238680,1,0,3:3:0:0:
132,107,238756,1,0,3:3:0:0:
312,96,238834,1,0,1:3:0:0:
259,87,238910,1,0,1:3:0:0:
50,70,238988,1,0,1:3:0:0:
101,60,239064,1,0,1:3:0:0:
283,39,239142,5,0,1:2:0:0:
499,110,239296,1,0,1:2:0:0:
283,39,239449,1,0,1:2:0:0:
499,110,239603,1,0,1:2:0:0:
248,40,239757,1,0,1:2:0:0:
36,66,239911,1,0,1:2:0:0:
248,40,240064,1,0,1:2:0:0:
36,66,240218,1,0,1:2:0:0:
338,179,240373,5,0,1:2:0:0:
164,239,240988,6,0,L|160:141,1,90,2|0,0:0|0:0,0:0:0:0:
298,104,241296,1,2,0:0:0:0:
160,149,241449,1,2,0:0:0:0:
439,123,241603,6,0,L|440:235,1,90,4|0,1:2|0:0,0:2:0:0:
185,309,241911,1,0,3:2:0:0:
250,303,241987,1,0,3:2:0:0:
315,298,242064,1,0,3:2:0:0:
380,293,242141,1,0,3:2:0:0:
73,123,242219,6,0,L|72:235,1,90,4|0,1:2|0:0,0:2:0:0:
327,309,242527,1,0,3:2:0:0:
262,303,242603,1,0,3:2:0:0:
197,298,242680,1,0,3:2:0:0:
132,293,242757,1,0,3:2:0:0:
282,198,242834,5,4,3:2:0:0:
435,193,242911,2,0,L|489:172,2,45,0|0|0,0:2|3:2|0:2,0:0:0:0:
232,145,243142,1,0,3:2:0:0:
61,140,243219,2,0,L|-2:145,2,45,0|0|0,0:2|3:2|0:2,0:0:0:0:
255,71,243449,5,0,3:2:0:0:
316,58,243526,1,0,3:2:0:0:
110,86,243603,1,0,3:2:0:0:
49,73,243680,1,0,3:2:0:0:
247,144,243757,2,0,B|472:141|472:141|479:25,1,337.5,8|0,1:2|0:2,0:2:0:0:
240,89,244065,6,0,L|113:84,1,90,2|0,3:2|3:2,0:0:0:0:
380,79,244373,2,0,L|473:74,1,90,6|0,1:2|0:2,0:2:0:0:
170,222,244680,1,0,3:2:0:0:
404,176,244834,1,2,3:2:0:0:
406,131,244910,1,0,0:0:0:0:
408,86,244987,1,0,1:2:0:0:
157,79,245142,6,0,L|284:77,1,90,2|0,3:2|0:0,0:2:0:0:
27,167,245449,1,2,3:2:0:0:
287,109,245603,1,2,1:2:0:0:
217,95,245680,1,0,0:2:0:0:
147,86,245757,1,2,3:2:0:0:
379,203,245911,1,2,3:2:0:0:
262,143,246065,2,0,L|330:141,1,45,2|2,3:2|3:2,0:0:0:0:
138,94,246219,2,0,L|23:94,1,90,2|2,1:2|3:2,0:0:0:0:
309,80,246526,6,0,L|257:79,1,45,2|2,3:2|3:2,0:0:0:0:
125,52,246680,2,0,L|51:46,1,45,2|2,3:2|3:2,0:0:0:0:
266,167,246834,2,0,L|343:166,1,45,2|0,1:2|0:0,0:0:0:0:
130,214,246988,6,0,P|91:194|140:137,1,135,2|0,3:2|0:2,0:2:0:0:
216,110,247296,2,0,L|264:96,1,45,2|0,3:2|0:0,0:0:0:0:
176,47,247449,2,0,L|98:36,1,45,2|0,1:2|0:2,0:2:0:0:
279,39,247603,2,0,L|337:27,1,45,2|0,3:2|0:2,0:2:0:0:
109,102,247757,6,0,L|104:220,1,90,6|0,3:2|3:2,0:2:0:0:
166,232,247988,1,0,3:2:0:0:
323,162,248065,1,6,1:2:0:0:
204,116,248219,1,0,3:2:0:0:
260,111,248295,1,0,3:2:0:0:
440,82,248373,5,6,3:2:0:0:
387,68,248449,1,0,0:2:0:0:
210,52,248526,1,0,3:2:0:0:
159,42,248602,1,0,0:2:0:0:
339,163,248680,1,2,1:2:0:0:
391,142,248756,1,0,1:2:0:0:
182,137,248834,1,0,1:2:0:0:
128,151,248910,1,0,1:2:0:0:
322,106,248988,6,0,L|449:101,1,90,2|0,3:2|3:2,0:0:0:0:
171,89,249296,2,0,L|78:84,1,90,6|0,1:2|0:2,0:2:0:0:
351,230,249603,1,2,3:2:0:0:
123,184,249757,1,2,3:2:0:0:
71,145,249833,1,0,0:0:0:0:
120,94,249910,1,0,1:2:0:0:
364,76,250065,6,0,L|237:74,1,90,2|0,3:2|0:0,0:2:0:0:
493,177,250372,1,2,3:2:0:0:
240,117,250526,1,2,1:2:0:0:
310,103,250603,1,0,0:2:0:0:
380,94,250680,1,0,3:2:0:0:
156,216,250834,1,2,3:2:0:0:
277,150,250988,2,0,L|209:148,1,45,2|2,3:2|3:2,0:0:0:0:
389,102,251142,2,0,L|504:102,1,90,2|2,1:2|3:2,0:0:0:0:
431,48,251373,1,2,3:2:0:0:
267,48,251449,5,2,1:2:0:0:
390,47,251603,1,2,3:2:0:0:
451,47,251680,1,0,3:2:0:0:
390,47,251757,1,0,3:2:0:0:
123,182,251911,1,2,1:2:0:0:
243,117,252065,1,0,3:2:0:0:
187,118,252142,1,0,3:2:0:0:
25,124,252219,1,0,3:2:0:0:
137,124,252372,1,2,1:2:0:0:
380,164,252526,1,2,3:2:0:0:
319,159,252602,1,0,3:2:0:0:
143,112,252680,5,0,3:2:0:0:
204,107,252756,1,0,0:0:0:0:
414,83,252834,1,2,1:2:0:0:
353,78,252910,1,0,0:0:0:0:
172,52,252988,1,2,3:2:0:0:
34,38,253142,1,2,3:2:0:0:
254,20,253296,1,2,1:2:0:0:
478,15,253449,1,2,1:2:0:0:
187,259,253603,2,0,P|149:223|200:152,1,135,6|0,3:2|0:2,0:2:0:0:
366,122,253911,6,0,L|486:114,1,90,6|0,3:2|0:2,0:2:0:0:
225,271,254219,2,0,L|356:260,1,90,2|0,1:2|0:2,0:2:0:0:
88,175,254526,1,2,3:2:0:0:
383,98,254680,1,2,3:2:0:0:
252,69,254834,1,0,1:2:0:0:
383,98,254988,1,2,0:2:0:0:
137,140,255142,5,2,3:2:0:0:
273,95,255296,2,0,L|214:91,1,45,2|0,3:2|0:2,0:2:0:0:
69,87,255449,1,2,1:2:0:0:
198,40,255603,1,2,3:2:0:0:
257,34,255679,1,2,3:2:0:0:
428,174,255757,1,0,3:2:0:0:
450,79,255911,2,0,L|405:76,1,45,0|0,3:2|3:2,0:0:0:0:
217,104,256065,1,0,1:2:0:0:
346,102,256219,1,2,3:2:0:0:
127,172,256373,5,2,3:2:0:0:
76,167,256449,1,0,0:0:0:0:
157,115,256526,1,0,3:2:0:0:
211,110,256602,1,0,3:2:0:0:
127,172,256680,1,2,1:2:0:0:
76,167,256756,1,0,0:2:0:0:
296,86,256834,2,0,P|357:103|385:228,1,180,2|2,3:2|3:2,0:2:0:0:
171,201,257296,1,2,1:2:0:0:
311,189,257449,1,2,3:2:0:0:
98,162,257603,5,6,3:2:0:0:
337,102,257757,2,0,L|266:103,1,45,0|0,3:2|3:2,0:0:0:0:
121,98,257911,1,6,3:2:0:0:
243,41,258065,2,0,L|173:38,1,45,0|0,3:2|3:2,0:0:0:0:
46,38,258219,1,6,3:2:0:0:
37,16,258373,2,0,L|82:16,1,45,0|0,3:2|3:2,0:0:0:0:
276,89,258526,1,6,1:2:0:0:
414,94,258680,2,0,L|345:92,1,45,0|0,3:2|3:2,0:0:0:0:
171,189,258834,5,2,1:2:0:0:
29,162,258988,1,0,3:2:0:0:
171,189,259142,1,2,1:2:0:0:
29,162,259296,1,0,3:2:0:0:
304,117,259449,1,2,1:2:0:0:
175,67,259603,1,2,3:2:0:0:
234,66,259679,1,0,0:2:0:0:
394,57,259757,2,0,L|497:56,1,90,0|2,1:2|3:2,0:2:0:0:
435,117,259988,1,2,3:2:0:0:
198,210,260065,5,2,1:2:0:0:
322,150,260219,1,2,3:2:0:0:
265,150,260295,1,2,0:2:0:0:
70,145,260373,1,2,1:2:0:0:
52,81,260526,1,2,3:2:0:0:
114,79,260602,1,2,3:2:0:0:
291,68,260680,2,0,P|298:119|291:196,1,90,2|2,1:2|3:2,0:0:0:0:
232,185,260911,1,2,3:2:0:0:
412,134,260988,2,0,L|501:133,1,90,2|2,1:2|3:2,0:0:0:0:
183,116,261296,5,2,1:2:0:0:
236,115,261372,1,0,0:2:0:0:
320,133,261449,1,0,3:2:0:0:
267,133,261525,1,0,0:2:0:0:
183,116,261603,1,0,1:2:0:0:
236,115,261679,1,0,0:2:0:0:
320,133,261756,1,0,3:2:0:0:
267,133,261834,1,0,0:2:0:0:
126,200,261911,5,2,1:2:0:0:
180,196,261987,1,0,3:2:0:0:
370,168,262065,1,0,3:2:0:0:
314,160,262141,1,0,3:2:0:0:
126,200,262219,1,0,1:2:0:0:
180,196,262295,1,0,3:2:0:0:
370,168,262373,1,0,3:2:0:0:
314,160,262449,1,0,3:2:0:0:
134,97,262526,6,0,L|22:87,1,90,2|0,1:2|3:2,0:2:0:0:
96,37,262757,1,0,3:2:0:0:
305,107,262834,2,0,L|417:97,1,90,2|0,1:2|3:2,0:2:0:0:
343,47,263065,1,0,3:2:0:0:
121,206,263142,5,2,3:2:0:0:
184,198,263218,1,0,0:2:0:0:
348,157,263296,1,0,3:2:0:0:
411,150,263372,1,0,3:2:0:0:
212,122,263449,1,2,1:2:0:0:
274,115,263525,1,0,3:2:0:0:
438,74,263603,1,0,3:2:0:0:
501,66,263679,1,0,3:2:0:0:
176,215,264065,6,0,P|126:189|206:128,1,180,2|2,1:2|1:2,0:0:0:0:
436,160,264526,2,0,L|441:41,1,90,2|0,1:2|0:0,0:2:0:0:
155,118,264834,6,0,L|358:115,1,180,2|2,3:2|3:2,0:2:0:0:
194,189,265296,1,2,1:2:0:0:
334,115,265449,1,2,1:2:0:0:
96,126,265603,1,2,3:2:0:0:
353,53,265911,5,4,0:1:0:0:
256,192,266065,12,0,268065,0:0:0:0:
