osu file format v14

[General]
AudioFilename: audio.mp3
AudioLeadIn: 0
PreviewTime: 85
Countdown: 0
SampleSet: Normal
StackLeniency: 0.7
Mode: 1
LetterboxInBreaks: 0
WidescreenStoryboard: 0

[Editor]
DistanceSpacing: 1.1
BeatDivisor: 4
GridSize: 32
TimelineZoom: 1.1

[Metadata]
Title:Ai Wana be Junkie
TitleUnicode:愛 罠 be ジャンキー
Artist:Houshou Marine
ArtistUnicode:宝鐘マリン
Creator:DukeDukeDura
Version:Marine <3
Source:
Tags:vtuber hololive dyes iwasaki fake type
BeatmapID:4554680
BeatmapSetID:2160029

[Difficulty]
HPDrainRate:5
CircleSize:5
OverallDifficulty:5
ApproachRate:5
SliderMultiplier:1.3
SliderTickRate:1

[Events]
//Background and Video events
0,0,"bg.jpg",0,0
0,0,"bg.jpg",0,0
Video,0,"video.mp4"
//Break Periods
//Storyboard Layer 0 (Background)
//Storyboard Layer 1 (Fail)
//Storyboard Layer 2 (Pass)
//Storyboard Layer 3 (Foreground)
//Storyboard Layer 4 (Overlay)
//Storyboard Sound Samples

[TimingPoints]
85,444.444444444444,4,1,0,100,1,0
85,-125,4,1,0,100,0,0
6973,-117.647058823529,4,1,0,100,0,0
7196,-111.111111111111,4,1,0,100,0,0
14084,-105.263157894737,4,1,0,100,0,0
14307,-100,4,1,0,100,0,0
14751,-95.2380952380952,4,1,0,100,0,0
28825,-142.857142857143,4,1,0,100,0,0
30603,-153.846153846154,4,1,0,100,0,0
32529,-133.333333333333,4,1,0,100,0,0
34307,-142.857142857143,4,1,0,100,0,0
36084,-125,4,1,0,100,0,0
37714,-133.333333333333,4,1,0,100,0,0
39640,-117.647058823529,4,1,0,100,0,0
40973,-111.111111111111,4,1,0,100,0,0
41418,-100,4,1,0,100,0,0
41640,-86.9565217391304,4,1,0,100,0,0
41862,-74.0740740740741,4,1,0,100,0,0
42159,-62.5,4,1,0,100,0,0
42307,-33.3333333333333,4,1,0,100,0,0
44529,-60.6060606060606,4,1,0,100,0,1
44532,-80,4,1,0,100,0,1
48084,-60.6060606060606,4,1,0,100,0,1
48087,-80,4,1,0,100,0,1
51640,-60.6060606060606,4,1,0,100,0,1
51643,-80,4,1,0,100,0,1
55196,-60.6060606060606,4,1,0,100,0,1
55199,-80,4,1,0,100,0,1
56973,-60.6060606060606,4,1,0,100,0,1
56976,-80,4,1,0,100,0,1
58751,-60.6060606060606,4,1,0,100,0,0
59196,-100,4,1,0,100,0,0
65862,-95.2380952380952,4,1,0,100,0,0
80381,-142.857142857143,4,1,0,100,0,0
82159,-153.846153846154,4,1,0,100,0,0
84084,-133.333333333333,4,1,0,100,0,0
85862,-142.857142857143,4,1,0,100,0,0
87640,-125,4,1,0,100,0,0
89270,-133.333333333333,4,1,0,100,0,0
91196,-117.647058823529,4,1,0,100,0,0
92529,-111.111111111111,4,1,0,100,0,0
92973,-100,4,1,0,100,0,0
93196,-86.9565217391304,4,1,0,100,0,0
93418,-74.0740740740741,4,1,0,100,0,0
93714,-62.5,4,1,0,100,0,0
93862,-33.3333333333333,4,1,0,100,0,0
96084,-60.6060606060606,4,1,0,100,0,1
96087,-80,4,1,0,100,0,1
99639,-60.6060606060606,4,1,0,100,0,1
99642,-80,4,1,0,100,0,1
103195,-60.6060606060606,4,1,0,100,0,1
103198,-80,4,1,0,100,0,1
106751,-60.6060606060606,4,1,0,100,0,1
106754,-80,4,1,0,100,0,1
108528,-60.6060606060606,4,1,0,100,0,1
108531,-80,4,1,0,100,0,1
110307,-60.6060606060606,4,1,0,100,0,0
111418,-142.857142857143,4,1,0,100,0,0
112084,-100,4,1,0,100,0,0
117418,-100,4,1,0,100,0,0
119196,-95.2380952380952,4,1,0,100,0,0
126084,-92.5925925925926,4,1,0,100,0,0
126307,-80,4,1,0,100,0,0
126310,-90.9090909090909,4,1,0,100,0,0
133418,-80,4,1,0,100,0,0
133421,-90.9090909090909,4,1,0,100,0,0
138751,444.444444444444,80,1,0,100,1,0
138751,-90.9090909090909,5,1,0,100,0,0
140307,-57.1428571428571,5,1,0,100,0,0
142307,444.444444444444,4,1,0,100,1,0
142307,-60.6060606060606,4,1,0,100,0,1
142310,-76.9230769230769,4,1,0,100,0,1
145862,-60.6060606060606,4,1,0,100,0,1
145865,-76.9230769230769,4,1,0,100,0,1
149418,-60.6060606060606,4,1,0,100,0,1
149421,-76.9230769230769,4,1,0,100,0,1
152973,-60.6060606060606,4,1,0,100,0,1
152976,-76.9230769230769,4,1,0,100,0,1
154751,-60.6060606060606,4,1,0,100,0,1
154754,-76.9230769230769,4,1,0,100,0,1
156529,-60.6060606060606,4,1,0,100,0,0
156862,-95.2380952380952,4,1,0,100,0,0
160084,-68.9655172413793,4,1,0,100,0,0
160087,-95.2380952380952,4,1,0,100,0,0
163640,-68.9655172413793,4,1,0,100,0,0
163643,-95.2380952380952,4,1,0,100,0,0
167195,-68.9655172413793,4,1,0,100,0,0
167198,-95.2380952380952,4,1,0,100,0,0

[HitObjects]
256,192,85,5,0,0:0:0:0:
256,192,307,1,8,0:0:0:0:
256,192,529,1,8,0:0:0:0:
256,192,751,1,8,0:0:0:0:
256,192,862,1,0,0:0:0:0:
256,192,973,1,0,0:0:0:0:
256,192,1196,1,8,0:0:0:0:
256,192,1418,1,0,0:0:0:0:
256,192,1640,1,8,0:0:0:0:
256,192,1862,1,0,0:0:0:0:
256,192,1973,1,0,0:0:0:0:
256,192,2084,1,8,0:0:0:0:
256,192,2196,1,8,0:0:0:0:
256,192,2307,1,0,0:0:0:0:
256,192,2529,1,0,0:0:0:0:
256,192,2640,1,8,0:0:0:0:
256,192,2751,1,0,0:0:0:0:
256,192,2973,1,0,0:0:0:0:
256,192,3196,1,8,0:0:0:0:
256,192,3418,1,0,0:0:0:0:
256,192,3529,1,0,0:0:0:0:
256,192,3640,1,8,0:0:0:0:
256,192,3862,1,0,0:0:0:0:
256,192,4084,1,8,0:0:0:0:
256,192,4307,1,8,0:0:0:0:
256,192,4418,1,0,0:0:0:0:
256,192,4529,1,8,0:0:0:0:
256,192,4751,1,8,0:0:0:0:
256,192,4973,1,0,0:0:0:0:
256,192,5196,1,8,0:0:0:0:
256,192,5418,1,0,0:0:0:0:
256,192,5529,1,8,0:0:0:0:
256,192,5640,1,8,0:0:0:0:
256,192,5751,1,0,0:0:0:0:
256,192,5862,1,8,0:0:0:0:
256,192,6084,1,8,0:0:0:0:
256,192,6307,1,0,0:0:0:0:
256,192,6418,1,8,0:0:0:0:
256,192,6529,1,0,0:0:0:0:
256,192,6640,1,8,0:0:0:0:
256,192,6751,1,0,0:0:0:0:
256,192,6973,1,0,0:0:0:0:
256,192,7196,1,12,0:0:0:0:
256,192,7640,1,0,0:0:0:0:
256,192,8084,1,8,0:0:0:0:
256,192,8196,1,8,0:0:0:0:
256,192,8307,1,8,0:0:0:0:
256,192,8529,1,0,0:0:0:0:
256,192,8751,1,8,0:0:0:0:
256,192,8862,1,8,0:0:0:0:
256,192,8973,1,0,0:0:0:0:
256,192,9196,1,8,0:0:0:0:
256,192,9418,1,0,0:0:0:0:
256,192,9640,1,0,0:0:0:0:
256,192,9751,1,0,0:0:0:0:
256,192,9862,1,8,0:0:0:0:
256,192,10084,1,0,0:0:0:0:
256,192,10196,1,8,0:0:0:0:
256,192,10529,1,0,0:0:0:0:
256,192,10751,1,8,0:0:0:0:
256,192,10862,1,8,0:0:0:0:
256,192,10973,1,8,0:0:0:0:
256,192,11196,1,0,0:0:0:0:
256,192,11307,1,0,0:0:0:0:
256,192,11418,1,0,0:0:0:0:
256,192,11640,1,8,0:0:0:0:
256,192,11751,1,8,0:0:0:0:
256,192,11862,1,8,0:0:0:0:
256,192,11973,1,8,0:0:0:0:
256,192,12084,1,0,0:0:0:0:
256,192,12196,1,0,0:0:0:0:
256,192,12307,1,8,0:0:0:0:
256,192,12529,1,0,0:0:0:0:
256,192,12640,1,8,0:0:0:0:
256,192,12751,1,8,0:0:0:0:
256,192,12862,1,0,0:0:0:0:
256,192,12973,1,8,0:0:0:0:
256,192,13196,1,8,0:0:0:0:
256,192,13307,1,0,0:0:0:0:
256,192,13418,1,8,0:0:0:0:
256,192,13640,1,0,0:0:0:0:
256,192,13751,1,0,0:0:0:0:
256,192,13862,1,8,0:0:0:0:
256,192,14084,1,0,0:0:0:0:
256,192,14307,1,12,0:0:0:0:
256,192,14751,1,0,0:0:0:0:
256,192,14973,1,8,0:0:0:0:
256,192,15196,1,8,0:0:0:0:
256,192,15307,1,0,0:0:0:0:
256,192,15529,1,0,0:0:0:0:
256,192,15640,1,8,0:0:0:0:
256,192,15862,1,0,0:0:0:0:
256,192,16084,1,8,0:0:0:0:
256,192,16196,1,0,0:0:0:0:
256,192,16307,1,8,0:0:0:0:
256,192,16529,1,0,0:0:0:0:
256,192,16751,1,8,0:0:0:0:
256,192,16973,1,8,0:0:0:0:
256,192,17084,1,0,0:0:0:0:
256,192,17196,1,0,0:0:0:0:
256,192,17307,1,0,0:0:0:0:
256,192,17418,1,8,0:0:0:0:
256,192,17751,1,0,0:0:0:0:
256,192,17862,1,8,0:0:0:0:
256,192,17973,1,0,0:0:0:0:
256,192,18084,1,8,0:0:0:0:
256,192,18307,1,0,0:0:0:0:
256,192,18529,1,8,0:0:0:0:
256,192,18751,1,8,0:0:0:0:
256,192,18862,1,8,0:0:0:0:
256,192,18973,1,0,0:0:0:0:
256,192,19084,1,8,0:0:0:0:
256,192,19196,1,0,0:0:0:0:
256,192,19529,1,0,0:0:0:0:
256,192,19640,1,8,0:0:0:0:
256,192,19862,1,8,0:0:0:0:
256,192,19973,1,0,0:0:0:0:
256,192,20084,1,0,0:0:0:0:
256,192,20307,1,8,0:0:0:0:
256,192,20418,1,0,0:0:0:0:
256,192,20529,1,0,0:0:0:0:
256,192,20640,1,8,0:0:0:0:
256,192,20862,1,0,0:0:0:0:
256,192,20973,1,8,0:0:0:0:
256,192,21307,1,0,0:0:0:0:
256,192,21418,1,8,0:0:0:0:
256,192,21529,1,0,0:0:0:0:
256,192,21640,1,8,0:0:0:0:
256,192,21862,1,0,0:0:0:0:
256,192,22084,1,8,0:0:0:0:
256,192,22307,1,8,0:0:0:0:
256,192,22418,1,8,0:0:0:0:
256,192,22529,1,0,0:0:0:0:
256,192,22640,1,0,0:0:0:0:
256,192,22751,1,8,0:0:0:0:
256,192,23084,1,0,0:0:0:0:
256,192,23196,1,8,0:0:0:0:
256,192,23307,1,8,0:0:0:0:
256,192,23418,1,0,0:0:0:0:
256,192,23640,1,0,0:0:0:0:
256,192,23862,1,8,0:0:0:0:
256,192,24084,1,8,0:0:0:0:
256,192,24196,1,0,0:0:0:0:
256,192,24307,1,0,0:0:0:0:
256,192,24418,1,0,0:0:0:0:
256,192,24529,1,8,0:0:0:0:
256,192,24973,1,0,0:0:0:0:
256,192,25196,1,8,0:0:0:0:
256,192,25307,1,0,0:0:0:0:
256,192,25418,1,8,0:0:0:0:
256,192,25529,1,8,0:0:0:0:
256,192,25640,1,0,0:0:0:0:
256,192,25862,1,0,0:0:0:0:
256,192,25973,1,8,0:0:0:0:
256,192,26084,1,0,0:0:0:0:
256,192,26307,1,8,0:0:0:0:
256,192,26418,1,0,0:0:0:0:
256,192,26529,1,8,0:0:0:0:
256,192,26751,1,0,0:0:0:0:
256,192,26973,1,8,0:0:0:0:
256,192,27084,1,8,0:0:0:0:
256,192,27196,1,0,0:0:0:0:
256,192,27307,1,0,0:0:0:0:
256,192,27418,1,8,0:0:0:0:
256,192,27640,1,0,0:0:0:0:
256,192,27751,1,8,0:0:0:0:
256,192,27973,1,8,0:0:0:0:
256,192,28084,1,8,0:0:0:0:
256,192,28307,1,8,0:0:0:0:
256,192,28529,1,4,0:0:0:0:
256,192,28825,1,0,0:0:0:0:
256,192,28973,1,8,0:0:0:0:
256,192,29122,1,8,0:0:0:0:
256,192,29270,1,0,0:0:0:0:
256,192,29418,1,8,0:0:0:0:
256,192,29566,1,8,0:0:0:0:
256,192,29714,1,0,0:0:0:0:
256,192,29862,1,8,0:0:0:0:
256,192,30010,1,0,0:0:0:0:
256,192,30159,1,8,0:0:0:0:
256,192,30307,1,8,0:0:0:0:
256,192,30603,1,8,0:0:0:0:
256,192,30751,1,0,0:0:0:0:
256,192,30899,1,0,0:0:0:0:
256,192,31047,1,8,0:0:0:0:
256,192,31196,1,8,0:0:0:0:
256,192,31344,1,0,0:0:0:0:
256,192,31492,1,8,0:0:0:0:
256,192,31640,1,0,0:0:0:0:
256,192,31788,1,8,0:0:0:0:
256,192,31936,1,8,0:0:0:0:
256,192,32084,1,0,0:0:0:0:
256,192,32529,1,0,0:0:0:0:
256,192,32677,1,8,0:0:0:0:
256,192,32825,1,8,0:0:0:0:
256,192,32973,1,0,0:0:0:0:
256,192,33122,1,0,0:0:0:0:
256,192,33270,1,8,0:0:0:0:
256,192,33418,1,8,0:0:0:0:
256,192,33566,1,0,0:0:0:0:
256,192,33714,1,8,0:0:0:0:
256,192,33862,1,0,0:0:0:0:
256,192,34307,1,8,0:0:0:0:
256,192,34455,1,0,0:0:0:0:
256,192,34603,1,0,0:0:0:0:
256,192,34751,1,8,0:0:0:0:
256,192,34899,1,8,0:0:0:0:
256,192,35047,1,0,0:0:0:0:
256,192,35196,1,0,0:0:0:0:
256,192,35270,1,8,0:0:0:0:
256,192,35418,1,0,0:0:0:0:
256,192,35492,1,8,0:0:0:0:
256,192,35640,1,0,0:0:0:0:
256,192,36084,1,0,0:0:0:0:
256,192,36233,1,8,0:0:0:0:
256,192,36381,1,8,0:0:0:0:
256,192,36529,1,0,0:0:0:0:
256,192,36677,1,8,0:0:0:0:
256,192,36825,1,8,0:0:0:0:
256,192,36973,1,0,0:0:0:0:
256,192,37122,1,8,0:0:0:0:
256,192,37270,1,0,0:0:0:0:
256,192,37418,1,0,0:0:0:0:
256,192,37714,1,8,0:0:0:0:
256,192,37862,1,0,0:0:0:0:
256,192,38010,1,8,0:0:0:0:
256,192,38159,1,8,0:0:0:0:
256,192,38307,1,0,0:0:0:0:
256,192,38455,1,0,0:0:0:0:
256,192,38603,1,8,0:0:0:0:
256,192,38751,1,0,0:0:0:0:
256,192,38899,1,0,0:0:0:0:
256,192,39047,1,0,0:0:0:0:
256,192,39196,1,8,0:0:0:0:
256,192,39640,1,0,0:0:0:0:
256,192,39788,1,8,0:0:0:0:
256,192,39936,1,0,0:0:0:0:
256,192,40084,1,8,0:0:0:0:
256,192,40233,1,0,0:0:0:0:
256,192,40381,1,8,0:0:0:0:
256,192,40529,1,8,0:0:0:0:
256,192,40677,1,8,0:0:0:0:
256,192,40825,1,0,0:0:0:0:
256,192,40973,1,8,0:0:0:0:
256,192,41047,1,8,0:0:0:0:
256,192,41122,1,8,0:0:0:0:
256,192,41270,1,0,0:0:0:0:
256,192,41418,1,8,0:0:0:0:
256,192,41492,1,8,0:0:0:0:
256,192,41640,1,8,0:0:0:0:
256,192,41714,1,8,0:0:0:0:
256,192,41862,1,8,0:0:0:0:
256,192,41936,1,8,0:0:0:0:
256,192,42010,1,8,0:0:0:0:
256,192,42159,1,8,0:0:0:0:
256,192,42233,1,8,0:0:0:0:
256,192,42307,8,0,43640,0:0:0:0:
256,192,44529,5,4,0:0:0:0:
256,192,44973,1,8,0:0:0:0:
256,192,45084,1,8,0:0:0:0:
256,192,45196,1,0,0:0:0:0:
256,192,45307,1,8,0:0:0:0:
256,192,45418,1,8,0:0:0:0:
256,192,45529,1,8,0:0:0:0:
256,192,45640,1,0,0:0:0:0:
256,192,45751,1,0,0:0:0:0:
256,192,45862,1,8,0:0:0:0:
256,192,46084,1,0,0:0:0:0:
256,192,46196,1,8,0:0:0:0:
256,192,46307,1,0,0:0:0:0:
256,192,46418,1,0,0:0:0:0:
256,192,46529,1,8,0:0:0:0:
256,192,46640,1,8,0:0:0:0:
256,192,46751,1,0,0:0:0:0:
256,192,46862,1,0,0:0:0:0:
256,192,46973,1,8,0:0:0:0:
256,192,47084,1,8,0:0:0:0:
256,192,47196,1,0,0:0:0:0:
256,192,47418,1,8,0:0:0:0:
256,192,47529,1,8,0:0:0:0:
256,192,47640,1,0,0:0:0:0:
256,192,47751,1,8,0:0:0:0:
256,192,47862,1,0,0:0:0:0:
256,192,48084,1,12,0:0:0:0:
256,192,48307,1,0,0:0:0:0:
256,192,48418,1,0,0:0:0:0:
256,192,48529,1,8,0:0:0:0:
256,192,48640,1,8,0:0:0:0:
256,192,48751,1,0,0:0:0:0:
256,192,48973,1,8,0:0:0:0:
256,192,49084,1,8,0:0:0:0:
256,192,49196,1,0,0:0:0:0:
256,192,49307,1,8,0:0:0:0:
256,192,49418,1,0,0:0:0:0:
256,192,49640,1,8,0:0:0:0:
256,192,49862,1,0,0:0:0:0:
256,192,49973,1,8,0:0:0:0:
256,192,50084,1,8,0:0:0:0:
256,192,50196,1,0,0:0:0:0:
256,192,50307,1,8,0:0:0:0:
256,192,50418,1,8,0:0:0:0:
256,192,50529,1,0,0:0:0:0:
256,192,50640,1,0,0:0:0:0:
256,192,50751,1,8,0:0:0:0:
256,192,50973,1,8,0:0:0:0:
256,192,51196,1,0,0:0:0:0:
256,192,51307,1,8,0:0:0:0:
256,192,51418,1,0,0:0:0:0:
256,192,51640,1,4,0:0:0:0:
256,192,52084,1,8,0:0:0:0:
256,192,52196,1,8,0:0:0:0:
256,192,52307,1,0,0:0:0:0:
256,192,52418,1,0,0:0:0:0:
256,192,52529,1,8,0:0:0:0:
256,192,52640,1,0,0:0:0:0:
256,192,52751,1,8,0:0:0:0:
256,192,52862,1,8,0:0:0:0:
256,192,52973,1,0,0:0:0:0:
256,192,53196,1,0,0:0:0:0:
256,192,53307,1,0,0:0:0:0:
256,192,53418,1,8,0:0:0:0:
256,192,53529,1,8,0:0:0:0:
256,192,53640,1,0,0:0:0:0:
256,192,53751,1,8,0:0:0:0:
256,192,53862,1,0,0:0:0:0:
256,192,53973,1,0,0:0:0:0:
256,192,54084,1,8,0:0:0:0:
256,192,54196,1,0,0:0:0:0:
256,192,54307,1,8,0:0:0:0:
256,192,54529,1,8,0:0:0:0:
256,192,54751,1,0,0:0:0:0:
256,192,54862,1,8,0:0:0:0:
256,192,55196,1,12,0:0:0:0:
256,192,55418,1,0,0:0:0:0:
256,192,55529,1,0,0:0:0:0:
256,192,55640,1,0,0:0:0:0:
256,192,55751,1,8,0:0:0:0:
256,192,55862,1,0,0:0:0:0:
256,192,56084,1,8,0:0:0:0:
256,192,56196,1,8,0:0:0:0:
256,192,56307,1,8,0:0:0:0:
256,192,56418,1,0,0:0:0:0:
256,192,56529,1,8,0:0:0:0:
256,192,56640,1,8,0:0:0:0:
256,192,56751,1,0,0:0:0:0:
256,192,56973,1,4,0:0:0:0:
256,192,57196,1,8,0:0:0:0:
256,192,57307,1,8,0:0:0:0:
256,192,57418,1,0,0:0:0:0:
256,192,57529,1,0,0:0:0:0:
256,192,57640,1,8,0:0:0:0:
256,192,57751,1,0,0:0:0:0:
256,192,57862,1,8,0:0:0:0:
256,192,57973,1,8,0:0:0:0:
256,192,58084,1,0,0:0:0:0:
256,192,58196,1,0,0:0:0:0:
256,192,58307,1,8,0:0:0:0:
256,192,58418,1,8,0:0:0:0:
256,192,58529,1,0,0:0:0:0:
256,192,58640,1,0,0:0:0:0:
256,192,58751,1,12,0:0:0:0:
256,192,59196,1,0,0:0:0:0:
256,192,59418,1,8,0:0:0:0:
256,192,59529,1,8,0:0:0:0:
256,192,59640,1,0,0:0:0:0:
256,192,59862,1,8,0:0:0:0:
256,192,60084,1,0,0:0:0:0:
256,192,60251,1,8,0:0:0:0:
256,192,60307,1,0,0:0:0:0:
256,192,60529,1,8,0:0:0:0:
256,192,60751,1,0,0:0:0:0:
256,192,60862,1,0,0:0:0:0:
256,192,60973,1,8,0:0:0:0:
256,192,61196,1,8,0:0:0:0:
256,192,61418,1,0,0:0:0:0:
256,192,61640,1,0,0:0:0:0:
256,192,61862,1,8,0:0:0:0:
256,192,62084,1,0,0:0:0:0:
256,192,62307,1,12,0:0:0:0:
256,192,62640,1,8,0:0:0:0:
256,192,62751,1,0,0:0:0:0:
256,192,62973,1,0,0:0:0:0:
256,192,63084,1,8,0:0:0:0:
256,192,63196,1,0,0:0:0:0:
256,192,63418,1,8,0:0:0:0:
256,192,63640,1,0,0:0:0:0:
256,192,63807,1,8,0:0:0:0:
256,192,63862,1,0,0:0:0:0:
256,192,64084,1,8,0:0:0:0:
256,192,64307,1,8,0:0:0:0:
256,192,64529,1,0,0:0:0:0:
256,192,64640,1,0,0:0:0:0:
256,192,64751,1,8,0:0:0:0:
256,192,64862,1,8,0:0:0:0:
256,192,64973,1,0,0:0:0:0:
256,192,65196,1,8,0:0:0:0:
256,192,65307,1,8,0:0:0:0:
256,192,65418,1,0,0:0:0:0:
256,192,65640,1,8,0:0:0:0:
256,192,65862,1,4,0:0:0:0:
256,192,66084,1,8,0:0:0:0:
256,192,66196,1,8,0:0:0:0:
256,192,66307,1,0,0:0:0:0:
256,192,66529,1,8,0:0:0:0:
256,192,66640,1,8,0:0:0:0:
256,192,66751,1,8,0:0:0:0:
256,192,66862,1,0,0:0:0:0:
256,192,67084,1,0,0:0:0:0:
256,192,67196,1,8,0:0:0:0:
256,192,67418,1,0,0:0:0:0:
256,192,67529,1,0,0:0:0:0:
256,192,67640,1,8,0:0:0:0:
256,192,67751,1,0,0:0:0:0:
256,192,67862,1,8,0:0:0:0:
256,192,68084,1,0,0:0:0:0:
256,192,68307,1,8,0:0:0:0:
256,192,68529,1,8,0:0:0:0:
256,192,68640,1,0,0:0:0:0:
256,192,68751,1,0,0:0:0:0:
256,192,68862,1,0,0:0:0:0:
256,192,68973,1,8,0:0:0:0:
256,192,69418,1,8,0:0:0:0:
256,192,69529,1,0,0:0:0:0:
256,192,69640,1,8,0:0:0:0:
256,192,69862,1,0,0:0:0:0:
256,192,70084,1,8,0:0:0:0:
256,192,70307,1,8,0:0:0:0:
256,192,70418,1,8,0:0:0:0:
256,192,70529,1,0,0:0:0:0:
256,192,70640,1,8,0:0:0:0:
256,192,70751,1,0,0:0:0:0:
256,192,70973,1,0,0:0:0:0:
256,192,71084,1,0,0:0:0:0:
256,192,71196,1,8,0:0:0:0:
256,192,71418,1,8,0:0:0:0:
256,192,71529,1,0,0:0:0:0:
256,192,71640,1,0,0:0:0:0:
256,192,71862,1,8,0:0:0:0:
256,192,71973,1,0,0:0:0:0:
256,192,72084,1,8,0:0:0:0:
256,192,72196,1,8,0:0:0:0:
256,192,72307,1,0,0:0:0:0:
256,192,72418,1,0,0:0:0:0:
256,192,72529,1,8,0:0:0:0:
256,192,72862,1,0,0:0:0:0:
256,192,72973,1,8,0:0:0:0:
256,192,73084,1,0,0:0:0:0:
256,192,73196,1,8,0:0:0:0:
256,192,73418,1,0,0:0:0:0:
256,192,73640,1,8,0:0:0:0:
256,192,73751,1,8,0:0:0:0:
256,192,73862,1,0,0:0:0:0:
256,192,73973,1,8,0:0:0:0:
256,192,74084,1,0,0:0:0:0:
256,192,74196,1,0,0:0:0:0:
256,192,74307,1,8,0:0:0:0:
256,192,74640,1,0,0:0:0:0:
256,192,74751,1,8,0:0:0:0:
256,192,74862,1,8,0:0:0:0:
256,192,74973,1,0,0:0:0:0:
256,192,75196,1,0,0:0:0:0:
256,192,75418,1,8,0:0:0:0:
256,192,75640,1,8,0:0:0:0:
256,192,75751,1,0,0:0:0:0:
256,192,75862,1,0,0:0:0:0:
256,192,75973,1,0,0:0:0:0:
256,192,76084,1,8,0:0:0:0:
256,192,76529,1,0,0:0:0:0:
256,192,76751,1,8,0:0:0:0:
256,192,76862,1,0,0:0:0:0:
256,192,76973,1,8,0:0:0:0:
256,192,77084,1,8,0:0:0:0:
256,192,77196,1,0,0:0:0:0:
256,192,77418,1,0,0:0:0:0:
256,192,77529,1,8,0:0:0:0:
256,192,77640,1,0,0:0:0:0:
256,192,77751,1,0,0:0:0:0:
256,192,77862,1,8,0:0:0:0:
256,192,77973,1,0,0:0:0:0:
256,192,78084,1,8,0:0:0:0:
256,192,78307,1,0,0:0:0:0:
256,192,78529,1,8,0:0:0:0:
256,192,78640,1,8,0:0:0:0:
256,192,78751,1,0,0:0:0:0:
256,192,78862,1,0,0:0:0:0:
256,192,78973,1,8,0:0:0:0:
256,192,79196,1,0,0:0:0:0:
256,192,79307,1,8,0:0:0:0:
256,192,79418,1,8,0:0:0:0:
256,192,79529,1,8,0:0:0:0:
256,192,79640,1,0,0:0:0:0:
256,192,79862,1,8,0:0:0:0:
256,192,80084,1,4,0:0:0:0:
256,192,80381,1,0,0:0:0:0:
256,192,80529,1,8,0:0:0:0:
256,192,80677,1,8,0:0:0:0:
256,192,80825,1,0,0:0:0:0:
256,192,80973,1,8,0:0:0:0:
256,192,81122,1,8,0:0:0:0:
256,192,81270,1,0,0:0:0:0:
256,192,81418,1,8,0:0:0:0:
256,192,81566,1,0,0:0:0:0:
256,192,81714,1,8,0:0:0:0:
256,192,81862,1,8,0:0:0:0:
256,192,82159,1,8,0:0:0:0:
256,192,82307,1,0,0:0:0:0:
256,192,82455,1,0,0:0:0:0:
256,192,82603,1,8,0:0:0:0:
256,192,82751,1,8,0:0:0:0:
256,192,82899,1,0,0:0:0:0:
256,192,83047,1,8,0:0:0:0:
256,192,83196,1,0,0:0:0:0:
256,192,83344,1,8,0:0:0:0:
256,192,83492,1,8,0:0:0:0:
256,192,83640,1,0,0:0:0:0:
256,192,84084,1,0,0:0:0:0:
256,192,84233,1,8,0:0:0:0:
256,192,84381,1,8,0:0:0:0:
256,192,84529,1,0,0:0:0:0:
256,192,84677,1,0,0:0:0:0:
256,192,84825,1,8,0:0:0:0:
256,192,84973,1,8,0:0:0:0:
256,192,85122,1,0,0:0:0:0:
256,192,85270,1,8,0:0:0:0:
256,192,85418,1,0,0:0:0:0:
256,192,85862,1,8,0:0:0:0:
256,192,86010,1,0,0:0:0:0:
256,192,86159,1,0,0:0:0:0:
256,192,86307,1,8,0:0:0:0:
256,192,86455,1,8,0:0:0:0:
256,192,86603,1,0,0:0:0:0:
256,192,86751,1,0,0:0:0:0:
256,192,86825,1,8,0:0:0:0:
256,192,86973,1,0,0:0:0:0:
256,192,87047,1,8,0:0:0:0:
256,192,87196,1,0,0:0:0:0:
256,192,87640,1,0,0:0:0:0:
256,192,87788,1,8,0:0:0:0:
256,192,87936,1,8,0:0:0:0:
256,192,88084,1,0,0:0:0:0:
256,192,88233,1,8,0:0:0:0:
256,192,88381,1,8,0:0:0:0:
256,192,88529,1,0,0:0:0:0:
256,192,88677,1,8,0:0:0:0:
256,192,88825,1,0,0:0:0:0:
256,192,88973,1,0,0:0:0:0:
256,192,89270,1,8,0:0:0:0:
256,192,89418,1,0,0:0:0:0:
256,192,89566,1,8,0:0:0:0:
256,192,89714,1,8,0:0:0:0:
256,192,89862,1,0,0:0:0:0:
256,192,90010,1,0,0:0:0:0:
256,192,90159,1,8,0:0:0:0:
256,192,90307,1,0,0:0:0:0:
256,192,90455,1,0,0:0:0:0:
256,192,90603,1,0,0:0:0:0:
256,192,90751,1,8,0:0:0:0:
256,192,91196,1,0,0:0:0:0:
256,192,91344,1,8,0:0:0:0:
256,192,91492,1,0,0:0:0:0:
256,192,91640,1,8,0:0:0:0:
256,192,91788,1,0,0:0:0:0:
256,192,91936,1,8,0:0:0:0:
256,192,92084,1,8,0:0:0:0:
256,192,92233,1,8,0:0:0:0:
256,192,92381,1,0,0:0:0:0:
256,192,92529,1,8,0:0:0:0:
256,192,92603,1,8,0:0:0:0:
256,192,92677,1,8,0:0:0:0:
256,192,92825,1,0,0:0:0:0:
256,192,92973,1,8,0:0:0:0:
256,192,93047,1,8,0:0:0:0:
256,192,93196,1,8,0:0:0:0:
256,192,93270,1,8,0:0:0:0:
256,192,93418,1,8,0:0:0:0:
256,192,93492,1,8,0:0:0:0:
256,192,93566,1,8,0:0:0:0:
256,192,93714,1,8,0:0:0:0:
256,192,93788,1,8,0:0:0:0:
256,192,93862,8,0,95196,0:0:0:0:
256,192,96084,5,4,0:0:0:0:
256,192,96529,1,8,0:0:0:0:
256,192,96640,1,8,0:0:0:0:
256,192,96751,1,0,0:0:0:0:
256,192,96862,1,8,0:0:0:0:
256,192,96973,1,8,0:0:0:0:
256,192,97084,1,8,0:0:0:0:
256,192,97196,1,0,0:0:0:0:
256,192,97307,1,0,0:0:0:0:
256,192,97418,1,8,0:0:0:0:
256,192,97640,1,0,0:0:0:0:
256,192,97751,1,8,0:0:0:0:
256,192,97862,1,0,0:0:0:0:
256,192,97973,1,0,0:0:0:0:
256,192,98084,1,8,0:0:0:0:
256,192,98196,1,8,0:0:0:0:
256,192,98307,1,0,0:0:0:0:
256,192,98418,1,0,0:0:0:0:
256,192,98529,1,8,0:0:0:0:
256,192,98640,1,8,0:0:0:0:
256,192,98751,1,0,0:0:0:0:
256,192,98973,1,8,0:0:0:0:
256,192,99084,1,8,0:0:0:0:
256,192,99196,1,0,0:0:0:0:
256,192,99307,1,8,0:0:0:0:
256,192,99418,1,0,0:0:0:0:
256,192,99640,1,12,0:0:0:0:
256,192,99862,1,0,0:0:0:0:
256,192,99973,1,0,0:0:0:0:
256,192,100084,1,8,0:0:0:0:
256,192,100196,1,8,0:0:0:0:
256,192,100307,1,0,0:0:0:0:
256,192,100529,1,8,0:0:0:0:
256,192,100640,1,8,0:0:0:0:
256,192,100751,1,0,0:0:0:0:
256,192,100862,1,8,0:0:0:0:
256,192,100973,1,0,0:0:0:0:
256,192,101196,1,8,0:0:0:0:
256,192,101418,1,0,0:0:0:0:
256,192,101529,1,8,0:0:0:0:
256,192,101640,1,8,0:0:0:0:
256,192,101751,1,0,0:0:0:0:
256,192,101862,1,8,0:0:0:0:
256,192,101973,1,8,0:0:0:0:
256,192,102084,1,0,0:0:0:0:
256,192,102196,1,0,0:0:0:0:
256,192,102307,1,8,0:0:0:0:
256,192,102529,1,8,0:0:0:0:
256,192,102751,1,0,0:0:0:0:
256,192,102862,1,8,0:0:0:0:
256,192,102973,1,0,0:0:0:0:
256,192,103196,1,4,0:0:0:0:
256,192,103640,1,8,0:0:0:0:
256,192,103751,1,8,0:0:0:0:
256,192,103862,1,0,0:0:0:0:
256,192,103973,1,0,0:0:0:0:
256,192,104084,1,8,0:0:0:0:
256,192,104196,1,0,0:0:0:0:
256,192,104307,1,8,0:0:0:0:
256,192,104418,1,8,0:0:0:0:
256,192,104529,1,0,0:0:0:0:
256,192,104751,1,0,0:0:0:0:
256,192,104862,1,0,0:0:0:0:
256,192,104973,1,8,0:0:0:0:
256,192,105084,1,8,0:0:0:0:
256,192,105196,1,0,0:0:0:0:
256,192,105307,1,8,0:0:0:0:
256,192,105418,1,0,0:0:0:0:
256,192,105529,1,8,0:0:0:0:
256,192,105640,1,8,0:0:0:0:
256,192,105751,1,0,0:0:0:0:
256,192,105862,1,8,0:0:0:0:
256,192,106084,1,8,0:0:0:0:
256,192,106307,1,0,0:0:0:0:
256,192,106418,1,8,0:0:0:0:
256,192,106751,1,12,0:0:0:0:
256,192,106973,1,0,0:0:0:0:
256,192,107084,1,0,0:0:0:0:
256,192,107196,1,0,0:0:0:0:
256,192,107307,1,8,0:0:0:0:
256,192,107418,1,0,0:0:0:0:
256,192,107640,1,8,0:0:0:0:
256,192,107751,1,8,0:0:0:0:
256,192,107862,1,8,0:0:0:0:
256,192,107973,1,0,0:0:0:0:
256,192,108084,1,8,0:0:0:0:
256,192,108196,1,8,0:0:0:0:
256,192,108307,1,0,0:0:0:0:
256,192,108529,1,4,0:0:0:0:
256,192,108751,1,8,0:0:0:0:
256,192,108862,1,8,0:0:0:0:
256,192,108973,1,0,0:0:0:0:
256,192,109084,1,0,0:0:0:0:
256,192,109196,1,8,0:0:0:0:
256,192,109307,1,0,0:0:0:0:
256,192,109418,1,8,0:0:0:0:
256,192,109529,1,8,0:0:0:0:
256,192,109640,1,0,0:0:0:0:
256,192,109751,1,0,0:0:0:0:
256,192,109862,1,8,0:0:0:0:
256,192,109973,1,8,0:0:0:0:
256,192,110084,1,0,0:0:0:0:
256,192,110196,1,0,0:0:0:0:
256,192,110307,8,0,111196,0:0:0:0:
256,192,111418,5,0,0:0:0:0:
256,192,111566,1,8,0:0:0:0:
256,192,111788,1,0,0:0:0:0:
256,192,111862,1,8,0:0:0:0:
256,192,112084,5,4,0:0:0:0:
256,192,112307,1,8,0:0:0:0:
256,192,112529,1,0,0:0:0:0:
256,192,112640,1,0,0:0:0:0:
256,192,112751,1,8,0:0:0:0:
256,192,112973,1,0,0:0:0:0:
256,192,113084,1,0,0:0:0:0:
256,192,113307,1,8,0:0:0:0:
256,192,113418,1,0,0:0:0:0:
256,192,113640,1,8,0:0:0:0:
256,192,113862,1,0,0:0:0:0:
256,192,114084,1,8,0:0:0:0:
256,192,114307,1,0,0:0:0:0:
256,192,114418,1,0,0:0:0:0:
256,192,114529,1,8,0:0:0:0:
256,192,114751,1,0,0:0:0:0:
256,192,114862,1,0,0:0:0:0:
256,192,115084,1,0,0:0:0:0:
256,192,115196,1,8,0:0:0:0:
256,192,115307,1,0,0:0:0:0:
256,192,115418,1,8,0:0:0:0:
256,192,115529,1,8,0:0:0:0:
256,192,115640,1,0,0:0:0:0:
256,192,115862,1,8,0:0:0:0:
256,192,116084,1,8,0:0:0:0:
256,192,116307,1,0,0:0:0:0:
256,192,116529,1,8,0:0:0:0:
256,192,116640,1,8,0:0:0:0:
256,192,116862,1,0,0:0:0:0:
256,192,116973,1,8,0:0:0:0:
256,192,117196,1,8,0:0:0:0:
256,192,117418,1,0,0:0:0:0:
256,192,117640,1,0,0:0:0:0:
256,192,117751,1,0,0:0:0:0:
256,192,117862,1,8,0:0:0:0:
256,192,118084,1,8,0:0:0:0:
256,192,118307,1,0,0:0:0:0:
256,192,118418,1,0,0:0:0:0:
256,192,118640,1,0,0:0:0:0:
256,192,118751,1,8,0:0:0:0:
256,192,118973,1,8,0:0:0:0:
256,192,119196,1,4,0:0:0:0:
256,192,119640,1,0,0:0:0:0:
256,192,119751,1,0,0:0:0:0:
256,192,119862,1,8,0:0:0:0:
256,192,120084,1,0,0:0:0:0:
256,192,120196,1,0,0:0:0:0:
256,192,120418,1,8,0:0:0:0:
256,192,120529,1,0,0:0:0:0:
256,192,120751,1,8,0:0:0:0:
256,192,120973,1,0,0:0:0:0:
256,192,121196,1,8,0:0:0:0:
256,192,121307,1,8,0:0:0:0:
256,192,121418,1,0,0:0:0:0:
256,192,121529,1,0,0:0:0:0:
256,192,121640,1,8,0:0:0:0:
256,192,121862,1,0,0:0:0:0:
256,192,121973,1,8,0:0:0:0:
256,192,122084,1,0,0:0:0:0:
256,192,122196,1,8,0:0:0:0:
256,192,122307,1,8,0:0:0:0:
256,192,122418,1,0,0:0:0:0:
256,192,122529,1,8,0:0:0:0:
256,192,122640,1,0,0:0:0:0:
256,192,122751,1,8,0:0:0:0:
256,192,122973,1,0,0:0:0:0:
256,192,123196,1,8,0:0:0:0:
256,192,123307,1,8,0:0:0:0:
256,192,123418,1,0,0:0:0:0:
256,192,123640,1,8,0:0:0:0:
256,192,123751,1,8,0:0:0:0:
256,192,123862,1,0,0:0:0:0:
256,192,123973,1,0,0:0:0:0:
256,192,124084,1,8,0:0:0:0:
256,192,124307,1,8,0:0:0:0:
256,192,124529,1,0,0:0:0:0:
256,192,124751,1,8,0:0:0:0:
256,192,124862,1,0,0:0:0:0:
256,192,124973,1,8,0:0:0:0:
256,192,125084,1,8,0:0:0:0:
256,192,125196,1,0,0:0:0:0:
256,192,125307,1,0,0:0:0:0:
256,192,125418,1,8,0:0:0:0:
256,192,125640,1,0,0:0:0:0:
256,192,125751,1,8,0:0:0:0:
256,192,125862,1,8,0:0:0:0:
256,192,126084,1,8,0:0:0:0:
256,192,126307,1,4,0:0:0:0:
256,192,126529,1,8,0:0:0:0:
256,192,126751,1,0,0:0:0:0:
256,192,126862,1,0,0:0:0:0:
256,192,126973,1,8,0:0:0:0:
256,192,127196,1,8,0:0:0:0:
256,192,127307,1,8,0:0:0:0:
256,192,127418,1,8,0:0:0:0:
256,192,127529,1,0,0:0:0:0:
256,192,127640,1,8,0:0:0:0:
256,192,127751,1,0,0:0:0:0:
256,192,127862,1,8,0:0:0:0:
256,192,128084,1,0,0:0:0:0:
256,192,128196,1,8,0:0:0:0:
256,192,128307,1,8,0:0:0:0:
256,192,128418,1,0,0:0:0:0:
256,192,128529,1,8,0:0:0:0:
256,192,128640,1,8,0:0:0:0:
256,192,128751,1,0,0:0:0:0:
256,192,128862,1,0,0:0:0:0:
256,192,128973,1,8,0:0:0:0:
256,192,129196,1,0,0:0:0:0:
256,192,129307,1,8,0:0:0:0:
256,192,129418,1,0,0:0:0:0:
256,192,129529,1,8,0:0:0:0:
256,192,129640,1,8,0:0:0:0:
256,192,129751,1,8,0:0:0:0:
256,192,129862,1,0,0:0:0:0:
256,192,130084,1,8,0:0:0:0:
256,192,130307,1,0,0:0:0:0:
256,192,130418,1,0,0:0:0:0:
256,192,130529,1,8,0:0:0:0:
256,192,130751,1,8,0:0:0:0:
256,192,130862,1,8,0:0:0:0:
256,192,130973,1,8,0:0:0:0:
256,192,131084,1,0,0:0:0:0:
256,192,131196,1,8,0:0:0:0:
256,192,131307,1,0,0:0:0:0:
256,192,131418,1,8,0:0:0:0:
256,192,131640,1,0,0:0:0:0:
256,192,131751,1,8,0:0:0:0:
256,192,131862,1,8,0:0:0:0:
256,192,131973,1,0,0:0:0:0:
256,192,132084,1,0,0:0:0:0:
256,192,132196,1,8,0:0:0:0:
256,192,132307,1,8,0:0:0:0:
256,192,132418,1,0,0:0:0:0:
256,192,132529,1,8,0:0:0:0:
256,192,132751,1,8,0:0:0:0:
256,192,132862,1,8,0:0:0:0:
256,192,132973,1,0,0:0:0:0:
256,192,133084,1,0,0:0:0:0:
256,192,133196,1,8,0:0:0:0:
256,192,133418,1,4,0:0:0:0:
256,192,133640,1,8,0:0:0:0:
256,192,133862,1,0,0:0:0:0:
256,192,133973,1,0,0:0:0:0:
256,192,134084,1,8,0:0:0:0:
256,192,134196,1,0,0:0:0:0:
256,192,134307,1,8,0:0:0:0:
256,192,134418,1,8,0:0:0:0:
256,192,134529,1,0,0:0:0:0:
256,192,134640,1,8,0:0:0:0:
256,192,134751,1,0,0:0:0:0:
256,192,134973,1,8,0:0:0:0:
256,192,135196,1,0,0:0:0:0:
256,192,135307,1,0,0:0:0:0:
256,192,135418,1,8,0:0:0:0:
256,192,135529,1,0,0:0:0:0:
256,192,135640,1,8,0:0:0:0:
256,192,135751,1,8,0:0:0:0:
256,192,135862,1,0,0:0:0:0:
256,192,136084,1,8,0:0:0:0:
256,192,136196,1,0,0:0:0:0:
256,192,136307,1,0,0:0:0:0:
256,192,136418,1,8,0:0:0:0:
256,192,136529,1,8,0:0:0:0:
256,192,136640,1,0,0:0:0:0:
256,192,136751,1,8,0:0:0:0:
256,192,136862,1,0,0:0:0:0:
256,192,136973,1,8,0:0:0:0:
256,192,137196,1,8,0:0:0:0:
256,192,137307,1,8,0:0:0:0:
256,192,137418,1,0,0:0:0:0:
256,192,137529,1,0,0:0:0:0:
256,192,137640,1,8,0:0:0:0:
256,192,137862,1,0,0:0:0:0:
256,192,137973,1,8,0:0:0:0:
256,192,138084,1,8,0:0:0:0:
256,192,138307,1,0,0:0:0:0:
256,192,138418,1,0,0:0:0:0:
256,192,138529,1,8,0:0:0:0:
256,192,138640,1,8,0:0:0:0:
256,192,138751,1,0,0:0:0:0:
256,192,138973,1,8,0:0:0:0:
256,192,139196,1,0,0:0:0:0:
256,192,139307,1,0,0:0:0:0:
256,192,139418,1,8,0:0:0:0:
256,192,139640,1,8,0:0:0:0:
256,192,139751,1,8,0:0:0:0:
256,192,139862,1,0,0:0:0:0:
256,192,139973,1,8,0:0:0:0:
256,192,140084,1,0,0:0:0:0:
256,192,140196,1,8,0:0:0:0:
256,192,140307,8,0,141418,0:0:0:0:
256,192,142307,5,12,0:0:0:0:
256,192,142751,1,8,0:0:0:0:
256,192,142862,1,8,0:0:0:0:
256,192,142973,1,0,0:0:0:0:
256,192,143084,1,0,0:0:0:0:
256,192,143196,1,8,0:0:0:0:
256,192,143307,1,8,0:0:0:0:
256,192,143418,1,8,0:0:0:0:
256,192,143529,1,0,0:0:0:0:
256,192,143640,1,8,0:0:0:0:
256,192,143751,1,8,0:0:0:0:
256,192,143862,1,0,0:0:0:0:
256,192,143973,1,8,0:0:0:0:
256,192,144084,1,0,0:0:0:0:
256,192,144196,1,8,0:0:0:0:
256,192,144307,1,8,0:0:0:0:
256,192,144418,1,0,0:0:0:0:
256,192,144529,1,8,0:0:0:0:
256,192,144640,1,0,0:0:0:0:
256,192,144751,1,8,0:0:0:0:
256,192,144862,1,8,0:0:0:0:
256,192,144973,1,8,0:0:0:0:
256,192,145084,1,0,0:0:0:0:
256,192,145196,1,8,0:0:0:0:
256,192,145307,1,8,0:0:0:0:
256,192,145418,1,0,0:0:0:0:
256,192,145529,1,8,0:0:0:0:
256,192,145640,1,8,0:0:0:0:
256,192,145751,1,8,0:0:0:0:
256,192,145862,1,4,0:0:0:0:
256,192,146084,1,0,0:0:0:0:
256,192,146195,1,0,0:0:0:0:
256,192,146307,1,8,0:0:0:0:
256,192,146418,1,0,0:0:0:0:
256,192,146529,1,0,0:0:0:0:
256,192,146640,1,0,0:0:0:0:
256,192,146751,1,8,0:0:0:0:
256,192,146862,1,8,0:0:0:0:
256,192,146973,1,0,0:0:0:0:
256,192,147084,1,8,0:0:0:0:
256,192,147196,1,0,0:0:0:0:
256,192,147307,1,0,0:0:0:0:
256,192,147418,1,8,0:0:0:0:
256,192,147529,1,0,0:0:0:0:
256,192,147640,1,8,0:0:0:0:
256,192,147751,1,8,0:0:0:0:
256,192,147862,1,8,0:0:0:0:
256,192,147973,1,0,0:0:0:0:
256,192,148084,1,8,0:0:0:0:
256,192,148196,1,0,0:0:0:0:
256,192,148307,1,8,0:0:0:0:
256,192,148418,1,8,0:0:0:0:
256,192,148529,1,0,0:0:0:0:
256,192,148751,1,8,0:0:0:0:
256,192,148973,1,0,0:0:0:0:
256,192,149084,1,8,0:0:0:0:
256,192,149196,1,0,0:0:0:0:
256,192,149418,1,12,0:0:0:0:
256,192,149862,1,8,0:0:0:0:
256,192,149973,1,8,0:0:0:0:
256,192,150084,1,0,0:0:0:0:
256,192,150195,1,0,0:0:0:0:
256,192,150307,1,8,0:0:0:0:
256,192,150418,1,8,0:0:0:0:
256,192,150529,1,8,0:0:0:0:
256,192,150640,1,0,0:0:0:0:
256,192,150751,1,8,0:0:0:0:
256,192,150862,1,0,0:0:0:0:
256,192,150973,1,0,0:0:0:0:
256,192,151084,1,0,0:0:0:0:
256,192,151196,1,8,0:0:0:0:
256,192,151307,1,8,0:0:0:0:
256,192,151418,1,0,0:0:0:0:
256,192,151529,1,8,0:0:0:0:
256,192,151640,1,0,0:0:0:0:
256,192,151751,1,8,0:0:0:0:
256,192,151862,1,8,0:0:0:0:
256,192,151973,1,0,0:0:0:0:
256,192,152084,1,8,0:0:0:0:
256,192,152196,1,0,0:0:0:0:
256,192,152307,1,8,0:0:0:0:
256,192,152418,1,8,0:0:0:0:
256,192,152529,1,0,0:0:0:0:
256,192,152640,1,8,0:0:0:0:
256,192,152751,1,8,0:0:0:0:
256,192,152862,1,8,0:0:0:0:
256,192,152973,1,4,0:0:0:0:
256,192,153196,1,0,0:0:0:0:
256,192,153307,1,0,0:0:0:0:
256,192,153418,1,0,0:0:0:0:
256,192,153529,1,8,0:0:0:0:
256,192,153640,1,0,0:0:0:0:
256,192,153751,1,0,0:0:0:0:
256,192,153862,1,8,0:0:0:0:
256,192,153973,1,8,0:0:0:0:
256,192,154084,1,0,0:0:0:0:
256,192,154196,1,8,0:0:0:0:
256,192,154307,1,8,0:0:0:0:
256,192,154418,1,8,0:0:0:0:
256,192,154529,1,0,0:0:0:0:
256,192,154751,1,4,0:0:0:0:
256,192,154973,1,8,0:0:0:0:
256,192,155084,1,8,0:0:0:0:
256,192,155196,1,0,0:0:0:0:
256,192,155307,1,0,0:0:0:0:
256,192,155418,1,8,0:0:0:0:
256,192,155529,1,8,0:0:0:0:
256,192,155640,1,0,0:0:0:0:
256,192,155751,1,8,0:0:0:0:
256,192,155862,1,0,0:0:0:0:
256,192,155973,1,0,0:0:0:0:
256,192,156084,1,8,0:0:0:0:
256,192,156196,1,8,0:0:0:0:
256,192,156307,1,0,0:0:0:0:
256,192,156418,1,0,0:0:0:0:
256,192,156529,1,12,0:0:0:0:
256,192,156862,1,8,0:0:0:0:
256,192,156973,1,0,0:0:0:0:
256,192,157196,1,8,0:0:0:0:
256,192,157418,1,0,0:0:0:0:
256,192,157529,1,0,0:0:0:0:
256,192,157640,1,8,0:0:0:0:
256,192,157751,1,8,0:0:0:0:
256,192,157862,1,0,0:0:0:0:
256,192,158084,1,8,0:0:0:0:
256,192,158307,1,0,0:0:0:0:
256,192,158529,1,0,0:0:0:0:
256,192,158640,1,0,0:0:0:0:
256,192,158751,1,8,0:0:0:0:
256,192,158862,1,0,0:0:0:0:
256,192,158973,1,8,0:0:0:0:
256,192,159084,1,0,0:0:0:0:
256,192,159196,1,8,0:0:0:0:
256,192,159307,1,8,0:0:0:0:
256,192,159418,1,0,0:0:0:0:
256,192,159529,1,8,0:0:0:0:
256,192,159640,1,0,0:0:0:0:
256,192,159751,1,0,0:0:0:0:
256,192,159862,1,0,0:0:0:0:
256,192,159973,1,0,0:0:0:0:
256,192,160084,1,12,0:0:0:0:
256,192,160418,1,8,0:0:0:0:
256,192,160529,1,0,0:0:0:0:
256,192,160751,1,8,0:0:0:0:
256,192,160973,1,0,0:0:0:0:
256,192,161084,1,0,0:0:0:0:
256,192,161196,1,8,0:0:0:0:
256,192,161307,1,8,0:0:0:0:
256,192,161418,1,0,0:0:0:0:
256,192,161640,1,8,0:0:0:0:
256,192,161862,1,0,0:0:0:0:
256,192,162084,1,0,0:0:0:0:
256,192,162196,1,0,0:0:0:0:
256,192,162307,1,8,0:0:0:0:
256,192,162418,1,0,0:0:0:0:
256,192,162529,1,0,0:0:0:0:
256,192,162640,1,8,0:0:0:0:
256,192,162751,1,0,0:0:0:0:
256,192,162862,1,8,0:0:0:0:
256,192,162973,1,8,0:0:0:0:
256,192,163084,1,0,0:0:0:0:
256,192,163196,1,8,0:0:0:0:
256,192,163307,1,8,0:0:0:0:
256,192,163418,1,8,0:0:0:0:
256,192,163529,1,8,0:0:0:0:
256,192,163640,1,4,0:0:0:0:
256,192,163973,1,8,0:0:0:0:
256,192,164084,1,0,0:0:0:0:
256,192,164307,1,8,0:0:0:0:
256,192,164529,1,0,0:0:0:0:
256,192,164640,1,8,0:0:0:0:
256,192,164751,1,0,0:0:0:0:
256,192,164862,1,0,0:0:0:0:
256,192,164973,1,8,0:0:0:0:
256,192,165196,1,8,0:0:0:0:
256,192,165418,1,0,0:0:0:0:
256,192,165640,1,0,0:0:0:0:
256,192,165751,1,0,0:0:0:0:
256,192,165862,1,8,0:0:0:0:
256,192,165973,1,0,0:0:0:0:
256,192,166084,1,8,0:0:0:0:
256,192,166196,1,0,0:0:0:0:
256,192,166307,1,8,0:0:0:0:
256,192,166418,1,8,0:0:0:0:
256,192,166529,1,0,0:0:0:0:
256,192,166640,1,0,0:0:0:0:
256,192,166751,1,8,0:0:0:0:
256,192,166862,1,8,0:0:0:0:
256,192,166973,1,8,0:0:0:0:
256,192,167084,1,8,0:0:0:0:
256,192,167196,1,4,0:0:0:0:
256,192,167529,1,0,0:0:0:0:
256,192,167640,1,8,0:0:0:0:
256,192,167862,1,8,0:0:0:0:
256,192,167973,1,0,0:0:0:0:
256,192,168084,1,0,0:0:0:0:
256,192,168196,1,0,0:0:0:0:
256,192,168307,1,8,0:0:0:0:
256,192,168418,1,8,0:0:0:0:
256,192,168529,1,0,0:0:0:0:
256,192,168751,1,8,0:0:0:0:
256,192,168973,1,0,0:0:0:0:
256,192,169196,1,0,0:0:0:0:
256,192,169307,1,0,0:0:0:0:
256,192,169418,1,8,0:0:0:0:
256,192,169529,1,0,0:0:0:0:
256,192,169640,1,0,0:0:0:0:
256,192,169751,1,8,0:0:0:0:
256,192,169862,1,8,0:0:0:0:
256,192,169973,1,0,0:0:0:0:
256,192,170084,1,8,0:0:0:0:
256,192,170196,1,8,0:0:0:0:
256,192,170307,1,0,0:0:0:0:
256,192,170418,1,0,0:0:0:0:
256,192,170529,1,8,0:0:0:0:
256,192,170640,1,8,0:0:0:0:
256,192,170751,1,0,0:0:0:0:
