osu file format v14

[General]
AudioFilename: audio.mp3
AudioLeadIn: 0
PreviewTime: 65466
Countdown: 0
SampleSet: Normal
StackLeniency: 0.7
Mode: 1
LetterboxInBreaks: 0
WidescreenStoryboard: 1

[Editor]
DistanceSpacing: 0.1
BeatDivisor: 4
GridSize: 32
TimelineZoom: 1.7

[Metadata]
Title:Ahoy!! Warera Houshou Kaizokudan*
TitleUnicode:Ahoy!! 我ら宝鐘海賊団☆
Artist:Houshou Marine
ArtistUnicode:宝鐘マリン
Creator:X a v y
Version:Pirate Oni
Source:
Tags:hololive vtuber virtual youtuber まろん maron third generation 3rd gen 三期生 兎田ぺこら usada pekora 潤羽るしあ uruha rushia 不知火フレア shiranui flare 白銀ノエル shirogane noel cover corporation japanese electronic ARM IOSYS jpop j-pop pop full version ver. fantasy ホロライブファンタジー ホロライブ バーチャル youtuber xavy
BeatmapID:2786709
BeatmapSetID:1282787

[Difficulty]
HPDrainRate:6
CircleSize:5
OverallDifficulty:6
ApproachRate:5
SliderMultiplier:1.4
SliderTickRate:1

[Events]
//Background and Video events
0,0,"BG.jpg",0,90
//Break Periods
//Storyboard Layer 0 (Background)
//Storyboard Layer 1 (Fail)
//Storyboard Layer 2 (Pass)
//Storyboard Layer 3 (Foreground)
//Storyboard Layer 4 (Overlay)
//Storyboard Sound Samples

[TimingPoints]
-180,352.941176470588,4,1,0,70,1,8
525,-90.9090909090909,4,1,0,70,0,8
596,-91.743119266055,4,1,0,70,0,8
667,-92.5925925925926,4,1,0,70,0,8
737,-93.4579439252336,4,1,0,70,0,8
808,-94.3396226415094,4,1,0,70,0,8
878,-95.2380952380952,4,1,0,70,0,8
1231,352.941176470588,4,1,0,70,1,0
1231,-86.9565217391304,4,1,0,70,0,0
1319,-87.719298245614,4,1,0,70,0,0
1407,-88.4955752212389,4,1,0,70,0,0
1495,-89.2857142857143,4,1,0,70,0,0
1583,-90.0900900900901,4,1,0,70,0,0
1672,-90.9090909090909,4,1,0,70,0,0
1760,-91.743119266055,4,1,0,70,0,0
1848,-92.5925925925926,4,1,0,70,0,0
1936,-93.4579439252336,4,1,0,70,0,0
2025,-94.3396226415094,4,1,0,70,0,0
2113,-95.2380952380952,4,1,0,70,0,0
2201,-96.1538461538461,4,1,0,70,0,0
2289,-97.0873786407767,4,1,0,70,0,0
2378,-98.0392156862745,4,1,0,70,0,0
2466,-99.009900990099,4,1,0,70,0,0
2554,-100,4,1,0,70,0,0
2642,-90.9090909090909,4,1,0,70,0,0
2730,-91.743119266055,4,1,0,70,0,0
2819,-92.5925925925926,4,1,0,70,0,0
2907,-93.4579439252336,4,1,0,70,0,0
2995,-94.3396226415094,4,1,0,70,0,0
3083,-95.2380952380952,4,1,0,70,0,0
3172,-96.1538461538461,4,1,0,70,0,0
3260,-97.0873786407767,4,1,0,70,0,0
3348,-98.0392156862745,4,1,0,70,0,0
3436,-99.009900990099,4,1,0,70,0,0
3525,-100,4,1,0,70,0,0
3613,-101.010101010101,4,1,0,70,0,0
3701,-102.040816326531,4,1,0,70,0,0
3789,-103.092783505155,4,1,0,70,0,0
3878,-104.166666666667,4,1,0,70,0,0
3966,-105.263157894737,4,1,0,70,0,0
4054,-95.2380952380952,4,1,0,70,0,0
4142,-96.1538461538461,4,1,0,70,0,0
4230,-97.0873786407767,4,1,0,70,0,0
4319,-98.0392156862745,4,1,0,70,0,0
4407,-99.009900990099,4,1,0,70,0,0
4495,-100,4,1,0,70,0,0
4583,-101.010101010101,4,1,0,70,0,0
4672,-102.040816326531,4,1,0,70,0,0
4760,-103.092783505155,4,1,0,70,0,0
4848,-104.166666666667,4,1,0,70,0,0
4936,-105.263157894737,4,1,0,70,0,0
5025,-106.382978723404,4,1,0,70,0,0
5113,-107.52688172043,4,1,0,70,0,0
5201,-108.695652173913,4,1,0,70,0,0
5289,-109.89010989011,4,1,0,70,0,0
5378,-111.111111111111,4,1,0,70,0,0
5466,-112.359550561798,4,1,0,70,0,0
5819,-86.9565217391304,4,1,0,70,0,0
6172,-83.3333333333333,4,1,0,70,0,0
6525,-80,4,1,0,70,0,0
6878,-76.9230769230769,4,1,0,60,0,1
7054,-100,4,1,0,60,0,1
7583,-90.9090909090909,4,1,0,60,0,1
7936,-83.3333333333333,4,1,0,60,0,1
8289,-100,4,1,0,60,0,1
8995,-90.9090909090909,4,1,0,60,0,1
9348,-83.3333333333333,4,1,0,60,0,1
9701,-100,4,1,0,60,0,1
10054,-90.9090909090909,4,1,0,60,0,1
10289,-100,4,1,0,60,0,1
10760,-90.9090909090909,4,1,0,60,0,1
10995,-100,4,1,0,60,0,1
11466,-90.9090909090909,4,1,0,60,0,1
11701,-100,4,1,0,60,0,1
12172,-90.9090909090909,4,1,0,60,0,1
12407,-100,4,1,0,60,0,1
13936,-100,4,1,0,60,0,0
16760,-90.9090909090909,4,1,0,60,0,0
17995,-100,4,1,0,60,0,0
18878,-90.9090909090909,4,1,0,60,0,0
19583,-100,4,1,0,70,0,1
28054,-100,4,1,0,70,0,0
40760,-95.2380952380952,4,1,0,70,0,0
41025,-88.8888888888889,4,1,0,60,0,0
41289,-85.1063829787234,4,1,0,60,0,0
41466,-83.3333333333333,4,1,0,60,0,0
41819,-100,4,1,0,60,0,0
56466,-102.564102564103,4,1,0,60,0,0
56554,-103.896103896104,4,1,0,60,0,0
56642,-105.263157894737,4,1,0,60,0,0
56819,-108.108108108108,4,1,0,60,0,0
56995,-111.111111111111,4,1,0,60,0,0
57348,-117.647058823529,4,1,0,50,0,0
57701,-125,4,1,0,40,0,0
60436,-125,4,1,0,70,0,0
60612,-125,4,1,0,40,0,0
63701,-121.212121212121,4,1,0,40,0,0
64054,-117.647058823529,4,1,0,40,0,0
64760,-111.731843575419,4,1,0,40,0,0
64848,-111.111111111111,4,1,0,40,0,0
65025,-110.236220472441,4,1,0,40,0,0
65113,-109.375,4,1,0,50,0,0
65201,-108.527131782946,4,1,0,50,0,0
65289,-107.692307692308,4,1,0,50,0,0
65378,-106.870229007634,4,1,0,50,0,0
65466,-106.060606060606,4,1,0,60,0,0
65554,-105.263157894737,4,1,0,60,0,0
65642,-104.477611940299,4,1,0,60,0,0
65730,-103.703703703704,4,1,0,60,0,0
65819,-102.941176470588,4,1,0,70,0,0
65907,-102.189781021898,4,1,0,70,0,0
65995,-101.449275362319,4,1,0,70,0,0
66083,-100.719424460432,4,1,0,70,0,0
66172,-100,4,1,0,80,0,1
76054,-100,4,1,0,80,0,0
76936,-83.3333333333333,4,1,0,80,0,0
77466,-100,4,1,0,80,0,1
91583,-100,4,1,0,60,0,0
128466,-102.564102564103,4,1,0,60,0,0
128554,-103.896103896104,4,1,0,60,0,0
128642,-105.263157894737,4,1,0,60,0,0
128819,-108.108108108108,4,1,0,60,0,0
128995,-111.111111111111,4,1,0,60,0,0
129348,-117.647058823529,4,1,0,50,0,0
129701,-125,4,1,0,40,0,0
132436,-125,4,1,0,70,0,0
132612,-125,4,1,0,40,0,0
135701,-121.212121212121,4,1,0,40,0,0
136054,-117.647058823529,4,1,0,40,0,0
136760,-111.111111111111,4,1,0,40,0,0
136848,-110.344827586207,4,1,0,40,0,0
136936,-109.58904109589,4,1,0,40,0,0
137025,-108.843537414966,4,1,0,40,0,0
137113,-108.108108108108,4,1,0,50,0,0
137201,-107.38255033557,4,1,0,50,0,0
137289,-106.666666666667,4,1,0,50,0,0
137378,-105.960264900662,4,1,0,50,0,0
137466,-105.263157894737,4,1,0,60,0,0
137554,-104.575163398693,4,1,0,60,0,0
137642,-103.896103896104,4,1,0,60,0,0
137730,-103.225806451613,4,1,0,60,0,0
137819,-102.564102564103,4,1,0,70,0,0
137907,-101.910828025478,4,1,0,70,0,0
137995,-101.26582278481,4,1,0,70,0,0
138083,-100.62893081761,4,1,0,70,0,0
138172,-100,4,1,0,80,0,1
148054,-100,4,1,0,80,0,0
148936,-83.3333333333333,4,1,0,80,0,0
149466,-100,4,1,0,80,0,1
163583,-100,4,1,0,60,0,0
171701,-100,4,1,0,70,0,0
172054,-100,4,1,0,80,0,0
174878,-100,4,1,0,80,0,1
184760,-90.9090909090909,4,1,0,80,0,1
184995,-100,4,1,0,80,0,1
185466,-90.9090909090909,4,1,0,80,0,1
185819,-86.9565217391304,4,1,0,80,0,1
186172,-83.3333333333333,4,1,0,80,0,1
186407,-100,4,1,0,80,0,1
210172,-80,4,1,0,80,0,1
210525,-83.3333333333333,4,1,0,80,0,1
210878,-86.9565217391304,4,1,0,80,0,1
211230,-90.9090909090909,4,1,0,80,0,1
211583,-100,4,1,0,80,0,1
212995,-80,4,1,0,80,0,1
213348,-83.3333333333333,4,1,0,80,0,1
213701,-86.9565217391304,4,1,0,80,0,1
214054,-90.9090909090909,4,1,0,80,0,1
214407,-100,4,1,0,80,0,1
215819,-80,4,1,0,80,0,1
216172,-83.3333333333333,4,1,0,80,0,1
216525,-86.9565217391304,4,1,0,80,0,1
216878,-90.9090909090909,4,1,0,80,0,1
217230,-100,4,1,0,80,0,1
218642,-80,4,1,0,80,0,1
218995,-83.3333333333333,4,1,0,80,0,1
219348,-86.9565217391304,4,1,0,80,0,1
219701,-90.9090909090909,4,1,0,80,0,1
220054,-100,4,1,0,80,0,1
225701,-83.3333333333333,4,1,0,80,0,1
225878,-100,4,1,0,80,0,1
227113,-83.3333333333333,4,1,0,80,0,1
227289,-100,4,1,0,80,0,1
228525,-83.3333333333333,4,1,0,80,0,1
228701,-100,4,1,0,80,0,1
229230,-86.9565217391304,4,1,0,80,0,1
229407,-100,4,1,0,80,0,1
229936,-90.9090909090909,4,1,0,80,0,1
230113,-100,4,1,0,80,0,1
231348,-76.9230769230769,4,1,0,90,0,0
231436,-50,4,1,0,30,0,0
232760,-125,4,1,0,30,0,0
242642,-83.3333333333333,4,1,0,30,0,0
244054,-125,4,1,0,50,0,0
245642,-124.756335282651,4,1,0,50,0,0
245819,-124.513618677043,4,1,0,50,0,0
245995,-124.271844660194,4,1,0,50,0,0
246172,-124.031007751938,4,1,0,50,0,0
246348,-123.791102514507,4,1,0,50,0,0
246525,-123.552123552124,4,1,0,50,0,0
246701,-123.314065510597,4,1,0,50,0,0
246878,-123.076923076923,4,1,0,50,0,0
247054,-122.840690978887,4,1,0,50,0,0
247230,-122.605363984674,4,1,0,50,0,0
247407,-122.370936902486,4,1,0,50,0,0
247583,-122.137404580153,4,1,0,50,0,0
247760,-121.904761904762,4,1,0,50,0,0
247936,-121.673003802281,4,1,0,50,0,0
248113,-121.442125237192,4,1,0,50,0,0
248289,-121.212121212121,4,1,0,50,0,0
248466,-120.982986767486,4,1,0,50,0,0
248642,-120.754716981132,4,1,0,50,0,0
248819,-120.527306967985,4,1,0,50,0,0
248995,-120.300751879699,4,1,0,50,0,0
249172,-120.075046904315,4,1,0,50,0,0
249348,-119.850187265918,4,1,0,50,0,0
249525,-119.626168224299,4,1,0,50,0,0
249701,-119.402985074627,4,1,0,50,0,0
249878,-119.180633147114,4,1,0,50,0,0
250054,-118.959107806691,4,1,0,50,0,0
250230,-118.73840445269,4,1,0,50,0,0
250407,-118.518518518519,4,1,0,50,0,0
250583,-118.299445471349,4,1,0,50,0,0
250760,-118.081180811808,4,1,0,50,0,0
250936,-117.863720073665,4,1,0,50,0,0
251113,-117.647058823529,4,1,0,60,0,0
251289,-117.216117216117,4,1,0,60,0,0
251466,-116.788321167883,4,1,0,60,0,0
251642,-116.363636363636,4,1,0,60,0,0
251819,-115.942028985507,4,1,0,60,0,0
251995,-115.523465703971,4,1,0,60,0,0
252172,-115.107913669065,4,1,0,60,0,0
252348,-114.695340501792,4,1,0,60,0,0
252525,-114.285714285714,4,1,0,60,0,0
252701,-113.879003558719,4,1,0,60,0,0
252878,-113.475177304965,4,1,0,60,0,0
253054,-113.074204946996,4,1,0,60,0,0
253230,-112.676056338028,4,1,0,60,0,0
253407,-112.280701754386,4,1,0,60,0,0
253583,-111.888111888112,4,1,0,60,0,0
253760,-111.498257839721,4,1,0,60,0,0
253936,-111.111111111111,4,1,0,70,0,0
254113,-110.590440487348,4,1,0,70,0,0
254289,-110.074626865672,4,1,0,70,0,0
254466,-109.563602599814,4,1,0,70,0,0
254642,-109.0573012939,4,1,0,70,0,0
254819,-108.555657773689,4,1,0,70,0,0
254995,-108.058608058608,4,1,0,70,0,0
255172,-107.566089334549,4,1,0,70,0,0
255348,-107.078039927405,4,1,0,80,0,0
255436,-106.594399277326,4,1,0,80,0,0
255525,-106.115107913669,4,1,0,80,0,0
255613,-105.640107430618,4,1,0,80,0,0
255701,-105.169340463458,4,1,0,80,0,0
255789,-104.702750665484,4,1,0,80,0,0
255878,-104.240282685512,4,1,0,80,0,0
255966,-103.781882145998,4,1,0,80,0,0
256054,-103.327495621716,4,1,0,80,0,0
256142,-102.877070619006,4,1,0,80,0,0
256230,-102.430555555556,4,1,0,80,0,0
256319,-101.987899740709,4,1,0,80,0,0
256407,-101.549053356282,4,1,0,80,0,0
256495,-101.113967437875,4,1,0,80,0,0
256583,-100.682593856655,4,1,0,80,0,0
256672,-100.254885301614,4,1,0,80,0,0
256760,-99.8307952622673,4,1,0,70,0,0
256848,-99.4102780117944,4,1,0,70,0,0
256936,-98.993288590604,4,1,0,70,0,0
257025,-98.5797827903091,4,1,0,70,0,0
257113,-98.1697171381032,4,1,0,70,0,0
257201,-97.7630488815244,4,1,0,70,0,0
257289,-97.3597359735974,4,1,0,70,0,0
257378,-96.9597370583402,4,1,0,70,0,0
257466,-96.5630114566285,4,1,0,70,0,0
257554,-96.1695191524042,4,1,0,70,0,0
257642,-95.7792207792208,4,1,0,70,0,0
257730,-95.392077607114,4,1,0,70,0,0
257819,-95.0080515297907,4,1,0,70,0,0
257907,-94.6271050521251,4,1,0,70,0,0
257995,-94.2492012779553,4,1,0,70,0,0
258083,-93.8743038981703,4,1,0,70,0,0
258172,-93.5023771790808,4,1,0,70,0,0
258260,-93.1333859510655,4,1,0,70,0,0
258348,-92.7672955974843,4,1,0,70,0,0
258436,-92.4040720438528,4,1,0,70,0,0
258525,-92.0436817472699,4,1,0,70,0,0
258613,-91.6860916860917,4,1,0,70,0,0
258701,-91.3312693498452,4,1,0,70,0,0
258789,-90.9791827293755,4,1,0,70,0,0
258878,-90.6298003072197,4,1,0,70,0,0
258936,-90.283091048202,4,1,0,70,0,0
258995,-89.9390243902439,4,1,0,70,0,0
259054,-89.5975702353834,4,1,0,70,0,0
259142,-89.2586989409985,4,1,0,70,0,0
259230,-88.9223813112283,4,1,0,70,0,0
259289,-88.5885885885886,4,1,0,70,0,0
259348,-88.2572924457741,4,1,0,70,0,0
259407,-87.9284649776453,4,1,0,70,0,0
259495,-87.6020786933927,4,1,0,70,0,0
259583,-87.2781065088758,4,1,0,70,0,0
260819,-86.9565217391304,4,1,0,50,0,0
260995,-111.111111111111,4,1,0,70,0,0
261083,-110.344827586207,4,1,0,70,0,0
261172,-109.58904109589,4,1,0,70,0,0
261260,-108.843537414966,4,1,0,70,0,0
261348,-108.108108108108,4,1,0,70,0,0
261436,-107.38255033557,4,1,0,70,0,0
261525,-106.666666666667,4,1,0,70,0,0
261613,-105.960264900662,4,1,0,70,0,0
261701,-105.263157894737,4,1,0,80,0,0
261789,-104.575163398693,4,1,0,80,0,0
261878,-103.896103896104,4,1,0,80,0,0
261966,-103.225806451613,4,1,0,80,0,0
262054,-102.564102564103,4,1,0,80,0,0
262142,-101.910828025478,4,1,0,80,0,0
262230,-101.26582278481,4,1,0,80,0,0
262319,-100.62893081761,4,1,0,80,0,0
262407,-100,4,1,0,90,0,1
272289,-100,4,1,0,90,0,0
273172,-83.3333333333333,4,1,0,90,0,0
273701,-100,4,1,0,90,0,1
287819,-100,4,1,0,70,0,0
289407,-99.2167101827676,4,1,0,70,0,0
289583,-98.4455958549223,4,1,0,70,0,0
289760,-97.6863753213368,4,1,0,70,0,0
289848,-96.9387755102041,4,1,0,70,0,0
289936,-96.2025316455696,4,1,0,70,0,0
290113,-95.4773869346734,4,1,0,70,0,0
290201,-94.7630922693267,4,1,0,70,0,0
290289,-94.0594059405941,4,1,0,80,0,0
290466,-93.3660933660934,4,1,0,80,0,0
290642,-92.6829268292683,4,1,0,90,0,1
290819,-92.0096852300242,4,1,0,90,0,1
290995,-91.3461538461538,4,1,0,90,0,1
291172,-90.6921241050119,4,1,0,90,0,1
291348,-90.0473933649289,4,1,0,90,0,1
291525,-89.4117647058823,4,1,0,90,0,1
291701,-88.785046728972,4,1,0,90,0,1
291878,-88.1670533642691,4,1,0,90,0,1
292054,-87.5576036866359,4,1,0,90,0,1
292142,-86.9565217391304,4,1,0,90,0,1
292230,-86.3636363636364,4,1,0,90,0,1
292319,-85.7787810383747,4,1,0,90,0,1
292407,-85.2017937219731,4,1,0,90,0,1
292495,-84.6325167037862,4,1,0,90,0,1
292583,-84.070796460177,4,1,0,90,0,1
292672,-83.5164835164835,4,1,0,90,0,1
292760,-82.9694323144105,4,1,0,90,0,1
292819,-82.4295010845987,4,1,0,90,0,1
292878,-81.8965517241379,4,1,0,90,0,1
292936,-81.3704496788009,4,1,0,90,0,1
293025,-80.596413459601,4,1,0,90,0,1
293113,-79.8319327731092,4,1,0,90,0,1
293172,-79.3319415448852,4,1,0,90,0,1
293230,-78.8381742738589,4,1,0,90,0,1
293289,-78.3505154639175,4,1,0,90,0,1
293378,-77.6307107091565,4,1,0,90,0,1
293466,-76.9230769230769,4,1,0,90,0,0
293936,-75.187969924812,4,1,0,90,0,0
294054,-73.5294117647059,4,1,0,90,0,0
294172,-71.4285714285714,4,1,0,90,0,0
294525,-76.9230769230769,4,1,0,90,0,0
294642,-75.187969924812,4,1,0,90,0,0
294760,-73.5294117647059,4,1,0,90,0,0
294878,-71.4285714285714,4,1,0,90,0,0
295230,-76.9230769230769,4,1,0,90,0,0
295348,-75.187969924812,4,1,0,90,0,0
295466,-73.5294117647059,4,1,0,90,0,0
295583,-71.4285714285714,4,1,0,90,0,0
295936,-66.6666666666667,4,1,0,90,0,0
297701,-80,4,1,0,90,0,0
300525,-80,4,1,0,40,0,0

[HitObjects]
256,192,525,5,8,1:0:0:0:
256,192,596,1,8,1:0:0:0:
256,192,667,1,0,1:0:0:0:
256,192,737,1,0,1:0:0:0:
256,192,808,1,0,1:0:0:0:
256,192,878,1,8,1:0:0:0:
256,192,1231,1,0,1:0:0:0:
256,192,1319,1,8,1:0:0:0:
256,192,1407,1,8,1:0:0:0:
256,192,1495,1,0,1:0:0:0:
256,192,1583,1,8,1:0:0:0:
256,192,1760,1,0,1:0:0:0:
256,192,1936,1,8,1:0:0:0:
256,192,2113,1,8,1:0:0:0:
256,192,2289,1,0,1:0:0:0:
256,192,2466,1,8,1:0:0:0:
256,192,2642,1,0,1:0:0:0:
256,192,2730,1,0,1:0:0:0:
256,192,2819,1,8,1:0:0:0:
256,192,2907,1,0,1:0:0:0:
256,192,2995,1,8,1:0:0:0:
256,192,3172,1,0,1:0:0:0:
256,192,3348,1,8,1:0:0:0:
256,192,3525,1,8,1:0:0:0:
256,192,3701,1,8,1:0:0:0:
256,192,3878,1,0,1:0:0:0:
256,192,4054,1,0,1:0:0:0:
256,192,4142,1,8,1:0:0:0:
256,192,4230,1,0,1:0:0:0:
256,192,4319,1,0,1:0:0:0:
256,192,4407,1,8,1:0:0:0:
256,192,4583,1,0,1:0:0:0:
256,192,4760,1,8,1:0:0:0:
256,192,4936,1,8,1:0:0:0:
256,192,5113,1,0,1:0:0:0:
256,192,5289,1,0,1:0:0:0:
256,192,5466,1,8,1:0:0:0:
256,192,5819,1,12,1:0:0:0:
256,192,6172,1,12,1:0:0:0:
256,192,6525,1,4,1:0:0:0:
256,192,6878,1,12,1:0:0:0:
256,192,7113,1,0,1:0:0:0:
256,192,7230,1,0,1:0:0:0:
256,192,7348,1,8,1:0:0:0:
256,192,7466,1,8,1:0:0:0:
256,192,7583,1,4,1:0:0:0:
256,192,7936,1,4,1:0:0:0:
256,192,8289,1,0,1:0:0:0:
256,192,8407,1,0,1:0:0:0:
256,192,8525,1,0,1:0:0:0:
256,192,8642,1,8,1:0:0:0:
256,192,8760,1,0,1:0:0:0:
256,192,8878,1,8,1:0:0:0:
256,192,8995,1,4,1:0:0:0:
256,192,9348,1,4,1:0:0:0:
256,192,9701,1,8,1:0:0:0:
256,192,10054,1,12,1:0:0:0:
256,192,10289,1,0,1:0:0:0:
256,192,10407,1,0,1:0:0:0:
256,192,10760,1,12,1:0:0:0:
256,192,10995,1,8,1:0:0:0:
256,192,11113,1,0,1:0:0:0:
256,192,11466,1,12,1:0:0:0:
256,192,11701,1,0,1:0:0:0:
256,192,11819,1,0,1:0:0:0:
256,192,12172,1,12,1:0:0:0:
256,192,12407,1,0,1:0:0:0:
256,192,12525,1,8,1:0:0:0:
256,192,12642,1,0,1:0:0:0:
256,192,12760,1,0,1:0:0:0:
256,192,12878,1,8,1:0:0:0:
256,192,12995,1,0,1:0:0:0:
256,192,13113,1,0,1:0:0:0:
256,192,13230,1,8,1:0:0:0:
256,192,13348,1,8,1:0:0:0:
256,192,13466,1,8,1:0:0:0:
256,192,13583,1,0,1:0:0:0:
256,192,13701,1,0,1:0:0:0:
256,192,13819,1,0,1:0:0:0:
256,192,13936,1,8,1:0:0:0:
256,192,14289,1,0,1:0:0:0:
256,192,14642,1,8,1:0:0:0:
256,192,14907,1,0,1:0:0:0:
256,192,15172,1,8,1:0:0:0:
256,192,15348,1,0,1:0:0:0:
256,192,15878,1,0,1:0:0:0:
256,192,16054,1,8,1:0:0:0:
256,192,16583,1,0,1:0:0:0:
256,192,16672,1,0,1:0:0:0:
256,192,16760,1,12,1:0:0:0:
256,192,17995,1,8,1:0:0:0:
256,192,18083,1,0,1:0:0:0:
256,192,18172,1,8,1:0:0:0:
256,192,18348,1,0,1:0:0:0:
256,192,18436,1,0,1:0:0:0:
256,192,18525,1,8,1:0:0:0:
256,192,18613,1,8,1:0:0:0:
256,192,18701,1,0,1:0:0:0:
256,192,18789,1,0,1:0:0:0:
256,192,18878,1,12,1:0:0:0:
256,192,19230,1,12,1:0:0:0:
256,192,19583,1,0,1:0:0:0:
256,192,19760,1,0,1:0:0:0:
256,192,19936,1,8,1:0:0:0:
256,192,20113,1,0,1:0:0:0:
256,192,20201,1,8,1:0:0:0:
256,192,20289,1,0,1:0:0:0:
256,192,20466,1,8,1:0:0:0:
256,192,20642,1,8,1:0:0:0:
256,192,20819,1,0,1:0:0:0:
256,192,20907,1,0,1:0:0:0:
256,192,20995,1,0,1:0:0:0:
256,192,21172,1,8,1:0:0:0:
256,192,21348,1,8,1:0:0:0:
256,192,21525,1,0,1:0:0:0:
256,192,21613,1,8,1:0:0:0:
256,192,21701,1,0,1:0:0:0:
256,192,21878,1,8,1:0:0:0:
256,192,22054,1,8,1:0:0:0:
256,192,22230,1,0,1:0:0:0:
256,192,22319,1,0,1:0:0:0:
256,192,22407,1,8,1:0:0:0:
256,192,22583,1,0,1:0:0:0:
256,192,22672,1,0,1:0:0:0:
256,192,22760,1,8,1:0:0:0:
256,192,22848,1,0,1:0:0:0:
256,192,22936,1,8,1:0:0:0:
256,192,23113,1,0,1:0:0:0:
256,192,23289,1,8,1:0:0:0:
256,192,23378,1,8,1:0:0:0:
256,192,23466,1,0,1:0:0:0:
256,192,23642,1,0,1:0:0:0:
256,192,23819,1,8,1:0:0:0:
256,192,23995,1,0,1:0:0:0:
256,192,24083,1,0,1:0:0:0:
256,192,24172,1,8,1:0:0:0:
256,192,24260,1,0,1:0:0:0:
256,192,24348,1,8,1:0:0:0:
256,192,24436,1,8,1:0:0:0:
256,192,24525,1,0,1:0:0:0:
256,192,24701,1,8,1:0:0:0:
256,192,24878,1,8,1:0:0:0:
256,192,25054,1,0,1:0:0:0:
256,192,25142,1,0,1:0:0:0:
256,192,25230,1,8,1:0:0:0:
256,192,25407,1,0,1:0:0:0:
256,192,25583,1,8,1:0:0:0:
256,192,25760,1,0,1:0:0:0:
256,192,25848,1,8,1:0:0:0:
256,192,25936,1,0,1:0:0:0:
256,192,26113,1,0,1:0:0:0:
256,192,26289,1,8,1:0:0:0:
256,192,26466,1,8,1:0:0:0:
256,192,26554,1,8,1:0:0:0:
256,192,26642,1,0,1:0:0:0:
256,192,26819,1,0,1:0:0:0:
256,192,26995,1,8,1:0:0:0:
256,192,27172,1,0,1:0:0:0:
256,192,27260,1,8,1:0:0:0:
256,192,27348,1,0,1:0:0:0:
256,192,27525,1,0,1:0:0:0:
256,192,27701,1,8,1:0:0:0:
256,192,28054,1,0,1:0:0:0:
256,192,28142,1,0,1:0:0:0:
256,192,28230,1,0,1:0:0:0:
256,192,28319,1,8,1:0:0:0:
256,192,28407,1,8,1:0:0:0:
256,192,28583,1,0,1:0:0:0:
256,192,28672,1,0,1:0:0:0:
256,192,28848,1,8,1:0:0:0:
256,192,29025,1,0,1:0:0:0:
256,192,29113,1,0,1:0:0:0:
256,192,29201,1,0,1:0:0:0:
256,192,29289,1,8,1:0:0:0:
256,192,29466,1,8,1:0:0:0:
256,192,29554,1,8,1:0:0:0:
256,192,29642,1,0,1:0:0:0:
256,192,29730,1,0,1:0:0:0:
256,192,29819,1,8,1:0:0:0:
256,192,29907,1,8,1:0:0:0:
256,192,29995,1,0,1:0:0:0:
256,192,30083,1,8,1:0:0:0:
256,192,30348,1,0,1:0:0:0:
256,192,30407,1,0,1:0:0:0:
256,192,30466,1,0,1:0:0:0:
256,192,30525,1,8,1:0:0:0:
256,192,30760,1,0,1:0:0:0:
256,192,30878,1,12,1:0:0:0:
256,192,31054,1,8,1:0:0:0:
256,192,31142,1,8,1:0:0:0:
256,192,31230,1,0,1:0:0:0:
256,192,31466,1,8,1:0:0:0:
256,192,31583,1,8,1:0:0:0:
256,192,31760,1,0,1:0:0:0:
256,192,31848,1,0,1:0:0:0:
256,192,31936,1,8,1:0:0:0:
256,192,32113,1,0,1:0:0:0:
256,192,32289,1,8,1:0:0:0:
256,192,32466,1,8,1:0:0:0:
256,192,32554,1,8,1:0:0:0:
256,192,32642,1,0,1:0:0:0:
256,192,32819,1,8,1:0:0:0:
256,192,32995,1,0,1:0:0:0:
256,192,33172,1,8,1:0:0:0:
256,192,33348,1,0,1:0:0:0:
256,192,33436,1,0,1:0:0:0:
256,192,33525,1,8,1:0:0:0:
256,192,33613,1,0,1:0:0:0:
256,192,33701,1,8,1:0:0:0:
256,192,33878,1,0,1:0:0:0:
256,192,33966,1,0,1:0:0:0:
256,192,34054,1,8,1:0:0:0:
256,192,34230,1,0,1:0:0:0:
256,192,34407,1,8,1:0:0:0:
256,192,34495,1,8,1:0:0:0:
256,192,34583,1,0,1:0:0:0:
256,192,34672,1,8,1:0:0:0:
256,192,34760,1,8,1:0:0:0:
256,192,34936,1,0,1:0:0:0:
256,192,35113,1,8,1:0:0:0:
256,192,35289,1,0,1:0:0:0:
256,192,35378,1,0,1:0:0:0:
256,192,35466,1,8,1:0:0:0:
256,192,35642,1,0,1:0:0:0:
256,192,35819,1,8,1:0:0:0:
256,192,35995,1,8,1:0:0:0:
256,192,36083,1,8,1:0:0:0:
256,192,36172,1,0,1:0:0:0:
256,192,36407,1,0,1:0:0:0:
256,192,36525,1,12,1:0:0:0:
256,192,36701,1,8,1:0:0:0:
256,192,36789,1,8,1:0:0:0:
256,192,36878,1,0,1:0:0:0:
256,192,37113,1,8,1:0:0:0:
256,192,37230,1,8,1:0:0:0:
256,192,37407,1,0,1:0:0:0:
256,192,37495,1,0,1:0:0:0:
256,192,37583,1,8,1:0:0:0:
256,192,37760,1,0,1:0:0:0:
256,192,37936,1,8,1:0:0:0:
256,192,38113,1,0,1:0:0:0:
256,192,38201,1,8,1:0:0:0:
256,192,38289,1,0,1:0:0:0:
256,192,38466,1,8,1:0:0:0:
256,192,38642,1,0,1:0:0:0:
256,192,38819,1,8,1:0:0:0:
256,192,38907,1,0,1:0:0:0:
256,192,38995,1,0,1:0:0:0:
256,192,39172,1,0,1:0:0:0:
256,192,39348,1,8,1:0:0:0:
256,192,39525,1,0,1:0:0:0:
256,192,39613,1,0,1:0:0:0:
256,192,39701,1,8,1:0:0:0:
256,192,39789,1,0,1:0:0:0:
256,192,39878,1,8,1:0:0:0:
256,192,40054,1,0,1:0:0:0:
256,192,40230,1,0,1:0:0:0:
256,192,40319,1,8,1:0:0:0:
256,192,40407,1,8,1:0:0:0:
256,192,40583,1,0,1:0:0:0:
256,192,40760,1,12,1:0:0:0:
256,192,41025,1,12,1:0:0:0:
256,192,41289,1,12,1:0:0:0:
256,192,41466,1,4,1:0:0:0:
256,192,41819,1,8,1:0:0:0:
256,192,41995,1,0,1:0:0:0:
256,192,42172,1,12,1:0:0:0:
256,192,42348,1,0,1:0:0:0:
256,192,42525,1,8,1:0:0:0:
256,192,42701,1,8,1:0:0:0:
256,192,42878,1,0,1:0:0:0:
256,192,42966,1,0,1:0:0:0:
256,192,43054,1,0,1:0:0:0:
256,192,43142,1,8,1:0:0:0:
256,192,43230,1,8,1:0:0:0:
256,192,43319,1,0,1:0:0:0:
256,192,43407,1,8,1:0:0:0:
256,192,43495,1,0,1:0:0:0:
256,192,43583,1,8,1:0:0:0:
256,192,43760,1,0,1:0:0:0:
256,192,43848,1,0,1:0:0:0:
256,192,43936,1,8,1:0:0:0:
256,192,44025,1,8,1:0:0:0:
256,192,44113,1,0,1:0:0:0:
256,192,44201,1,0,1:0:0:0:
256,192,44289,1,0,1:0:0:0:
256,192,44466,1,8,1:0:0:0:
256,192,44642,1,0,1:0:0:0:
256,192,44819,1,8,1:0:0:0:
256,192,44907,1,0,1:0:0:0:
256,192,44995,1,8,1:0:0:0:
256,192,45172,1,0,1:0:0:0:
256,192,45348,1,8,1:0:0:0:
256,192,45525,1,8,1:0:0:0:
256,192,45701,1,0,1:0:0:0:
256,192,45789,1,0,1:0:0:0:
256,192,45878,1,0,1:0:0:0:
256,192,45966,1,8,1:0:0:0:
256,192,46054,1,8,1:0:0:0:
256,192,46142,1,0,1:0:0:0:
256,192,46230,1,8,1:0:0:0:
256,192,46319,1,0,1:0:0:0:
256,192,46407,1,8,1:0:0:0:
256,192,46583,1,0,1:0:0:0:
256,192,46672,1,8,1:0:0:0:
256,192,46760,1,0,1:0:0:0:
256,192,46848,1,0,1:0:0:0:
256,192,46936,1,8,1:0:0:0:
256,192,47025,1,8,1:0:0:0:
256,192,47113,1,0,1:0:0:0:
256,192,47289,1,8,1:0:0:0:
256,192,47466,1,0,1:0:0:0:
256,192,47642,1,8,1:0:0:0:
256,192,47819,1,4,1:0:0:0:
256,192,47995,1,0,1:0:0:0:
256,192,48083,1,0,1:0:0:0:
256,192,48172,1,8,1:0:0:0:
256,192,48348,1,4,1:0:0:0:
256,192,48701,1,0,1:0:0:0:
256,192,48878,1,8,1:0:0:0:
256,192,49054,1,0,1:0:0:0:
256,192,49407,1,0,1:0:0:0:
256,192,49495,1,0,1:0:0:0:
256,192,49583,1,8,1:0:0:0:
256,192,49936,1,12,1:0:0:0:
256,192,50113,1,0,1:0:0:0:
256,192,50201,1,0,1:0:0:0:
256,192,50289,1,8,1:0:0:0:
256,192,50466,1,12,1:0:0:0:
256,192,50819,1,0,1:0:0:0:
256,192,50907,1,0,1:0:0:0:
256,192,50995,1,8,1:0:0:0:
256,192,51172,1,8,1:0:0:0:
256,192,51260,1,0,1:0:0:0:
256,192,51348,1,8,1:0:0:0:
256,192,51436,1,8,1:0:0:0:
256,192,51525,1,0,1:0:0:0:
256,192,51701,1,8,1:0:0:0:
256,192,51878,1,0,1:0:0:0:
256,192,52054,1,12,1:0:0:0:
256,192,52407,1,0,1:0:0:0:
256,192,52583,1,0,1:0:0:0:
256,192,52760,1,8,1:0:0:0:
256,192,52936,1,0,1:0:0:0:
256,192,53113,1,8,1:0:0:0:
256,192,53289,1,0,1:0:0:0:
256,192,53466,1,0,1:0:0:0:
256,192,53554,1,0,1:0:0:0:
256,192,53642,1,0,1:0:0:0:
256,192,53819,1,8,1:0:0:0:
256,192,53995,1,0,1:0:0:0:
256,192,54348,1,0,1:0:0:0:
256,192,54436,1,0,1:0:0:0:
256,192,54525,1,8,1:0:0:0:
256,192,54701,1,0,1:0:0:0:
256,192,54878,1,8,1:0:0:0:
256,192,55230,1,0,1:0:0:0:
256,192,55319,1,0,1:0:0:0:
256,192,55407,1,0,1:0:0:0:
256,192,55583,1,0,1:0:0:0:
256,192,55760,1,8,1:0:0:0:
256,192,55936,1,0,1:0:0:0:
256,192,56113,1,8,1:0:0:0:
256,192,56466,1,8,1:0:0:0:
256,192,56554,1,8,1:0:0:0:
256,192,56642,1,0,1:0:0:0:
256,192,56819,1,8,1:0:0:0:
256,192,56995,1,8,1:0:0:0:
256,192,57348,1,0,1:0:0:0:
256,192,57701,1,8,1:0:0:0:
256,192,57878,1,0,1:0:0:0:
256,192,58054,1,0,1:0:0:0:
256,192,58230,1,8,1:0:0:0:
256,192,58583,1,8,1:0:0:0:
256,192,58760,1,0,1:0:0:0:
256,192,58936,1,8,1:0:0:0:
256,192,59289,1,0,1:0:0:0:
256,192,59642,1,0,1:0:0:0:
256,192,59819,1,8,1:0:0:0:
256,192,60172,1,0,1:0:0:0:
256,192,60525,1,8,1:0:0:0:
256,192,60701,1,0,1:0:0:0:
256,192,60878,1,0,1:0:0:0:
256,192,61054,1,8,1:0:0:0:
256,192,61407,1,0,1:0:0:0:
256,192,61583,1,8,1:0:0:0:
256,192,61760,1,0,1:0:0:0:
256,192,61936,1,0,1:0:0:0:
256,192,62025,1,0,1:0:0:0:
256,192,62201,1,0,1:0:0:0:
256,192,62378,1,0,1:0:0:0:
256,192,62554,1,0,1:0:0:0:
256,192,62642,1,0,1:0:0:0:
256,192,62730,1,8,1:0:0:0:
256,192,62907,1,8,1:0:0:0:
256,192,63083,1,8,1:0:0:0:
256,192,63260,1,8,1:0:0:0:
256,192,63348,1,0,1:0:0:0:
256,192,63701,1,0,1:0:0:0:
256,192,64054,1,8,1:0:0:0:
256,192,64760,1,0,1:0:0:0:
256,192,64848,1,0,1:0:0:0:
256,192,64936,1,8,1:0:0:0:
256,192,65025,1,0,1:0:0:0:
256,192,65113,1,8,1:0:0:0:
256,192,65201,1,8,1:0:0:0:
256,192,65289,1,0,1:0:0:0:
256,192,65378,1,0,1:0:0:0:
256,192,65466,1,8,1:0:0:0:
256,192,65554,1,0,1:0:0:0:
256,192,65642,1,0,1:0:0:0:
256,192,65730,1,0,1:0:0:0:
256,192,65819,1,8,1:0:0:0:
256,192,65907,1,8,1:0:0:0:
256,192,65995,1,0,1:0:0:0:
256,192,66083,1,0,1:0:0:0:
256,192,66172,1,8,1:0:0:0:
256,192,66348,1,0,1:0:0:0:
256,192,66436,1,0,1:0:0:0:
256,192,66525,1,8,1:0:0:0:
256,192,66701,1,8,1:0:0:0:
256,192,66878,1,0,1:0:0:0:
256,192,66966,1,0,1:0:0:0:
256,192,67054,1,8,1:0:0:0:
256,192,67142,1,0,1:0:0:0:
256,192,67230,1,8,1:0:0:0:
256,192,67319,1,8,1:0:0:0:
256,192,67407,1,0,1:0:0:0:
256,192,67583,1,8,1:0:0:0:
256,192,67760,1,0,1:0:0:0:
256,192,67848,1,0,1:0:0:0:
256,192,67936,1,8,1:0:0:0:
256,192,68113,1,8,1:0:0:0:
256,192,68289,1,0,1:0:0:0:
256,192,68378,1,0,1:0:0:0:
256,192,68466,1,8,1:0:0:0:
256,192,68554,1,0,1:0:0:0:
256,192,68642,1,8,1:0:0:0:
256,192,68730,1,8,1:0:0:0:
256,192,68819,1,0,1:0:0:0:
256,192,68907,1,0,1:0:0:0:
256,192,68995,1,8,1:0:0:0:
256,192,69172,1,0,1:0:0:0:
256,192,69260,1,0,1:0:0:0:
256,192,69348,1,8,1:0:0:0:
256,192,69525,1,0,1:0:0:0:
256,192,69701,1,8,1:0:0:0:
256,192,69789,1,8,1:0:0:0:
256,192,69878,1,8,1:0:0:0:
256,192,69966,1,8,1:0:0:0:
256,192,70054,1,0,1:0:0:0:
256,192,70230,1,0,1:0:0:0:
256,192,70319,1,0,1:0:0:0:
256,192,70407,1,8,1:0:0:0:
256,192,70583,1,0,1:0:0:0:
256,192,70672,1,0,1:0:0:0:
256,192,70760,1,0,1:0:0:0:
256,192,70936,1,8,1:0:0:0:
256,192,71113,1,0,1:0:0:0:
256,192,71289,1,8,1:0:0:0:
256,192,71378,1,8,1:0:0:0:
256,192,71466,1,0,1:0:0:0:
256,192,71642,1,8,1:0:0:0:
256,192,71819,1,4,1:0:0:0:
256,192,71995,1,0,1:0:0:0:
256,192,72083,1,0,1:0:0:0:
256,192,72172,1,8,1:0:0:0:
256,192,72348,1,4,1:0:0:0:
256,192,72701,1,8,1:0:0:0:
256,192,72789,1,8,1:0:0:0:
256,192,72878,1,0,1:0:0:0:
256,192,73054,1,0,1:0:0:0:
256,192,73230,1,12,1:0:0:0:
256,192,73407,1,8,1:0:0:0:
256,192,73495,1,0,1:0:0:0:
256,192,73583,1,8,1:0:0:0:
256,192,73760,1,4,1:0:0:0:
256,192,74113,1,0,1:0:0:0:
256,192,74201,1,0,1:0:0:0:
256,192,74289,1,8,1:0:0:0:
256,192,74378,1,8,1:0:0:0:
256,192,74466,1,0,1:0:0:0:
256,192,74642,1,12,1:0:0:0:
256,192,74819,1,0,1:0:0:0:
256,192,74907,1,0,1:0:0:0:
256,192,74995,1,8,1:0:0:0:
256,192,75172,1,0,1:0:0:0:
256,192,75348,1,12,1:0:0:0:
256,192,75525,1,8,1:0:0:0:
256,192,75613,1,8,1:0:0:0:
256,192,75701,1,0,1:0:0:0:
256,192,75878,1,0,1:0:0:0:
256,192,76054,1,12,1:0:0:0:
256,192,76230,1,0,1:0:0:0:
256,192,76319,1,0,1:0:0:0:
256,192,76407,1,8,1:0:0:0:
256,192,76495,1,8,1:0:0:0:
256,192,76583,1,0,1:0:0:0:
256,192,76936,1,12,1:0:0:0:
256,192,77113,1,12,1:0:0:0:
256,192,77466,1,0,1:0:0:0:
256,192,77554,1,0,1:0:0:0:
256,192,77642,1,0,1:0:0:0:
256,192,77730,1,0,1:0:0:0:
256,192,77819,1,8,1:0:0:0:
256,192,77995,1,0,1:0:0:0:
256,192,78172,1,0,1:0:0:0:
256,192,78348,1,8,1:0:0:0:
256,192,78436,1,8,1:0:0:0:
256,192,78525,1,0,1:0:0:0:
256,192,78613,1,8,1:0:0:0:
256,192,78701,1,8,1:0:0:0:
256,192,78789,1,8,1:0:0:0:
256,192,78878,1,0,1:0:0:0:
256,192,79054,1,0,1:0:0:0:
256,192,79142,1,0,1:0:0:0:
256,192,79230,1,8,1:0:0:0:
256,192,79407,1,0,1:0:0:0:
256,192,79583,1,0,1:0:0:0:
256,192,79760,1,8,1:0:0:0:
256,192,79848,1,8,1:0:0:0:
256,192,79936,1,0,1:0:0:0:
256,192,80025,1,8,1:0:0:0:
256,192,80113,1,0,1:0:0:0:
256,192,80289,1,4,1:0:0:0:
256,192,80466,1,0,1:0:0:0:
256,192,80554,1,0,1:0:0:0:
256,192,80642,1,8,1:0:0:0:
256,192,80819,1,0,1:0:0:0:
256,192,80995,1,8,1:0:0:0:
256,192,81172,1,8,1:0:0:0:
256,192,81260,1,0,1:0:0:0:
256,192,81348,1,8,1:0:0:0:
256,192,81525,1,0,1:0:0:0:
256,192,81701,1,8,1:0:0:0:
256,192,81789,1,8,1:0:0:0:
256,192,81878,1,0,1:0:0:0:
256,192,81966,1,0,1:0:0:0:
256,192,82054,1,8,1:0:0:0:
256,192,82230,1,8,1:0:0:0:
256,192,82407,1,0,1:0:0:0:
256,192,82583,1,0,1:0:0:0:
256,192,82760,1,8,1:0:0:0:
256,192,82848,1,8,1:0:0:0:
256,192,82936,1,8,1:0:0:0:
256,192,83113,1,4,1:0:0:0:
256,192,83289,1,0,1:0:0:0:
256,192,83378,1,0,1:0:0:0:
256,192,83466,1,8,1:0:0:0:
256,192,83642,1,4,1:0:0:0:
256,192,83995,1,8,1:0:0:0:
256,192,84083,1,0,1:0:0:0:
256,192,84172,1,8,1:0:0:0:
256,192,84348,1,0,1:0:0:0:
256,192,84525,1,12,1:0:0:0:
256,192,84701,1,0,1:0:0:0:
256,192,84789,1,0,1:0:0:0:
256,192,84878,1,8,1:0:0:0:
256,192,85054,1,12,1:0:0:0:
256,192,85407,1,0,1:0:0:0:
256,192,85495,1,0,1:0:0:0:
256,192,85583,1,8,1:0:0:0:
256,192,85672,1,0,1:0:0:0:
256,192,85760,1,0,1:0:0:0:
256,192,85936,1,12,1:0:0:0:
256,192,86113,1,0,1:0:0:0:
256,192,86201,1,0,1:0:0:0:
256,192,86289,1,8,1:0:0:0:
256,192,86466,1,0,1:0:0:0:
256,192,86642,1,8,1:0:0:0:
256,192,86819,1,8,1:0:0:0:
256,192,86907,1,8,1:0:0:0:
256,192,86995,1,0,1:0:0:0:
256,192,87172,1,0,1:0:0:0:
256,192,87348,1,12,1:0:0:0:
256,192,87525,1,8,1:0:0:0:
256,192,87613,1,0,1:0:0:0:
256,192,87701,1,8,1:0:0:0:
256,192,87878,1,0,1:0:0:0:
256,192,88230,1,0,1:0:0:0:
256,192,88319,1,0,1:0:0:0:
256,192,88407,1,8,1:0:0:0:
256,192,88583,1,0,1:0:0:0:
256,192,88760,1,12,1:0:0:0:
256,192,88936,1,0,1:0:0:0:
256,192,89025,1,0,1:0:0:0:
256,192,89113,1,8,1:0:0:0:
256,192,89289,1,0,1:0:0:0:
256,192,89466,1,0,1:0:0:0:
256,192,89642,1,8,1:0:0:0:
256,192,89730,1,0,1:0:0:0:
256,192,89819,1,8,1:0:0:0:
256,192,89995,1,0,1:0:0:0:
256,192,90172,1,8,1:0:0:0:
256,192,90260,1,8,1:0:0:0:
256,192,90348,1,0,1:0:0:0:
256,192,90436,1,8,1:0:0:0:
256,192,90525,1,0,1:0:0:0:
256,192,90613,1,0,1:0:0:0:
256,192,90701,1,8,1:0:0:0:
256,192,90789,1,0,1:0:0:0:
256,192,90878,1,8,1:0:0:0:
256,192,90936,1,8,1:0:0:0:
256,192,90995,1,8,1:0:0:0:
256,192,91054,1,0,1:0:0:0:
256,192,91142,1,0,1:0:0:0:
256,192,91230,1,8,1:0:0:0:
256,192,91289,1,8,1:0:0:0:
256,192,91348,1,8,1:0:0:0:
256,192,91407,1,0,1:0:0:0:
256,192,91495,1,0,1:0:0:0:
256,192,91583,1,8,1:0:0:0:
256,192,91760,1,0,1:0:0:0:
256,192,91936,1,8,1:0:0:0:
256,192,92113,1,0,1:0:0:0:
256,192,92201,1,8,1:0:0:0:
256,192,92289,1,0,1:0:0:0:
256,192,92466,1,8,1:0:0:0:
256,192,92642,1,8,1:0:0:0:
256,192,92819,1,0,1:0:0:0:
256,192,92907,1,0,1:0:0:0:
256,192,92995,1,0,1:0:0:0:
256,192,93172,1,8,1:0:0:0:
256,192,93348,1,8,1:0:0:0:
256,192,93525,1,0,1:0:0:0:
256,192,93613,1,8,1:0:0:0:
256,192,93701,1,0,1:0:0:0:
256,192,93878,1,8,1:0:0:0:
256,192,94054,1,8,1:0:0:0:
256,192,94230,1,0,1:0:0:0:
256,192,94319,1,0,1:0:0:0:
256,192,94407,1,8,1:0:0:0:
256,192,94583,1,0,1:0:0:0:
256,192,94672,1,0,1:0:0:0:
256,192,94760,1,8,1:0:0:0:
256,192,94848,1,0,1:0:0:0:
256,192,94936,1,8,1:0:0:0:
256,192,95113,1,0,1:0:0:0:
256,192,95289,1,8,1:0:0:0:
256,192,95378,1,8,1:0:0:0:
256,192,95466,1,0,1:0:0:0:
256,192,95642,1,0,1:0:0:0:
256,192,95819,1,8,1:0:0:0:
256,192,95995,1,0,1:0:0:0:
256,192,96083,1,0,1:0:0:0:
256,192,96172,1,8,1:0:0:0:
256,192,96260,1,0,1:0:0:0:
256,192,96348,1,8,1:0:0:0:
256,192,96436,1,8,1:0:0:0:
256,192,96525,1,0,1:0:0:0:
256,192,96701,1,8,1:0:0:0:
256,192,96878,1,8,1:0:0:0:
256,192,97054,1,0,1:0:0:0:
256,192,97142,1,0,1:0:0:0:
256,192,97230,1,8,1:0:0:0:
256,192,97407,1,0,1:0:0:0:
256,192,97583,1,8,1:0:0:0:
256,192,97760,1,0,1:0:0:0:
256,192,97848,1,8,1:0:0:0:
256,192,97936,1,0,1:0:0:0:
256,192,98113,1,0,1:0:0:0:
256,192,98289,1,8,1:0:0:0:
256,192,98466,1,8,1:0:0:0:
256,192,98554,1,8,1:0:0:0:
256,192,98642,1,0,1:0:0:0:
256,192,98819,1,0,1:0:0:0:
256,192,98995,1,8,1:0:0:0:
256,192,99172,1,0,1:0:0:0:
256,192,99260,1,8,1:0:0:0:
256,192,99348,1,0,1:0:0:0:
256,192,99525,1,0,1:0:0:0:
256,192,99701,1,8,1:0:0:0:
256,192,100054,1,8,1:0:0:0:
256,192,100289,1,8,1:0:0:0:
256,192,100407,1,0,1:0:0:0:
256,192,100642,1,0,1:0:0:0:
256,192,100760,1,8,1:0:0:0:
256,192,100995,1,0,1:0:0:0:
256,192,101113,1,8,1:0:0:0:
256,192,101348,1,8,1:0:0:0:
256,192,101466,1,8,1:0:0:0:
256,192,101583,1,8,1:0:0:0:
256,192,101701,1,0,1:0:0:0:
256,192,101936,1,8,1:0:0:0:
256,192,102054,1,8,1:0:0:0:
256,192,102172,1,0,1:0:0:0:
256,192,102407,1,8,1:0:0:0:
256,192,102466,1,8,1:0:0:0:
256,192,102525,1,0,1:0:0:0:
256,192,102760,1,0,1:0:0:0:
256,192,102878,1,12,1:0:0:0:
256,192,103054,1,8,1:0:0:0:
256,192,103142,1,8,1:0:0:0:
256,192,103230,1,0,1:0:0:0:
256,192,103466,1,8,1:0:0:0:
256,192,103583,1,8,1:0:0:0:
256,192,103760,1,0,1:0:0:0:
256,192,103848,1,0,1:0:0:0:
256,192,103936,1,8,1:0:0:0:
256,192,104113,1,0,1:0:0:0:
256,192,104289,1,8,1:0:0:0:
256,192,104466,1,8,1:0:0:0:
256,192,104554,1,8,1:0:0:0:
256,192,104642,1,0,1:0:0:0:
256,192,104819,1,8,1:0:0:0:
256,192,104995,1,0,1:0:0:0:
256,192,105172,1,8,1:0:0:0:
256,192,105348,1,0,1:0:0:0:
256,192,105436,1,0,1:0:0:0:
256,192,105525,1,8,1:0:0:0:
256,192,105613,1,0,1:0:0:0:
256,192,105701,1,8,1:0:0:0:
256,192,105878,1,0,1:0:0:0:
256,192,105966,1,0,1:0:0:0:
256,192,106054,1,8,1:0:0:0:
256,192,106230,1,0,1:0:0:0:
256,192,106407,1,8,1:0:0:0:
256,192,106495,1,8,1:0:0:0:
256,192,106583,1,0,1:0:0:0:
256,192,106672,1,8,1:0:0:0:
256,192,106760,1,8,1:0:0:0:
256,192,106936,1,0,1:0:0:0:
256,192,107025,1,0,1:0:0:0:
256,192,107113,1,8,1:0:0:0:
256,192,107289,1,0,1:0:0:0:
256,192,107378,1,8,1:0:0:0:
256,192,107554,1,0,1:0:0:0:
256,192,107642,1,8,1:0:0:0:
256,192,107819,1,0,1:0:0:0:
256,192,107907,1,8,1:0:0:0:
256,192,107995,1,0,1:0:0:0:
256,192,108083,1,0,1:0:0:0:
256,192,108172,1,8,1:0:0:0:
256,192,108407,1,0,1:0:0:0:
256,192,108525,1,12,1:0:0:0:
256,192,108701,1,8,1:0:0:0:
256,192,108789,1,8,1:0:0:0:
256,192,108878,1,0,1:0:0:0:
256,192,109113,1,8,1:0:0:0:
256,192,109230,1,8,1:0:0:0:
256,192,109407,1,0,1:0:0:0:
256,192,109495,1,0,1:0:0:0:
256,192,109583,1,8,1:0:0:0:
256,192,109760,1,0,1:0:0:0:
256,192,109936,1,8,1:0:0:0:
256,192,110113,1,0,1:0:0:0:
256,192,110201,1,8,1:0:0:0:
256,192,110289,1,0,1:0:0:0:
256,192,110466,1,8,1:0:0:0:
256,192,110642,1,0,1:0:0:0:
256,192,110819,1,8,1:0:0:0:
256,192,110907,1,0,1:0:0:0:
256,192,110995,1,0,1:0:0:0:
256,192,111172,1,0,1:0:0:0:
256,192,111348,1,8,1:0:0:0:
256,192,111525,1,0,1:0:0:0:
256,192,111613,1,0,1:0:0:0:
256,192,111701,1,8,1:0:0:0:
256,192,111789,1,0,1:0:0:0:
256,192,111878,1,8,1:0:0:0:
256,192,112054,1,0,1:0:0:0:
256,192,112230,1,0,1:0:0:0:
256,192,112319,1,8,1:0:0:0:
256,192,112407,1,8,1:0:0:0:
256,192,112583,1,0,1:0:0:0:
256,192,112760,1,8,1:0:0:0:
256,192,112936,1,0,1:0:0:0:
256,192,113025,1,8,1:0:0:0:
256,192,113201,1,0,1:0:0:0:
256,192,113289,1,8,1:0:0:0:
256,192,113378,1,8,1:0:0:0:
256,192,113466,1,0,1:0:0:0:
256,192,113642,1,0,1:0:0:0:
256,192,113730,1,0,1:0:0:0:
256,192,113819,1,8,1:0:0:0:
256,192,113995,1,0,1:0:0:0:
256,192,114172,1,12,1:0:0:0:
256,192,114348,1,0,1:0:0:0:
256,192,114525,1,8,1:0:0:0:
256,192,114701,1,8,1:0:0:0:
256,192,114878,1,0,1:0:0:0:
256,192,114966,1,0,1:0:0:0:
256,192,115054,1,0,1:0:0:0:
256,192,115142,1,8,1:0:0:0:
256,192,115230,1,8,1:0:0:0:
256,192,115319,1,0,1:0:0:0:
256,192,115407,1,8,1:0:0:0:
256,192,115495,1,0,1:0:0:0:
256,192,115583,1,8,1:0:0:0:
256,192,115760,1,0,1:0:0:0:
256,192,115848,1,0,1:0:0:0:
256,192,115936,1,8,1:0:0:0:
256,192,116025,1,8,1:0:0:0:
256,192,116113,1,0,1:0:0:0:
256,192,116201,1,0,1:0:0:0:
256,192,116289,1,0,1:0:0:0:
256,192,116466,1,8,1:0:0:0:
256,192,116642,1,0,1:0:0:0:
256,192,116819,1,8,1:0:0:0:
256,192,116907,1,0,1:0:0:0:
256,192,116995,1,8,1:0:0:0:
256,192,117172,1,0,1:0:0:0:
256,192,117348,1,8,1:0:0:0:
256,192,117525,1,8,1:0:0:0:
256,192,117701,1,0,1:0:0:0:
256,192,117789,1,0,1:0:0:0:
256,192,117878,1,0,1:0:0:0:
256,192,117966,1,8,1:0:0:0:
256,192,118054,1,8,1:0:0:0:
256,192,118142,1,0,1:0:0:0:
256,192,118230,1,8,1:0:0:0:
256,192,118319,1,0,1:0:0:0:
256,192,118407,1,8,1:0:0:0:
256,192,118583,1,0,1:0:0:0:
256,192,118672,1,8,1:0:0:0:
256,192,118760,1,0,1:0:0:0:
256,192,118848,1,0,1:0:0:0:
256,192,118936,1,8,1:0:0:0:
256,192,119025,1,8,1:0:0:0:
256,192,119113,1,0,1:0:0:0:
256,192,119289,1,8,1:0:0:0:
256,192,119466,1,0,1:0:0:0:
256,192,119642,1,8,1:0:0:0:
256,192,119819,1,4,1:0:0:0:
256,192,119995,1,0,1:0:0:0:
256,192,120083,1,0,1:0:0:0:
256,192,120172,1,8,1:0:0:0:
256,192,120348,1,4,1:0:0:0:
256,192,120701,1,0,1:0:0:0:
256,192,120878,1,8,1:0:0:0:
256,192,121054,1,0,1:0:0:0:
256,192,121407,1,0,1:0:0:0:
256,192,121495,1,0,1:0:0:0:
256,192,121583,1,8,1:0:0:0:
256,192,121936,1,12,1:0:0:0:
256,192,122113,1,0,1:0:0:0:
256,192,122201,1,0,1:0:0:0:
256,192,122289,1,8,1:0:0:0:
256,192,122466,1,12,1:0:0:0:
256,192,122819,1,0,1:0:0:0:
256,192,122907,1,0,1:0:0:0:
256,192,122995,1,8,1:0:0:0:
256,192,123172,1,8,1:0:0:0:
256,192,123260,1,0,1:0:0:0:
256,192,123348,1,8,1:0:0:0:
256,192,123436,1,8,1:0:0:0:
256,192,123525,1,0,1:0:0:0:
256,192,123701,1,8,1:0:0:0:
256,192,123878,1,0,1:0:0:0:
256,192,124054,1,12,1:0:0:0:
256,192,124230,1,8,1:0:0:0:
256,192,124319,1,8,1:0:0:0:
256,192,124407,1,0,1:0:0:0:
256,192,124583,1,0,1:0:0:0:
256,192,124760,1,8,1:0:0:0:
256,192,124936,1,0,1:0:0:0:
256,192,125113,1,8,1:0:0:0:
256,192,125289,1,0,1:0:0:0:
256,192,125378,1,0,1:0:0:0:
256,192,125466,1,0,1:0:0:0:
256,192,125642,1,0,1:0:0:0:
256,192,125819,1,8,1:0:0:0:
256,192,125995,1,0,1:0:0:0:
256,192,126172,1,8,1:0:0:0:
256,192,126525,1,8,1:0:0:0:
256,192,126701,1,0,1:0:0:0:
256,192,126878,1,8,1:0:0:0:
256,192,127230,1,8,1:0:0:0:
256,192,127319,1,8,1:0:0:0:
256,192,127407,1,0,1:0:0:0:
256,192,127583,1,8,1:0:0:0:
256,192,127760,1,0,1:0:0:0:
256,192,127936,1,0,1:0:0:0:
256,192,128113,1,8,1:0:0:0:
256,192,128466,1,8,1:0:0:0:
256,192,128554,1,0,1:0:0:0:
256,192,128642,1,8,1:0:0:0:
256,192,128819,1,8,1:0:0:0:
256,192,128995,1,8,1:0:0:0:
256,192,129348,1,0,1:0:0:0:
256,192,129701,1,8,1:0:0:0:
256,192,129878,1,0,1:0:0:0:
256,192,130054,1,0,1:0:0:0:
256,192,130230,1,8,1:0:0:0:
256,192,130583,1,8,1:0:0:0:
256,192,130760,1,0,1:0:0:0:
256,192,130936,1,8,1:0:0:0:
256,192,131289,1,0,1:0:0:0:
256,192,131642,1,0,1:0:0:0:
256,192,131819,1,8,1:0:0:0:
256,192,132172,1,0,1:0:0:0:
256,192,132525,1,8,1:0:0:0:
256,192,132701,1,0,1:0:0:0:
256,192,132878,1,0,1:0:0:0:
256,192,133054,1,8,1:0:0:0:
256,192,133407,1,0,1:0:0:0:
256,192,133583,1,8,1:0:0:0:
256,192,133760,1,0,1:0:0:0:
256,192,133936,1,0,1:0:0:0:
256,192,134025,1,0,1:0:0:0:
256,192,134201,1,0,1:0:0:0:
256,192,134378,1,0,1:0:0:0:
256,192,134554,1,0,1:0:0:0:
256,192,134642,1,0,1:0:0:0:
256,192,134730,1,8,1:0:0:0:
256,192,134907,1,8,1:0:0:0:
256,192,135083,1,8,1:0:0:0:
256,192,135260,1,8,1:0:0:0:
256,192,135348,1,0,1:0:0:0:
256,192,135701,1,0,1:0:0:0:
256,192,136054,1,8,1:0:0:0:
256,192,136760,1,0,1:0:0:0:
256,192,136848,1,0,1:0:0:0:
256,192,136936,1,8,1:0:0:0:
256,192,137025,1,0,1:0:0:0:
256,192,137113,1,8,1:0:0:0:
256,192,137201,1,8,1:0:0:0:
256,192,137289,1,0,1:0:0:0:
256,192,137378,1,0,1:0:0:0:
256,192,137466,1,8,1:0:0:0:
256,192,137554,1,0,1:0:0:0:
256,192,137642,1,0,1:0:0:0:
256,192,137730,1,0,1:0:0:0:
256,192,137819,1,8,1:0:0:0:
256,192,137907,1,0,1:0:0:0:
256,192,137995,1,8,1:0:0:0:
256,192,138083,1,0,1:0:0:0:
256,192,138172,1,8,1:0:0:0:
256,192,138348,1,0,1:0:0:0:
256,192,138436,1,0,1:0:0:0:
256,192,138525,1,8,1:0:0:0:
256,192,138701,1,8,1:0:0:0:
256,192,138878,1,0,1:0:0:0:
256,192,138966,1,0,1:0:0:0:
256,192,139054,1,8,1:0:0:0:
256,192,139142,1,0,1:0:0:0:
256,192,139230,1,8,1:0:0:0:
256,192,139407,1,0,1:0:0:0:
256,192,139495,1,0,1:0:0:0:
256,192,139583,1,8,1:0:0:0:
256,192,139760,1,0,1:0:0:0:
256,192,139848,1,0,1:0:0:0:
256,192,139936,1,8,1:0:0:0:
256,192,140113,1,8,1:0:0:0:
256,192,140289,1,0,1:0:0:0:
256,192,140378,1,0,1:0:0:0:
256,192,140466,1,8,1:0:0:0:
256,192,140554,1,8,1:0:0:0:
256,192,140642,1,0,1:0:0:0:
256,192,140730,1,0,1:0:0:0:
256,192,140819,1,8,1:0:0:0:
256,192,140907,1,0,1:0:0:0:
256,192,140995,1,8,1:0:0:0:
256,192,141172,1,0,1:0:0:0:
256,192,141260,1,0,1:0:0:0:
256,192,141348,1,8,1:0:0:0:
256,192,141525,1,0,1:0:0:0:
256,192,141701,1,8,1:0:0:0:
256,192,141789,1,8,1:0:0:0:
256,192,141878,1,8,1:0:0:0:
256,192,141966,1,8,1:0:0:0:
256,192,142054,1,0,1:0:0:0:
256,192,142230,1,0,1:0:0:0:
256,192,142319,1,0,1:0:0:0:
256,192,142407,1,8,1:0:0:0:
256,192,142583,1,0,1:0:0:0:
256,192,142672,1,0,1:0:0:0:
256,192,142760,1,0,1:0:0:0:
256,192,142936,1,8,1:0:0:0:
256,192,143113,1,0,1:0:0:0:
256,192,143289,1,8,1:0:0:0:
256,192,143378,1,8,1:0:0:0:
256,192,143466,1,0,1:0:0:0:
256,192,143642,1,8,1:0:0:0:
256,192,143819,1,4,1:0:0:0:
256,192,143995,1,0,1:0:0:0:
256,192,144083,1,0,1:0:0:0:
256,192,144172,1,8,1:0:0:0:
256,192,144348,1,4,1:0:0:0:
256,192,144701,1,8,1:0:0:0:
256,192,144789,1,8,1:0:0:0:
256,192,144878,1,0,1:0:0:0:
256,192,145054,1,0,1:0:0:0:
256,192,145230,1,12,1:0:0:0:
256,192,145407,1,8,1:0:0:0:
256,192,145495,1,0,1:0:0:0:
256,192,145583,1,8,1:0:0:0:
256,192,145760,1,4,1:0:0:0:
256,192,146113,1,0,1:0:0:0:
256,192,146201,1,0,1:0:0:0:
256,192,146289,1,8,1:0:0:0:
256,192,146378,1,8,1:0:0:0:
256,192,146466,1,0,1:0:0:0:
256,192,146642,1,12,1:0:0:0:
256,192,146819,1,0,1:0:0:0:
256,192,146907,1,0,1:0:0:0:
256,192,146995,1,0,1:0:0:0:
256,192,147172,1,0,1:0:0:0:
256,192,147348,1,12,1:0:0:0:
256,192,147525,1,8,1:0:0:0:
256,192,147613,1,8,1:0:0:0:
256,192,147701,1,0,1:0:0:0:
256,192,147878,1,0,1:0:0:0:
256,192,148054,1,12,1:0:0:0:
256,192,148230,1,0,1:0:0:0:
256,192,148319,1,0,1:0:0:0:
256,192,148407,1,8,1:0:0:0:
256,192,148495,1,8,1:0:0:0:
256,192,148583,1,0,1:0:0:0:
256,192,148936,1,12,1:0:0:0:
256,192,149113,1,12,1:0:0:0:
256,192,149466,1,0,1:0:0:0:
256,192,149554,1,0,1:0:0:0:
256,192,149642,1,8,1:0:0:0:
256,192,149730,1,0,1:0:0:0:
256,192,149819,1,8,1:0:0:0:
256,192,149995,1,0,1:0:0:0:
256,192,150172,1,0,1:0:0:0:
256,192,150348,1,8,1:0:0:0:
256,192,150436,1,8,1:0:0:0:
256,192,150525,1,0,1:0:0:0:
256,192,150613,1,0,1:0:0:0:
256,192,150701,1,8,1:0:0:0:
256,192,150789,1,8,1:0:0:0:
256,192,150878,1,0,1:0:0:0:
256,192,151054,1,0,1:0:0:0:
256,192,151142,1,0,1:0:0:0:
256,192,151230,1,8,1:0:0:0:
256,192,151407,1,0,1:0:0:0:
256,192,151583,1,0,1:0:0:0:
256,192,151760,1,8,1:0:0:0:
256,192,151848,1,8,1:0:0:0:
256,192,151936,1,0,1:0:0:0:
256,192,152025,1,8,1:0:0:0:
256,192,152113,1,0,1:0:0:0:
256,192,152289,1,4,1:0:0:0:
256,192,152466,1,0,1:0:0:0:
256,192,152554,1,0,1:0:0:0:
256,192,152642,1,8,1:0:0:0:
256,192,152819,1,0,1:0:0:0:
256,192,152995,1,8,1:0:0:0:
256,192,153172,1,8,1:0:0:0:
256,192,153260,1,0,1:0:0:0:
256,192,153348,1,8,1:0:0:0:
256,192,153525,1,0,1:0:0:0:
256,192,153701,1,8,1:0:0:0:
256,192,153789,1,8,1:0:0:0:
256,192,153878,1,0,1:0:0:0:
256,192,153966,1,0,1:0:0:0:
256,192,154054,1,8,1:0:0:0:
256,192,154230,1,8,1:0:0:0:
256,192,154407,1,0,1:0:0:0:
256,192,154583,1,0,1:0:0:0:
256,192,154760,1,8,1:0:0:0:
256,192,154848,1,8,1:0:0:0:
256,192,154936,1,8,1:0:0:0:
256,192,155113,1,4,1:0:0:0:
256,192,155289,1,0,1:0:0:0:
256,192,155378,1,0,1:0:0:0:
256,192,155466,1,8,1:0:0:0:
256,192,155642,1,4,1:0:0:0:
256,192,155995,1,8,1:0:0:0:
256,192,156083,1,0,1:0:0:0:
256,192,156172,1,8,1:0:0:0:
256,192,156348,1,0,1:0:0:0:
256,192,156525,1,12,1:0:0:0:
256,192,156701,1,0,1:0:0:0:
256,192,156789,1,0,1:0:0:0:
256,192,156878,1,8,1:0:0:0:
256,192,157054,1,12,1:0:0:0:
256,192,157407,1,0,1:0:0:0:
256,192,157495,1,0,1:0:0:0:
256,192,157583,1,8,1:0:0:0:
256,192,157672,1,0,1:0:0:0:
256,192,157760,1,0,1:0:0:0:
256,192,157936,1,12,1:0:0:0:
256,192,158113,1,0,1:0:0:0:
256,192,158201,1,0,1:0:0:0:
256,192,158289,1,0,1:0:0:0:
256,192,158466,1,0,1:0:0:0:
256,192,158642,1,8,1:0:0:0:
256,192,158819,1,8,1:0:0:0:
256,192,158907,1,8,1:0:0:0:
256,192,158995,1,0,1:0:0:0:
256,192,159172,1,0,1:0:0:0:
256,192,159348,1,12,1:0:0:0:
256,192,159525,1,8,1:0:0:0:
256,192,159613,1,0,1:0:0:0:
256,192,159701,1,8,1:0:0:0:
256,192,159878,1,0,1:0:0:0:
256,192,160230,1,0,1:0:0:0:
256,192,160319,1,0,1:0:0:0:
256,192,160407,1,8,1:0:0:0:
256,192,160583,1,0,1:0:0:0:
256,192,160760,1,12,1:0:0:0:
256,192,160936,1,0,1:0:0:0:
256,192,161025,1,0,1:0:0:0:
256,192,161113,1,8,1:0:0:0:
256,192,161289,1,0,1:0:0:0:
256,192,161466,1,0,1:0:0:0:
256,192,161642,1,8,1:0:0:0:
256,192,161730,1,0,1:0:0:0:
256,192,161819,1,8,1:0:0:0:
256,192,161995,1,0,1:0:0:0:
256,192,162172,1,8,1:0:0:0:
256,192,162260,1,8,1:0:0:0:
256,192,162348,1,0,1:0:0:0:
256,192,162436,1,8,1:0:0:0:
256,192,162525,1,0,1:0:0:0:
256,192,162613,1,0,1:0:0:0:
256,192,162701,1,8,1:0:0:0:
256,192,162789,1,0,1:0:0:0:
256,192,162878,1,8,1:0:0:0:
256,192,162936,1,8,1:0:0:0:
256,192,162995,1,8,1:0:0:0:
256,192,163054,1,0,1:0:0:0:
256,192,163142,1,0,1:0:0:0:
256,192,163230,1,8,1:0:0:0:
256,192,163289,1,8,1:0:0:0:
256,192,163348,1,8,1:0:0:0:
256,192,163407,1,0,1:0:0:0:
256,192,163495,1,8,1:0:0:0:
256,192,163583,1,0,1:0:0:0:
256,192,163819,1,0,1:0:0:0:
256,192,163936,1,8,1:0:0:0:
256,192,164172,1,0,1:0:0:0:
256,192,164289,1,0,1:0:0:0:
256,192,164525,1,8,1:0:0:0:
256,192,164642,1,8,1:0:0:0:
256,192,164995,1,0,1:0:0:0:
256,192,165230,1,0,1:0:0:0:
256,192,165348,1,8,1:0:0:0:
256,192,165583,1,0,1:0:0:0:
256,192,165701,1,0,1:0:0:0:
256,192,165936,1,8,1:0:0:0:
256,192,166054,1,8,1:0:0:0:
256,192,166172,1,0,1:0:0:0:
256,192,166289,1,0,1:0:0:0:
256,192,166407,1,12,1:0:0:0:
256,192,166642,1,0,1:0:0:0:
256,192,166760,1,8,1:0:0:0:
256,192,166995,1,0,1:0:0:0:
256,192,167113,1,0,1:0:0:0:
256,192,167348,1,8,1:0:0:0:
256,192,167466,1,8,1:0:0:0:
256,192,167701,1,0,1:0:0:0:
256,192,167819,1,8,1:0:0:0:
256,192,168054,1,0,1:0:0:0:
256,192,168172,1,0,1:0:0:0:
256,192,168407,1,8,1:0:0:0:
256,192,168525,1,0,1:0:0:0:
256,192,168701,1,8,1:0:0:0:
256,192,168878,1,8,1:0:0:0:
256,192,169113,1,0,1:0:0:0:
256,192,169230,1,12,1:0:0:0:
256,192,169466,1,0,1:0:0:0:
256,192,169583,1,8,1:0:0:0:
256,192,169819,1,8,1:0:0:0:
256,192,169936,1,8,1:0:0:0:
256,192,170172,1,8,1:0:0:0:
256,192,170289,1,8,1:0:0:0:
256,192,170407,1,0,1:0:0:0:
256,192,170525,1,8,1:0:0:0:
256,192,170642,1,0,1:0:0:0:
256,192,170878,1,0,1:0:0:0:
256,192,170995,1,8,1:0:0:0:
256,192,171113,1,0,1:0:0:0:
256,192,171230,1,0,1:0:0:0:
256,192,171348,1,8,1:0:0:0:
256,192,171701,1,8,1:0:0:0:
256,192,172054,1,12,1:0:0:0:
256,192,172289,1,0,1:0:0:0:
256,192,172407,1,0,1:0:0:0:
256,192,172642,1,0,1:0:0:0:
256,192,172760,1,12,1:0:0:0:
256,192,172995,1,0,1:0:0:0:
256,192,173113,1,8,1:0:0:0:
256,192,173348,1,8,1:0:0:0:
256,192,173466,1,0,1:0:0:0:
256,192,173583,1,0,1:0:0:0:
256,192,173701,1,0,1:0:0:0:
256,192,173819,1,8,1:0:0:0:
256,192,173936,1,0,1:0:0:0:
256,192,174054,1,0,1:0:0:0:
256,192,174172,1,8,1:0:0:0:
256,192,174289,1,8,1:0:0:0:
256,192,174407,1,0,1:0:0:0:
256,192,174525,1,8,1:0:0:0:
256,192,174642,1,8,1:0:0:0:
256,192,174760,1,8,1:0:0:0:
256,192,174878,1,0,1:0:0:0:
256,192,175113,1,0,1:0:0:0:
256,192,175230,1,8,1:0:0:0:
256,192,175289,1,8,1:0:0:0:
256,192,175348,1,0,1:0:0:0:
256,192,175466,1,8,1:0:0:0:
256,192,175583,1,0,1:0:0:0:
256,192,175819,1,8,1:0:0:0:
256,192,175936,1,8,1:0:0:0:
256,192,176054,1,0,1:0:0:0:
256,192,176172,1,8,1:0:0:0:
256,192,176289,1,0,1:0:0:0:
256,192,176525,1,0,1:0:0:0:
256,192,176642,1,8,1:0:0:0:
256,192,176701,1,8,1:0:0:0:
256,192,176760,1,8,1:0:0:0:
256,192,176878,1,0,1:0:0:0:
256,192,176995,1,0,1:0:0:0:
256,192,177230,1,8,1:0:0:0:
256,192,177348,1,8,1:0:0:0:
256,192,177466,1,0,1:0:0:0:
256,192,177583,1,8,1:0:0:0:
256,192,177701,1,0,1:0:0:0:
256,192,177936,1,0,1:0:0:0:
256,192,178054,1,8,1:0:0:0:
256,192,178113,1,8,1:0:0:0:
256,192,178172,1,0,1:0:0:0:
256,192,178289,1,8,1:0:0:0:
256,192,178407,1,0,1:0:0:0:
256,192,178642,1,0,1:0:0:0:
256,192,178760,1,8,1:0:0:0:
256,192,178878,1,8,1:0:0:0:
256,192,178995,1,8,1:0:0:0:
256,192,179113,1,0,1:0:0:0:
256,192,179348,1,0,1:0:0:0:
256,192,179466,1,8,1:0:0:0:
256,192,179525,1,8,1:0:0:0:
256,192,179583,1,8,1:0:0:0:
256,192,179701,1,0,1:0:0:0:
256,192,179819,1,0,1:0:0:0:
256,192,180054,1,8,1:0:0:0:
256,192,180172,1,8,1:0:0:0:
256,192,180289,1,0,1:0:0:0:
256,192,180407,1,0,1:0:0:0:
256,192,180525,1,12,1:0:0:0:
256,192,180760,1,0,1:0:0:0:
256,192,180878,1,8,1:0:0:0:
256,192,181113,1,0,1:0:0:0:
256,192,181230,1,8,1:0:0:0:
256,192,181466,1,0,1:0:0:0:
256,192,181583,1,0,1:0:0:0:
256,192,181819,1,0,1:0:0:0:
256,192,181936,1,8,1:0:0:0:
256,192,182172,1,0,1:0:0:0:
256,192,182289,1,8,1:0:0:0:
256,192,182525,1,0,1:0:0:0:
256,192,182642,1,8,1:0:0:0:
256,192,182878,1,8,1:0:0:0:
256,192,182995,1,8,1:0:0:0:
256,192,183230,1,8,1:0:0:0:
256,192,183348,1,0,1:0:0:0:
256,192,183583,1,0,1:0:0:0:
256,192,183701,1,8,1:0:0:0:
256,192,183760,1,8,1:0:0:0:
256,192,183819,1,0,1:0:0:0:
256,192,183936,1,8,1:0:0:0:
256,192,184054,1,0,1:0:0:0:
256,192,184289,1,8,1:0:0:0:
256,192,184407,1,8,1:0:0:0:
256,192,184760,1,4,1:0:0:0:
256,192,184995,1,0,1:0:0:0:
256,192,185113,1,8,1:0:0:0:
256,192,185466,1,4,1:0:0:0:
256,192,185819,1,8,1:0:0:0:
256,192,186172,1,4,1:0:0:0:
256,192,186407,1,0,1:0:0:0:
256,192,186525,1,8,1:0:0:0:
256,192,186583,1,8,1:0:0:0:
256,192,186642,1,0,1:0:0:0:
256,192,186760,1,8,1:0:0:0:
256,192,186878,1,0,1:0:0:0:
256,192,187113,1,8,1:0:0:0:
256,192,187230,1,8,1:0:0:0:
256,192,187348,1,0,1:0:0:0:
256,192,187466,1,8,1:0:0:0:
256,192,187583,1,0,1:0:0:0:
256,192,187819,1,0,1:0:0:0:
256,192,187936,1,8,1:0:0:0:
256,192,187995,1,8,1:0:0:0:
256,192,188054,1,8,1:0:0:0:
256,192,188172,1,0,1:0:0:0:
256,192,188289,1,0,1:0:0:0:
256,192,188525,1,8,1:0:0:0:
256,192,188642,1,8,1:0:0:0:
256,192,188760,1,0,1:0:0:0:
256,192,188878,1,8,1:0:0:0:
256,192,188995,1,0,1:0:0:0:
256,192,189230,1,0,1:0:0:0:
256,192,189348,1,8,1:0:0:0:
256,192,189407,1,8,1:0:0:0:
256,192,189466,1,0,1:0:0:0:
256,192,189583,1,8,1:0:0:0:
256,192,189701,1,0,1:0:0:0:
256,192,189936,1,0,1:0:0:0:
256,192,190054,1,8,1:0:0:0:
256,192,190172,1,8,1:0:0:0:
256,192,190289,1,8,1:0:0:0:
256,192,190407,1,0,1:0:0:0:
256,192,190642,1,0,1:0:0:0:
256,192,190760,1,8,1:0:0:0:
256,192,190819,1,8,1:0:0:0:
256,192,190878,1,8,1:0:0:0:
256,192,190995,1,0,1:0:0:0:
256,192,191113,1,0,1:0:0:0:
256,192,191348,1,8,1:0:0:0:
256,192,191466,1,8,1:0:0:0:
256,192,191583,1,0,1:0:0:0:
256,192,191701,1,8,1:0:0:0:
256,192,191819,1,4,1:0:0:0:
256,192,192054,1,0,1:0:0:0:
256,192,192113,1,0,1:0:0:0:
256,192,192172,1,8,1:0:0:0:
256,192,192407,1,0,1:0:0:0:
256,192,192525,1,0,1:0:0:0:
256,192,192760,1,0,1:0:0:0:
256,192,192878,1,8,1:0:0:0:
256,192,193113,1,8,1:0:0:0:
256,192,193230,1,0,1:0:0:0:
256,192,193466,1,0,1:0:0:0:
256,192,193525,1,0,1:0:0:0:
256,192,193583,1,8,1:0:0:0:
256,192,193819,1,0,1:0:0:0:
256,192,193936,1,8,1:0:0:0:
256,192,194172,1,8,1:0:0:0:
256,192,194289,1,8,1:0:0:0:
256,192,194407,1,0,1:0:0:0:
256,192,194525,1,8,1:0:0:0:
256,192,194642,1,0,1:0:0:0:
256,192,194878,1,0,1:0:0:0:
256,192,194995,1,12,1:0:0:0:
256,192,195230,1,8,1:0:0:0:
256,192,195348,1,0,1:0:0:0:
256,192,195466,1,0,1:0:0:0:
256,192,195583,1,0,1:0:0:0:
256,192,195701,1,12,1:0:0:0:
256,192,196054,1,0,1:0:0:0:
256,192,196172,1,8,1:0:0:0:
256,192,196289,1,8,1:0:0:0:
256,192,196407,1,0,1:0:0:0:
256,192,196525,1,0,1:0:0:0:
256,192,196642,1,0,1:0:0:0:
256,192,196760,1,8,1:0:0:0:
256,192,196819,1,8,1:0:0:0:
256,192,196878,1,8,1:0:0:0:
256,192,196995,1,8,1:0:0:0:
256,192,197113,1,8,1:0:0:0:
256,192,197172,1,8,1:0:0:0:
256,192,197230,1,8,1:0:0:0:
256,192,197348,1,8,1:0:0:0:
256,192,197466,1,4,1:0:0:0:
256,192,197701,1,0,1:0:0:0:
256,192,197819,1,8,1:0:0:0:
256,192,197878,1,8,1:0:0:0:
256,192,197936,1,0,1:0:0:0:
256,192,198054,1,8,1:0:0:0:
256,192,198172,1,0,1:0:0:0:
256,192,198407,1,8,1:0:0:0:
256,192,198525,1,8,1:0:0:0:
256,192,198642,1,0,1:0:0:0:
256,192,198760,1,8,1:0:0:0:
256,192,198878,1,0,1:0:0:0:
256,192,199113,1,0,1:0:0:0:
256,192,199230,1,8,1:0:0:0:
256,192,199289,1,8,1:0:0:0:
256,192,199348,1,8,1:0:0:0:
256,192,199466,1,0,1:0:0:0:
256,192,199583,1,0,1:0:0:0:
256,192,199819,1,8,1:0:0:0:
256,192,199936,1,8,1:0:0:0:
256,192,200054,1,0,1:0:0:0:
256,192,200172,1,8,1:0:0:0:
256,192,200289,1,0,1:0:0:0:
256,192,200525,1,0,1:0:0:0:
256,192,200642,1,8,1:0:0:0:
256,192,200760,1,8,1:0:0:0:
256,192,200878,1,0,1:0:0:0:
256,192,200995,1,0,1:0:0:0:
256,192,201230,1,0,1:0:0:0:
256,192,201348,1,8,1:0:0:0:
256,192,201466,1,0,1:0:0:0:
256,192,201583,1,0,1:0:0:0:
256,192,201701,1,8,1:0:0:0:
256,192,201936,1,0,1:0:0:0:
256,192,201995,1,0,1:0:0:0:
256,192,202054,1,8,1:0:0:0:
256,192,202289,1,8,1:0:0:0:
256,192,202407,1,0,1:0:0:0:
256,192,202642,1,0,1:0:0:0:
256,192,202701,1,0,1:0:0:0:
256,192,202760,1,8,1:0:0:0:
256,192,202995,1,8,1:0:0:0:
256,192,203113,1,4,1:0:0:0:
256,192,203348,1,0,1:0:0:0:
256,192,203407,1,0,1:0:0:0:
256,192,203466,1,8,1:0:0:0:
256,192,203701,1,0,1:0:0:0:
256,192,203819,1,8,1:0:0:0:
256,192,204054,1,0,1:0:0:0:
256,192,204113,1,0,1:0:0:0:
256,192,204172,1,8,1:0:0:0:
256,192,204407,1,0,1:0:0:0:
256,192,204525,1,8,1:0:0:0:
256,192,204760,1,8,1:0:0:0:
256,192,204819,1,0,1:0:0:0:
256,192,204878,1,8,1:0:0:0:
256,192,205113,1,0,1:0:0:0:
256,192,205230,1,8,1:0:0:0:
256,192,205466,1,0,1:0:0:0:
256,192,205583,1,8,1:0:0:0:
256,192,205701,1,0,1:0:0:0:
256,192,205819,1,8,1:0:0:0:
256,192,205936,1,4,1:0:0:0:
256,192,206172,1,0,1:0:0:0:
256,192,206230,1,0,1:0:0:0:
256,192,206289,1,8,1:0:0:0:
256,192,206525,1,0,1:0:0:0:
256,192,206642,1,0,1:0:0:0:
256,192,206878,1,0,1:0:0:0:
256,192,206936,1,0,1:0:0:0:
256,192,206995,1,8,1:0:0:0:
256,192,207230,1,8,1:0:0:0:
256,192,207348,1,4,1:0:0:0:
256,192,207583,1,0,1:0:0:0:
256,192,207701,1,12,1:0:0:0:
256,192,207936,1,0,1:0:0:0:
256,192,208054,1,8,1:0:0:0:
256,192,208113,1,8,1:0:0:0:
256,192,208172,1,8,1:0:0:0:
256,192,208289,1,8,1:0:0:0:
256,192,208407,1,8,1:0:0:0:
256,192,208466,1,8,1:0:0:0:
256,192,208525,1,8,1:0:0:0:
256,192,208642,1,8,1:0:0:0:
256,192,208760,1,4,1:0:0:0:
256,192,208995,1,0,1:0:0:0:
256,192,209113,1,8,1:0:0:0:
256,192,209348,1,8,1:0:0:0:
256,192,209466,1,8,1:0:0:0:
256,192,209819,1,8,1:0:0:0:
256,192,210172,1,4,1:0:0:0:
256,192,210525,1,12,1:0:0:0:
256,192,210878,1,4,1:0:0:0:
256,192,211230,1,12,1:0:0:0:
256,192,211583,1,0,1:0:0:0:
256,192,211819,1,0,1:0:0:0:
256,192,211936,1,8,1:0:0:0:
256,192,212172,1,0,1:0:0:0:
256,192,212289,1,8,1:0:0:0:
256,192,212642,1,8,1:0:0:0:
256,192,212995,1,4,1:0:0:0:
256,192,213348,1,12,1:0:0:0:
256,192,213701,1,4,1:0:0:0:
256,192,214054,1,12,1:0:0:0:
256,192,214407,1,8,1:0:0:0:
256,192,214642,1,8,1:0:0:0:
256,192,214760,1,8,1:0:0:0:
256,192,214995,1,0,1:0:0:0:
256,192,215113,1,8,1:0:0:0:
256,192,215466,1,8,1:0:0:0:
256,192,215819,1,4,1:0:0:0:
256,192,216172,1,12,1:0:0:0:
256,192,216525,1,4,1:0:0:0:
256,192,216878,1,12,1:0:0:0:
256,192,217230,1,0,1:0:0:0:
256,192,217466,1,0,1:0:0:0:
256,192,217583,1,8,1:0:0:0:
256,192,217819,1,0,1:0:0:0:
256,192,217936,1,0,1:0:0:0:
256,192,218172,1,0,1:0:0:0:
256,192,218289,1,8,1:0:0:0:
256,192,218642,1,4,1:0:0:0:
256,192,218995,1,12,1:0:0:0:
256,192,219348,1,4,1:0:0:0:
256,192,219701,1,12,1:0:0:0:
256,192,220054,1,8,1:0:0:0:
256,192,220289,1,8,1:0:0:0:
256,192,220407,1,0,1:0:0:0:
256,192,220642,1,0,1:0:0:0:
256,192,220760,1,8,1:0:0:0:
256,192,221113,1,8,1:0:0:0:
256,192,221466,1,0,1:0:0:0:
256,192,221701,1,8,1:0:0:0:
256,192,221819,1,0,1:0:0:0:
256,192,222054,1,8,1:0:0:0:
256,192,222172,1,0,1:0:0:0:
256,192,222525,1,8,1:0:0:0:
256,192,222878,1,8,1:0:0:0:
256,192,223113,1,0,1:0:0:0:
256,192,223230,1,8,1:0:0:0:
256,192,223466,1,0,1:0:0:0:
256,192,223583,1,8,1:0:0:0:
256,192,223936,1,8,1:0:0:0:
256,192,224289,1,0,1:0:0:0:
256,192,224525,1,8,1:0:0:0:
256,192,224642,1,0,1:0:0:0:
256,192,224878,1,8,1:0:0:0:
256,192,224995,1,0,1:0:0:0:
256,192,225348,1,8,1:0:0:0:
256,192,225701,1,4,1:0:0:0:
256,192,225936,1,8,1:0:0:0:
256,192,226054,1,0,1:0:0:0:
256,192,226289,1,0,1:0:0:0:
256,192,226407,1,8,1:0:0:0:
256,192,226760,1,8,1:0:0:0:
256,192,227113,1,4,1:0:0:0:
256,192,227348,1,8,1:0:0:0:
256,192,227466,1,0,1:0:0:0:
256,192,227701,1,8,1:0:0:0:
256,192,227819,1,0,1:0:0:0:
256,192,228172,1,8,1:0:0:0:
256,192,228525,1,4,1:0:0:0:
256,192,228760,1,0,1:0:0:0:
256,192,228878,1,8,1:0:0:0:
256,192,229113,1,8,1:0:0:0:
256,192,229230,1,4,1:0:0:0:
256,192,229466,1,8,1:0:0:0:
256,192,229583,1,8,1:0:0:0:
256,192,229819,1,8,1:0:0:0:
256,192,229936,1,4,1:0:0:0:
256,192,230172,1,0,1:0:0:0:
256,192,230289,1,8,1:0:0:0:
256,192,230407,1,0,1:0:0:0:
256,192,230525,1,0,1:0:0:0:
256,192,230642,1,8,1:0:0:0:
256,192,230701,1,8,1:0:0:0:
256,192,230760,1,8,1:0:0:0:
256,192,230878,1,8,1:0:0:0:
256,192,230995,1,8,1:0:0:0:
256,192,231054,1,8,1:0:0:0:
256,192,231113,1,8,1:0:0:0:
256,192,231230,1,8,1:0:0:0:
256,192,231348,1,4,1:0:0:0:
256,192,231525,12,0,233819,1:0:0:0:
256,192,234172,5,8,1:0:0:0:
256,192,234878,1,8,1:0:0:0:
256,192,235230,1,0,1:0:0:0:
256,192,235583,1,0,1:0:0:0:
256,192,236289,1,0,1:0:0:0:
256,192,236466,1,0,1:0:0:0:
256,192,236642,1,8,1:0:0:0:
256,192,236995,1,8,1:0:0:0:
256,192,238054,1,0,1:0:0:0:
256,192,238407,1,8,1:0:0:0:
256,192,238936,1,8,1:0:0:0:
256,192,239025,1,8,1:0:0:0:
256,192,239113,1,0,1:0:0:0:
256,192,239466,1,0,1:0:0:0:
256,192,239819,1,8,1:0:0:0:
256,192,240878,1,0,1:0:0:0:
256,192,241230,1,8,1:0:0:0:
256,192,242642,1,4,1:0:0:0:
256,192,244936,1,0,1:0:0:0:
256,192,245113,1,0,1:0:0:0:
256,192,245289,1,8,1:0:0:0:
256,192,245466,1,4,1:0:0:0:
256,192,245819,1,8,1:0:0:0:
256,192,245995,1,8,1:0:0:0:
256,192,246348,1,0,1:0:0:0:
256,192,246525,1,0,1:0:0:0:
256,192,246701,1,8,1:0:0:0:
256,192,247054,1,0,1:0:0:0:
256,192,247230,1,8,1:0:0:0:
256,192,247407,1,8,1:0:0:0:
256,192,247760,1,8,1:0:0:0:
256,192,247936,1,8,1:0:0:0:
256,192,248113,1,8,1:0:0:0:
256,192,248289,1,0,1:0:0:0:
256,192,248642,1,0,1:0:0:0:
256,192,248995,1,8,1:0:0:0:
256,192,249348,1,0,1:0:0:0:
256,192,249701,1,8,1:0:0:0:
256,192,249878,1,0,1:0:0:0:
256,192,250054,1,8,1:0:0:0:
256,192,250230,1,8,1:0:0:0:
256,192,250583,1,8,1:0:0:0:
256,192,250760,1,8,1:0:0:0:
256,192,250936,1,8,1:0:0:0:
256,192,251113,1,4,1:0:0:0:
256,192,251466,1,0,1:0:0:0:
256,192,251642,1,8,1:0:0:0:
256,192,251995,1,8,1:0:0:0:
256,192,252172,1,8,1:0:0:0:
256,192,252348,1,0,1:0:0:0:
256,192,252525,1,8,1:0:0:0:
256,192,252701,1,0,1:0:0:0:
256,192,252878,1,8,1:0:0:0:
256,192,253054,1,8,1:0:0:0:
256,192,253407,1,0,1:0:0:0:
256,192,253583,1,0,1:0:0:0:
256,192,253760,1,8,1:0:0:0:
256,192,253936,1,4,1:0:0:0:
256,192,254289,1,0,1:0:0:0:
256,192,254466,1,0,1:0:0:0:
256,192,254642,1,8,1:0:0:0:
256,192,254995,1,0,1:0:0:0:
256,192,255348,1,12,1:0:0:0:
256,192,255525,1,0,1:0:0:0:
256,192,255613,1,0,1:0:0:0:
256,192,255701,1,8,1:0:0:0:
256,192,255878,1,0,1:0:0:0:
256,192,255966,1,0,1:0:0:0:
256,192,256054,1,0,1:0:0:0:
256,192,256230,1,8,1:0:0:0:
256,192,256407,1,0,1:0:0:0:
256,192,256495,1,0,1:0:0:0:
256,192,256583,1,8,1:0:0:0:
256,192,256672,1,8,1:0:0:0:
256,192,256760,1,0,1:0:0:0:
256,192,256936,1,0,1:0:0:0:
256,192,257025,1,0,1:0:0:0:
256,192,257113,1,8,1:0:0:0:
256,192,257289,1,0,1:0:0:0:
256,192,257466,1,8,1:0:0:0:
256,192,257554,1,8,1:0:0:0:
256,192,257642,1,0,1:0:0:0:
256,192,257819,1,8,1:0:0:0:
256,192,257995,1,0,1:0:0:0:
256,192,258172,1,8,1:0:0:0:
256,192,258260,1,0,1:0:0:0:
256,192,258348,1,8,1:0:0:0:
256,192,258436,1,0,1:0:0:0:
256,192,258525,1,8,1:0:0:0:
256,192,258613,1,8,1:0:0:0:
256,192,258701,1,0,1:0:0:0:
256,192,258789,1,0,1:0:0:0:
256,192,258878,1,8,1:0:0:0:
256,192,258936,1,8,1:0:0:0:
256,192,258995,1,8,1:0:0:0:
256,192,259054,1,0,1:0:0:0:
256,192,259142,1,0,1:0:0:0:
256,192,259230,1,8,1:0:0:0:
256,192,259289,1,8,1:0:0:0:
256,192,259348,1,8,1:0:0:0:
256,192,259407,1,0,1:0:0:0:
256,192,259495,1,0,1:0:0:0:
256,192,259583,8,0,260819,1:0:0:0:
256,192,260995,5,0,1:0:0:0:
256,192,261083,1,0,1:0:0:0:
256,192,261172,1,8,1:0:0:0:
256,192,261260,1,0,1:0:0:0:
256,192,261348,1,8,1:0:0:0:
256,192,261436,1,8,1:0:0:0:
256,192,261525,1,0,1:0:0:0:
256,192,261613,1,0,1:0:0:0:
256,192,261701,1,8,1:0:0:0:
256,192,261789,1,8,1:0:0:0:
256,192,261878,1,8,1:0:0:0:
256,192,261966,1,0,1:0:0:0:
256,192,262054,1,8,1:0:0:0:
256,192,262142,1,8,1:0:0:0:
256,192,262230,1,0,1:0:0:0:
256,192,262319,1,0,1:0:0:0:
256,192,262407,1,8,1:0:0:0:
256,192,262583,1,0,1:0:0:0:
256,192,262672,1,0,1:0:0:0:
256,192,262760,1,8,1:0:0:0:
256,192,262936,1,8,1:0:0:0:
256,192,263113,1,0,1:0:0:0:
256,192,263201,1,0,1:0:0:0:
256,192,263289,1,8,1:0:0:0:
256,192,263378,1,0,1:0:0:0:
256,192,263466,1,8,1:0:0:0:
256,192,263554,1,8,1:0:0:0:
256,192,263642,1,0,1:0:0:0:
256,192,263730,1,0,1:0:0:0:
256,192,263819,1,8,1:0:0:0:
256,192,263995,1,0,1:0:0:0:
256,192,264083,1,0,1:0:0:0:
256,192,264172,1,8,1:0:0:0:
256,192,264348,1,8,1:0:0:0:
256,192,264525,1,0,1:0:0:0:
256,192,264613,1,0,1:0:0:0:
256,192,264701,1,8,1:0:0:0:
256,192,264789,1,8,1:0:0:0:
256,192,264878,1,0,1:0:0:0:
256,192,264966,1,0,1:0:0:0:
256,192,265054,1,8,1:0:0:0:
256,192,265142,1,0,1:0:0:0:
256,192,265230,1,8,1:0:0:0:
256,192,265407,1,0,1:0:0:0:
256,192,265495,1,0,1:0:0:0:
256,192,265583,1,8,1:0:0:0:
256,192,265760,1,0,1:0:0:0:
256,192,265936,1,8,1:0:0:0:
256,192,266025,1,8,1:0:0:0:
256,192,266113,1,8,1:0:0:0:
256,192,266201,1,8,1:0:0:0:
256,192,266289,1,0,1:0:0:0:
256,192,266466,1,0,1:0:0:0:
256,192,266554,1,0,1:0:0:0:
256,192,266642,1,8,1:0:0:0:
256,192,266819,1,0,1:0:0:0:
256,192,266907,1,0,1:0:0:0:
256,192,266995,1,0,1:0:0:0:
256,192,267172,1,8,1:0:0:0:
256,192,267348,1,0,1:0:0:0:
256,192,267525,1,8,1:0:0:0:
256,192,267613,1,8,1:0:0:0:
256,192,267701,1,0,1:0:0:0:
256,192,267878,1,8,1:0:0:0:
256,192,268054,1,4,1:0:0:0:
256,192,268230,1,0,1:0:0:0:
256,192,268319,1,0,1:0:0:0:
256,192,268407,1,8,1:0:0:0:
256,192,268583,1,4,1:0:0:0:
256,192,268760,1,0,1:0:0:0:
256,192,268848,1,0,1:0:0:0:
256,192,268936,1,8,1:0:0:0:
256,192,269025,1,0,1:0:0:0:
256,192,269113,1,8,1:0:0:0:
256,192,269289,1,0,1:0:0:0:
256,192,269466,1,12,1:0:0:0:
256,192,269642,1,8,1:0:0:0:
256,192,269730,1,0,1:0:0:0:
256,192,269819,1,8,1:0:0:0:
256,192,269995,1,4,1:0:0:0:
256,192,270172,1,8,1:0:0:0:
256,192,270260,1,0,1:0:0:0:
256,192,270348,1,0,1:0:0:0:
256,192,270436,1,0,1:0:0:0:
256,192,270525,1,8,1:0:0:0:
256,192,270701,1,0,1:0:0:0:
256,192,270878,1,12,1:0:0:0:
256,192,271054,1,0,1:0:0:0:
256,192,271142,1,0,1:0:0:0:
256,192,271230,1,0,1:0:0:0:
256,192,271407,1,0,1:0:0:0:
256,192,271583,1,12,1:0:0:0:
256,192,271760,1,8,1:0:0:0:
256,192,271848,1,8,1:0:0:0:
256,192,271936,1,0,1:0:0:0:
256,192,272113,1,0,1:0:0:0:
256,192,272289,1,12,1:0:0:0:
256,192,272466,1,0,1:0:0:0:
256,192,272554,1,0,1:0:0:0:
256,192,272642,1,8,1:0:0:0:
256,192,272730,1,8,1:0:0:0:
256,192,272819,1,0,1:0:0:0:
256,192,273172,1,12,1:0:0:0:
256,192,273348,1,12,1:0:0:0:
256,192,273701,1,0,1:0:0:0:
256,192,273789,1,0,1:0:0:0:
256,192,273878,1,0,1:0:0:0:
256,192,273966,1,0,1:0:0:0:
256,192,274054,1,8,1:0:0:0:
256,192,274230,1,0,1:0:0:0:
256,192,274407,1,0,1:0:0:0:
256,192,274583,1,8,1:0:0:0:
256,192,274672,1,8,1:0:0:0:
256,192,274760,1,0,1:0:0:0:
256,192,274848,1,8,1:0:0:0:
256,192,274936,1,8,1:0:0:0:
256,192,275025,1,8,1:0:0:0:
256,192,275113,1,0,1:0:0:0:
256,192,275289,1,0,1:0:0:0:
256,192,275378,1,0,1:0:0:0:
256,192,275466,1,8,1:0:0:0:
256,192,275642,1,0,1:0:0:0:
256,192,275819,1,8,1:0:0:0:
256,192,275995,1,0,1:0:0:0:
256,192,276083,1,0,1:0:0:0:
256,192,276172,1,8,1:0:0:0:
256,192,276260,1,0,1:0:0:0:
256,192,276348,1,8,1:0:0:0:
256,192,276525,1,4,1:0:0:0:
256,192,276701,1,0,1:0:0:0:
256,192,276789,1,0,1:0:0:0:
256,192,276878,1,8,1:0:0:0:
256,192,277054,1,0,1:0:0:0:
256,192,277230,1,8,1:0:0:0:
256,192,277407,1,8,1:0:0:0:
256,192,277495,1,0,1:0:0:0:
256,192,277583,1,8,1:0:0:0:
256,192,277760,1,0,1:0:0:0:
256,192,277936,1,8,1:0:0:0:
256,192,278025,1,8,1:0:0:0:
256,192,278113,1,0,1:0:0:0:
256,192,278201,1,0,1:0:0:0:
256,192,278289,1,8,1:0:0:0:
256,192,278466,1,8,1:0:0:0:
256,192,278642,1,0,1:0:0:0:
256,192,278819,1,0,1:0:0:0:
256,192,278995,1,8,1:0:0:0:
256,192,279083,1,8,1:0:0:0:
256,192,279172,1,8,1:0:0:0:
256,192,279348,1,4,1:0:0:0:
256,192,279525,1,0,1:0:0:0:
256,192,279613,1,0,1:0:0:0:
256,192,279701,1,8,1:0:0:0:
256,192,279878,1,4,1:0:0:0:
256,192,280054,1,0,1:0:0:0:
256,192,280142,1,0,1:0:0:0:
256,192,280230,1,8,1:0:0:0:
256,192,280319,1,0,1:0:0:0:
256,192,280407,1,8,1:0:0:0:
256,192,280583,1,0,1:0:0:0:
256,192,280760,1,12,1:0:0:0:
256,192,280936,1,0,1:0:0:0:
256,192,281025,1,0,1:0:0:0:
256,192,281113,1,8,1:0:0:0:
256,192,281289,1,12,1:0:0:0:
256,192,281466,1,0,1:0:0:0:
256,192,281554,1,8,1:0:0:0:
256,192,281642,1,0,1:0:0:0:
256,192,281730,1,0,1:0:0:0:
256,192,281819,1,8,1:0:0:0:
256,192,281907,1,8,1:0:0:0:
256,192,281995,1,0,1:0:0:0:
256,192,282172,1,12,1:0:0:0:
256,192,282348,1,0,1:0:0:0:
256,192,282436,1,0,1:0:0:0:
256,192,282525,1,0,1:0:0:0:
256,192,282701,1,0,1:0:0:0:
256,192,282878,1,8,1:0:0:0:
256,192,283054,1,8,1:0:0:0:
256,192,283142,1,8,1:0:0:0:
256,192,283230,1,0,1:0:0:0:
256,192,283407,1,0,1:0:0:0:
256,192,283583,1,12,1:0:0:0:
256,192,283760,1,8,1:0:0:0:
256,192,283848,1,0,1:0:0:0:
256,192,283936,1,8,1:0:0:0:
256,192,284113,1,0,1:0:0:0:
256,192,284466,1,0,1:0:0:0:
256,192,284554,1,0,1:0:0:0:
256,192,284642,1,8,1:0:0:0:
256,192,284819,1,0,1:0:0:0:
256,192,284995,1,12,1:0:0:0:
256,192,285172,1,0,1:0:0:0:
256,192,285260,1,0,1:0:0:0:
256,192,285348,1,8,1:0:0:0:
256,192,285525,1,0,1:0:0:0:
256,192,285701,1,0,1:0:0:0:
256,192,285878,1,8,1:0:0:0:
256,192,285966,1,0,1:0:0:0:
256,192,286054,1,8,1:0:0:0:
256,192,286230,1,0,1:0:0:0:
256,192,286407,1,8,1:0:0:0:
256,192,286495,1,8,1:0:0:0:
256,192,286583,1,0,1:0:0:0:
256,192,286672,1,8,1:0:0:0:
256,192,286760,1,0,1:0:0:0:
256,192,286848,1,0,1:0:0:0:
256,192,286936,1,8,1:0:0:0:
256,192,287025,1,0,1:0:0:0:
256,192,287113,1,8,1:0:0:0:
256,192,287172,1,8,1:0:0:0:
256,192,287230,1,8,1:0:0:0:
256,192,287289,1,0,1:0:0:0:
256,192,287378,1,0,1:0:0:0:
256,192,287466,1,8,1:0:0:0:
256,192,287525,1,8,1:0:0:0:
256,192,287583,1,8,1:0:0:0:
256,192,287642,1,0,1:0:0:0:
256,192,287730,1,0,1:0:0:0:
256,192,287819,1,8,1:0:0:0:
256,192,287995,1,0,1:0:0:0:
256,192,288083,1,0,1:0:0:0:
256,192,288172,1,0,1:0:0:0:
256,192,288348,1,0,1:0:0:0:
256,192,288525,1,8,1:0:0:0:
256,192,288701,1,0,1:0:0:0:
256,192,288789,1,0,1:0:0:0:
256,192,288878,1,8,1:0:0:0:
256,192,289054,1,0,1:0:0:0:
256,192,289407,1,0,1:0:0:0:
256,192,289583,1,0,1:0:0:0:
256,192,289760,1,8,1:0:0:0:
256,192,289848,1,0,1:0:0:0:
256,192,289936,1,8,1:0:0:0:
256,192,290113,1,0,1:0:0:0:
256,192,290201,1,0,1:0:0:0:
256,192,290289,1,0,1:0:0:0:
256,192,290466,1,8,1:0:0:0:
256,192,290642,1,12,1:0:0:0:
256,192,290819,1,0,1:0:0:0:
256,192,290995,1,0,1:0:0:0:
256,192,291172,1,0,1:0:0:0:
256,192,291348,1,8,1:0:0:0:
256,192,291525,1,0,1:0:0:0:
256,192,291701,1,0,1:0:0:0:
256,192,291878,1,0,1:0:0:0:
256,192,292054,1,8,1:0:0:0:
256,192,292142,1,8,1:0:0:0:
256,192,292230,1,0,1:0:0:0:
256,192,292319,1,0,1:0:0:0:
256,192,292407,1,8,1:0:0:0:
256,192,292495,1,0,1:0:0:0:
256,192,292583,1,0,1:0:0:0:
256,192,292672,1,0,1:0:0:0:
256,192,292760,1,8,1:0:0:0:
256,192,292819,1,8,1:0:0:0:
256,192,292878,1,8,1:0:0:0:
256,192,292936,1,0,1:0:0:0:
256,192,293025,1,0,1:0:0:0:
256,192,293113,1,8,1:0:0:0:
256,192,293172,1,8,1:0:0:0:
256,192,293230,1,8,1:0:0:0:
256,192,293289,1,0,1:0:0:0:
256,192,293378,1,8,1:0:0:0:
256,192,293466,1,0,1:0:0:0:
256,192,293819,1,0,1:0:0:0:
256,192,293936,1,0,1:0:0:0:
256,192,294054,1,0,1:0:0:0:
256,192,294172,1,12,1:0:0:0:
256,192,294525,1,0,1:0:0:0:
256,192,294642,1,0,1:0:0:0:
256,192,294760,1,0,1:0:0:0:
256,192,294878,1,12,1:0:0:0:
256,192,295230,1,0,1:0:0:0:
256,192,295348,1,0,1:0:0:0:
256,192,295466,1,0,1:0:0:0:
256,192,295583,1,12,1:0:0:0:
256,192,295936,1,12,1:0:0:0:
256,192,296054,1,12,1:0:0:0:
256,192,296172,1,12,1:0:0:0:
256,192,296289,1,12,1:0:0:0:
256,192,297701,8,0,300525,1:0:0:0:
