osu file format v14

[General]
AudioFilename: audio.mp3
AudioLeadIn: 0
PreviewTime: 65602
Countdown: 0
SampleSet: Soft
StackLeniency: 0.7
Mode: 3
LetterboxInBreaks: 0
SpecialStyle: 0
WidescreenStoryboard: 0

[Editor]
DistanceSpacing: 1.2
BeatDivisor: 4
GridSize: 32
TimelineZoom: 2.799999

[Metadata]
Title:Ahoy!! Warera Houshou Kaizokudan*
TitleUnicode:Ahoy!! 我ら宝鐘海賊団☆
Artist:Houshou Marine
ArtistUnicode:宝鐘マリン
Creator:RiP46
Version:Great Pirate Voyage
Source:
Tags:Kanon Matsubara japanese pop jpop vtuber virtual youtuber ホロライブ hololive fantasy 3期生 3rd third gen generation pirate iosys arm maron まろん original single 三輪紫乃 miwa shino shibayan しばやん Usada Pekora 兎田ぺこら Uruha Rushia 潤羽るしあ Shiranui Flare 不知火フレア Shirogane Noel 白銀ノエル
BeatmapID:2669828
BeatmapSetID:1285818

[Difficulty]
HPDrainRate:8
CircleSize:4
OverallDifficulty:8
ApproachRate:5
SliderMultiplier:1.4
SliderTickRate:1

[Events]
//Background and Video events
0,0,"BG.jpg",0,0
//Break Periods
//Storyboard Layer 0 (Background)
//Storyboard Layer 1 (Fail)
//Storyboard Layer 2 (Pass)
//Storyboard Layer 3 (Foreground)
//Storyboard Layer 4 (Overlay)
//Storyboard Sound Samples
Sample,90886,0,"Snare Clap.wav",95
Sample,90974,0,"Snare Clap.wav",95
Sample,91238,0,"Snare Clap.wav",95
Sample,91327,0,"Snare Clap.wav",95
Sample,91415,0,"Snare Clap.wav",95
Sample,91503,0,"Snare Clap.wav",95
Sample,162886,0,"Snare Clap.wav",95
Sample,162974,0,"Snare Clap.wav",95
Sample,163238,0,"Snare Clap.wav",95
Sample,163327,0,"Snare Clap.wav",95
Sample,163415,0,"Snare Clap.wav",95
Sample,163503,0,"Snare Clap.wav",95
Sample,197003,0,"Snare Drum 2.wav",95
Sample,207474,0,"Snare Drum.wav",95
Sample,207591,0,"Snare Drum.wav",95
Sample,207827,0,"Snare Drum.wav",95
Sample,207944,0,"Snare Drum.wav",95
Sample,208297,0,"Snare Drum 2.wav",95
Sample,208533,0,"Snare Drum 2.wav",95
Sample,208650,0,"Snare Drum 2.wav",95
Sample,218768,0,"Snare Clap.wav",95
Sample,218886,0,"Snare Clap.wav",95
Sample,219121,0,"Snare Clap.wav",95
Sample,219238,0,"Snare Clap.wav",95
Sample,219474,0,"Snare Clap.wav",95
Sample,219591,0,"Snare Clap.wav",95
Sample,230062,0,"Snare Clap.wav",95
Sample,230180,0,"Snare Clap.wav",95
Sample,230415,0,"Snare Clap.wav",95
Sample,230533,0,"Snare Clap.wav",95
Sample,230886,0,"Snare Clap.wav",95
Sample,287121,0,"Snare Clap.wav",95
Sample,287209,0,"Snare Clap.wav",95
Sample,287474,0,"Snare Clap.wav",95
Sample,287562,0,"Snare Clap.wav",95
Sample,287650,0,"Snare Clap.wav",95
Sample,287738,0,"Snare Clap.wav",95

[TimingPoints]
534,352.941176470588,4,2,1,55,1,0
1239,352.941176470588,4,2,1,55,1,0
6886,-100,4,2,1,60,0,0
19591,-100,4,2,1,65,0,0
28062,-100,4,2,2,45,0,0
30091,-100,4,2,1,50,0,0
57709,-100,4,2,2,45,0,0
64062,-100,4,2,1,50,0,0
66180,-100,4,2,1,70,0,1
91591,-100,4,2,1,65,0,0
100062,-100,4,2,2,45,0,0
102180,-100,4,2,1,55,0,0
129709,-100,4,2,2,45,0,0
136062,-100,4,2,1,50,0,0
138180,-100,4,2,1,70,0,1
163591,-100,4,2,1,60,0,0
174886,-100,4,2,1,65,0,0
231356,-100,4,2,2,45,0,0
245474,-100,4,2,1,50,0,0
255356,-100,4,2,1,60,0,0
262415,-100,4,2,1,70,0,1
287827,-100,4,2,1,60,0,0

[HitObjects]
320,192,534,5,0,0:0:0:60:S.wav
448,192,534,1,0,0:0:0:0:
64,192,604,1,0,0:0:0:0:
192,192,675,1,0,0:0:0:0:
320,192,745,1,0,0:0:0:0:
448,192,816,1,0,0:0:0:0:
64,192,886,1,0,0:0:0:35:Crash.wav
192,192,886,1,0,0:0:0:60:K.wav
320,192,886,1,0,0:0:0:0:
192,192,1239,1,0,0:0:0:45:Crash.wav
320,192,1239,1,0,0:0:0:60:K.wav
448,192,1239,128,0,1327:0:0:0:0:
64,192,1327,128,0,1415:0:0:0:0:
192,192,1415,128,0,1503:0:0:0:0:
320,192,1503,128,0,1591:0:0:0:0:
64,192,1591,128,0,1768:0:0:0:0:
448,192,1768,128,0,1944:0:0:0:0:
64,192,1944,128,0,2121:0:0:0:45:Crash.wav
192,192,1944,1,0,0:0:0:60:K.wav
320,192,1944,1,0,0:0:0:0:
320,192,2121,128,0,2297:0:0:0:0:
192,192,2297,128,0,2474:0:0:0:0:
448,192,2474,128,0,2650:0:0:0:0:
64,192,2650,128,0,2738:0:0:0:45:Crash.wav
192,192,2650,1,0,0:0:0:60:K.wav
320,192,2650,1,0,0:0:0:0:
448,192,2738,128,0,2827:0:0:0:0:
320,192,2827,128,0,2915:0:0:0:0:
192,192,2915,128,0,3003:0:0:0:0:
448,192,3003,128,0,3180:0:0:0:0:
64,192,3180,128,0,3356:0:0:0:0:
192,192,3356,1,0,0:0:0:45:Crash.wav
320,192,3356,128,0,3533:0:0:0:60:K.wav
448,192,3356,1,0,0:0:0:0:
192,192,3533,128,0,3709:0:0:0:0:
448,192,3709,128,0,3886:0:0:0:0:
64,192,3886,128,0,4062:0:0:0:0:
192,192,4062,1,0,0:0:0:45:Crash.wav
320,192,4062,1,0,0:0:0:60:K.wav
448,192,4062,128,0,4150:0:0:0:0:
64,192,4150,128,0,4238:0:0:0:0:
192,192,4238,128,0,4327:0:0:0:0:
320,192,4327,128,0,4415:0:0:0:0:
64,192,4415,128,0,4591:0:0:0:0:
448,192,4591,128,0,4768:0:0:0:0:
64,192,4768,1,0,0:0:0:45:Crash.wav
192,192,4768,128,0,4944:0:0:0:60:K.wav
320,192,4768,1,0,0:0:0:0:
320,192,4944,128,0,5121:0:0:0:0:
64,192,5121,128,0,5297:0:0:0:0:
448,192,5297,128,0,5474:0:0:0:0:
192,192,5474,128,0,5827:0:0:0:0:
64,192,5827,128,0,6356:0:0:0:45:Crash.wav
320,192,5827,128,0,6003:0:0:0:60:S.wav
448,192,5827,128,0,6003:0:0:0:0:
192,192,6180,128,0,6356:0:0:0:45:Crash.wav
320,192,6180,128,0,6356:0:0:0:60:S.wav
448,192,6180,128,0,6709:0:0:0:0:
64,192,6533,128,0,6709:0:0:0:45:Crash.wav
192,192,6533,128,0,6709:0:0:0:60:S.wav
320,192,6533,128,0,6709:0:0:0:0:
64,192,6886,1,2,0:0:0:0:
192,192,6886,1,4,0:0:0:0:
448,192,6886,1,0,0:0:0:0:
320,192,7003,1,0,0:0:0:95:Snare Drum 2.wav
448,192,7003,1,0,0:0:0:0:
64,192,7121,1,0,0:0:0:95:Snare Drum 2.wav
192,192,7121,1,0,0:0:0:0:
64,192,7238,1,0,0:0:0:95:Snare Drum 2.wav
192,192,7238,1,0,0:0:0:0:
320,192,7356,1,0,0:0:0:95:Snare Drum 2.wav
448,192,7356,1,0,0:0:0:0:
64,192,7474,1,0,0:0:0:95:Snare Drum 2.wav
192,192,7474,1,0,0:0:0:0:
64,192,7591,128,2,7944:0:0:0:0:
320,192,7591,1,4,0:0:0:0:
448,192,7591,1,0,0:0:0:0:
320,192,7709,1,0,0:0:0:95:Snare Drum 2.wav
448,192,7827,1,0,0:0:0:95:Snare Drum 2.wav
448,192,7944,1,0,0:0:0:95:Snare Drum 2.wav
192,192,8062,1,0,0:0:0:95:Snare Drum 2.wav
320,192,8180,1,0,0:0:0:95:Snare Drum 2.wav
64,192,8297,1,2,0:0:0:0:
192,192,8297,1,4,0:0:0:0:
448,192,8297,1,0,0:0:0:0:
64,192,8415,1,0,0:0:0:95:Snare Drum 2.wav
192,192,8415,1,0,0:0:0:0:
320,192,8533,1,0,0:0:0:95:Snare Drum 2.wav
448,192,8533,1,0,0:0:0:0:
320,192,8650,1,0,0:0:0:95:Snare Drum 2.wav
448,192,8650,1,0,0:0:0:0:
64,192,8768,1,0,0:0:0:95:Snare Drum 2.wav
192,192,8768,1,0,0:0:0:0:
320,192,8886,1,0,0:0:0:95:Snare Drum 2.wav
448,192,8886,1,0,0:0:0:0:
64,192,9003,1,2,0:0:0:0:
192,192,9003,1,4,0:0:0:0:
448,192,9003,128,0,9356:0:0:0:0:
192,192,9121,1,0,0:0:0:95:Snare Drum 2.wav
64,192,9238,1,0,0:0:0:95:Snare Drum 2.wav
64,192,9356,1,0,0:0:0:95:Snare Drum 2.wav
320,192,9474,1,0,0:0:0:95:Snare Drum 2.wav
192,192,9591,1,0,0:0:0:95:Snare Drum 2.wav
64,192,9709,1,2,0:0:0:0:
320,192,9709,1,4,0:0:0:0:
448,192,9709,1,0,0:0:0:0:
448,192,9827,1,0,0:0:0:95:Snare Drum 2.wav
192,192,9944,1,0,0:0:0:95:Snare Drum 2.wav
64,192,10062,128,0,10297:0:0:0:95:Snare Drum 2.wav
192,192,10062,128,0,10297:0:0:0:0:
448,192,10180,1,0,0:0:0:95:Snare Drum 2.wav
448,192,10297,1,0,0:0:0:95:Snare Drum 2.wav
64,192,10415,1,2,0:0:0:0:
192,192,10415,1,4,0:0:0:0:
320,192,10415,1,0,0:0:0:0:
64,192,10533,1,0,0:0:0:95:Snare Drum 2.wav
320,192,10650,1,0,0:0:0:95:Snare Drum 2.wav
320,192,10768,128,0,11003:0:0:0:95:Snare Drum 2.wav
448,192,10768,128,0,11003:0:0:0:0:
64,192,10886,1,0,0:0:0:95:Snare Drum 2.wav
64,192,11003,1,0,0:0:0:95:Snare Drum 2.wav
192,192,11121,1,2,0:0:0:0:
320,192,11121,1,4,0:0:0:0:
448,192,11121,1,0,0:0:0:0:
192,192,11238,1,0,0:0:0:95:Snare Drum 2.wav
320,192,11356,1,0,0:0:0:95:Snare Drum 2.wav
320,192,11474,128,0,11709:0:0:0:95:Snare Drum 2.wav
448,192,11474,128,0,11709:0:0:0:0:
64,192,11591,1,0,0:0:0:95:Snare Drum 2.wav
64,192,11709,1,0,0:0:0:95:Snare Drum 2.wav
192,192,11827,1,2,0:0:0:0:
320,192,11827,1,4,0:0:0:0:
448,192,11827,1,0,0:0:0:0:
448,192,11944,1,0,0:0:0:95:Snare Drum 2.wav
192,192,12062,1,0,0:0:0:95:Snare Drum 2.wav
64,192,12180,128,0,12415:0:0:0:95:Snare Drum 2.wav
192,192,12180,128,0,12415:0:0:0:0:
448,192,12297,1,0,0:0:0:95:Snare Drum 2.wav
448,192,12415,1,0,0:0:0:95:Snare Drum 2.wav
64,192,12533,1,2,0:0:0:0:
192,192,12533,1,4,0:0:0:0:
320,192,12533,1,0,0:0:0:0:
64,192,12650,1,0,0:0:0:95:Snare Drum 2.wav
192,192,12650,1,0,0:0:0:0:
320,192,12768,1,0,0:0:0:95:Snare Drum 2.wav
448,192,12768,1,0,0:0:0:0:
320,192,12886,1,0,0:0:0:95:Snare Drum 2.wav
448,192,12886,1,0,0:0:0:0:
64,192,13003,1,0,0:0:0:95:Snare Drum 2.wav
192,192,13003,1,0,0:0:0:0:
320,192,13121,1,0,0:0:0:95:Snare Drum 2.wav
448,192,13121,1,0,0:0:0:0:
64,192,13238,1,2,0:0:0:0:
192,192,13238,1,4,0:0:0:0:
448,192,13238,1,0,0:0:0:0:
64,192,13356,1,0,0:0:0:95:Snare Drum 2.wav
192,192,13356,1,0,0:0:0:0:
320,192,13474,1,0,0:0:0:95:Snare Drum 2.wav
448,192,13474,1,0,0:0:0:0:
320,192,13591,1,0,0:0:0:95:Snare Drum 2.wav
448,192,13591,1,0,0:0:0:0:
64,192,13709,1,0,0:0:0:95:Snare Drum 2.wav
192,192,13709,1,0,0:0:0:0:
320,192,13827,1,0,0:0:0:95:Snare Drum 2.wav
448,192,13827,1,0,0:0:0:0:
64,192,13944,128,2,15356:0:0:0:0:
192,192,13944,128,4,15356:0:0:0:0:
448,192,13944,128,0,15356:0:0:0:0:
64,192,16591,1,8,0:0:0:0:
192,192,16591,1,0,0:0:0:0:
320,192,16680,1,8,0:0:0:0:
448,192,16680,1,0,0:0:0:0:
64,192,16768,128,2,18003:0:0:0:0:
192,192,16768,1,4,0:0:0:0:
448,192,16768,1,0,0:0:0:0:
320,192,18003,1,8,0:0:0:0:
448,192,18003,1,0,0:0:0:0:
64,192,18091,1,8,0:0:0:0:
192,192,18091,1,0,0:0:0:0:
64,192,18180,1,2,0:0:0:0:
320,192,18180,1,0,0:0:0:45:Crash.wav
448,192,18180,128,0,18886:0:0:0:0:
192,192,18356,1,2,0:0:0:0:
192,192,18444,1,2,0:0:0:0:
64,192,18533,1,8,0:0:0:0:
320,192,18533,1,0,0:0:0:45:Crash.wav
320,192,18709,1,2,0:0:0:0:
320,192,18797,1,2,0:0:0:0:
64,192,18886,128,8,19238:0:0:0:0:
192,192,18886,1,0,0:0:0:45:Crash.wav
320,192,19238,1,0,0:0:0:50:Snare.wav
448,192,19238,128,0,19591:0:0:0:0:
64,192,19591,1,2,0:0:0:0:
192,192,19591,128,4,19680:0:0:0:0:
320,192,19591,1,0,0:0:0:0:
192,192,19768,128,0,19856:0:0:0:0:
448,192,19768,128,0,19856:0:0:0:0:
192,192,19944,128,2,20297:0:0:0:0:
448,192,19944,128,8,20121:0:0:0:0:
64,192,20121,1,0,0:0:0:0:
320,192,20209,1,0,0:0:0:0:
64,192,20297,1,2,0:0:0:0:
448,192,20297,128,0,20386:0:0:0:0:
64,192,20474,128,0,20562:0:0:0:0:
448,192,20474,128,0,20562:0:0:0:0:
64,192,20650,128,8,20827:0:0:0:0:
448,192,20650,128,2,21003:0:0:0:0:
192,192,20827,1,0,0:0:0:0:
320,192,20915,1,0,0:0:0:0:
64,192,21003,128,2,21091:0:0:0:0:
192,192,21003,1,0,0:0:0:0:
64,192,21180,128,0,21268:0:0:0:0:
320,192,21180,128,0,21268:0:0:0:0:
64,192,21356,128,8,21709:0:0:0:0:
320,192,21356,128,2,21533:0:0:0:0:
448,192,21533,1,0,0:0:0:0:
192,192,21621,1,0,0:0:0:0:
320,192,21709,1,2,0:0:0:0:
448,192,21709,128,0,21797:0:0:0:0:
64,192,21886,128,0,21974:0:0:0:0:
320,192,21886,128,0,21974:0:0:0:0:
64,192,22062,128,8,22415:0:0:0:0:
320,192,22062,128,2,22238:0:0:0:0:
448,192,22238,1,2,0:0:0:0:
320,192,22327,1,0,0:0:0:0:
192,192,22415,1,2,0:0:0:0:
448,192,22415,128,0,22503:0:0:0:0:
64,192,22591,128,0,22680:0:0:0:0:
448,192,22591,128,0,22680:0:0:0:0:
64,192,22768,128,8,22944:0:0:0:0:
448,192,22768,128,2,23121:0:0:0:0:
192,192,22944,1,0,0:0:0:0:
320,192,23033,1,0,0:0:0:0:
64,192,23121,128,2,23209:0:0:0:0:
192,192,23121,128,0,23209:0:0:0:0:
192,192,23297,128,0,23386:0:0:0:0:
448,192,23297,128,0,23474:0:0:0:0:
192,192,23474,128,8,23827:0:0:0:0:
320,192,23474,1,2,0:0:0:0:
448,192,23650,1,0,0:0:0:0:
64,192,23738,1,0,0:0:0:0:
320,192,23827,128,2,23915:0:0:0:0:
448,192,23827,128,4,24003:0:0:0:0:
64,192,23915,128,0,24003:0:0:0:0:
192,192,24003,128,0,24091:0:0:0:0:
320,192,24091,128,0,24180:0:0:0:0:
64,192,24180,128,8,24356:0:0:0:0:
448,192,24180,128,2,24268:0:0:0:0:
192,192,24268,128,0,24356:0:0:0:0:
448,192,24356,128,0,24533:0:0:0:0:
320,192,24444,128,0,24533:0:0:0:0:
64,192,24533,1,2,0:0:0:0:
192,192,24533,1,0,0:0:0:0:
64,192,24709,1,8,0:0:0:0:
320,192,24709,1,4,0:0:0:0:
448,192,24709,1,0,0:0:0:0:
192,192,24797,1,0,0:0:0:0:
64,192,24886,1,10,0:0:0:0:
448,192,24886,1,4,0:0:0:0:
320,192,24974,1,2,0:0:0:0:
64,192,25062,1,2,0:0:0:0:
192,192,25062,1,0,0:0:0:0:
320,192,25150,1,2,0:0:0:0:
448,192,25150,1,0,0:0:0:0:
64,192,25238,1,2,0:0:0:0:
192,192,25238,128,4,25327:0:0:0:0:
448,192,25238,1,0,0:0:0:0:
192,192,25415,128,0,25503:0:0:0:0:
448,192,25415,128,0,25503:0:0:0:0:
192,192,25591,128,8,25944:0:0:0:0:
448,192,25591,128,2,25768:0:0:0:0:
64,192,25768,1,4,0:0:0:0:
320,192,25856,1,0,0:0:0:0:
64,192,25944,1,2,0:0:0:0:
448,192,25944,128,4,26033:0:0:0:0:
64,192,26121,128,0,26209:0:0:0:0:
448,192,26121,128,0,26209:0:0:0:0:
64,192,26297,128,8,26474:0:0:0:0:
448,192,26297,128,2,26650:0:0:0:0:
192,192,26474,1,8,0:0:0:0:
320,192,26562,1,8,0:0:0:0:
64,192,26650,128,2,26738:0:0:0:0:
192,192,26650,1,0,0:0:0:0:
64,192,26827,128,2,26915:0:0:0:0:
320,192,26827,128,0,26915:0:0:0:0:
64,192,27003,128,2,27356:0:0:0:0:
320,192,27003,128,8,27180:0:0:0:0:
448,192,27180,1,2,0:0:0:0:
192,192,27268,1,2,0:0:0:0:
320,192,27356,1,2,0:0:0:0:
448,192,27356,1,0,0:0:0:0:
64,192,27444,1,2,0:0:0:0:
192,192,27533,1,2,0:0:0:0:
320,192,27533,1,0,0:0:0:0:
448,192,27621,1,2,0:0:0:0:
64,192,27709,1,2,0:0:0:0:
192,192,27709,1,8,0:0:0:0:
320,192,27886,1,2,0:0:0:0:
448,192,27886,1,0,0:0:0:0:
64,192,28062,128,2,28150:0:0:0:0:
192,192,28062,1,0,0:0:0:0:
320,192,28150,128,0,28238:0:0:0:0:
192,192,28327,128,0,28415:0:0:0:0:
448,192,28591,128,0,28680:0:0:0:0:
64,192,28680,128,0,28768:0:0:0:0:
320,192,28856,128,0,28944:0:0:0:0:
320,192,29033,128,0,29121:0:0:0:0:
64,192,29121,128,0,29209:0:0:0:0:
192,192,29209,128,0,29297:0:0:0:0:
320,192,29297,128,0,29474:0:0:0:0:
64,192,29474,128,0,29562:0:0:0:0:
448,192,29474,128,0,29562:0:0:0:0:
192,192,29562,128,0,29650:0:0:0:0:
320,192,29650,128,0,29738:0:0:0:0:
448,192,29650,128,0,29738:0:0:0:0:
192,192,29738,128,0,29827:0:0:0:0:
64,192,29827,128,0,29915:0:0:0:0:
448,192,29827,128,0,29915:0:0:0:0:
320,192,29915,128,0,30003:0:0:0:0:
64,192,30003,128,0,30091:0:0:0:0:
192,192,30003,128,0,30091:0:0:0:0:
320,192,30091,128,2,30356:0:0:0:0:
448,192,30091,128,0,30356:0:0:0:0:
64,192,30356,1,2,0:0:0:0:
192,192,30356,1,0,0:0:0:0:
320,192,30415,1,2,0:0:0:0:
448,192,30415,1,0,0:0:0:0:
64,192,30474,1,2,0:0:0:0:
192,192,30474,1,0,0:0:0:0:
320,192,30533,1,2,0:0:0:0:
448,192,30533,1,0,0:0:0:0:
320,192,30768,1,2,0:0:0:0:
448,192,30768,1,0,0:0:0:0:
64,192,30886,1,2,0:0:0:0:
192,192,30886,1,4,0:0:0:0:
448,192,30886,1,0,0:0:0:0:
64,192,31062,128,0,31238:0:0:0:0:
192,192,31238,1,8,0:0:0:0:
448,192,31238,1,2,0:0:0:0:
320,192,31415,1,0,0:0:0:0:
192,192,31503,1,0,0:0:0:80:Snare Drum 2.wav
64,192,31591,1,2,0:0:0:0:
448,192,31591,1,0,0:0:0:0:
320,192,31768,1,0,0:0:0:0:
320,192,31856,1,0,0:0:0:0:
64,192,31944,1,8,0:0:0:0:
192,192,31944,1,2,0:0:0:0:
448,192,32121,128,0,32297:0:0:0:80:Snare Drum 2.wav
192,192,32297,1,2,0:0:0:0:
320,192,32297,1,0,0:0:0:0:
64,192,32474,1,0,0:0:0:0:
192,192,32562,1,0,0:0:0:0:
320,192,32650,1,8,0:0:0:0:
448,192,32650,1,2,0:0:0:0:
192,192,32827,128,0,33003:0:0:0:0:
64,192,33003,1,2,0:0:0:0:
448,192,33003,1,0,0:0:0:0:
320,192,33180,1,0,0:0:0:0:
320,192,33268,1,0,0:0:0:0:
64,192,33356,1,8,0:0:0:0:
192,192,33356,1,2,0:0:0:0:
320,192,33533,1,2,0:0:0:0:
448,192,33533,1,0,0:0:0:0:
64,192,33709,1,2,0:0:0:0:
192,192,33709,1,0,0:0:0:0:
320,192,33886,1,0,0:0:0:0:
192,192,33974,1,0,0:0:0:0:
64,192,34062,1,8,0:0:0:0:
448,192,34062,1,2,0:0:0:0:
320,192,34238,128,0,34415:0:0:0:0:
64,192,34415,1,2,0:0:0:0:
192,192,34415,1,0,0:0:0:0:
448,192,34591,1,0,0:0:0:0:
448,192,34680,1,0,0:0:0:0:
192,192,34768,1,8,0:0:0:0:
320,192,34768,1,2,0:0:0:0:
64,192,34944,128,0,35121:0:0:0:0:
320,192,35121,1,2,0:0:0:0:
448,192,35121,1,0,0:0:0:0:
192,192,35297,1,0,0:0:0:0:
320,192,35386,1,0,0:0:0:0:
64,192,35474,1,8,0:0:0:0:
448,192,35474,1,2,0:0:0:0:
192,192,35650,128,0,35827:0:0:0:0:
320,192,35827,1,2,0:0:0:0:
448,192,35827,1,0,0:0:0:0:
64,192,36003,1,0,0:0:0:0:
320,192,36091,1,2,0:0:0:0:
448,192,36091,1,0,0:0:0:0:
64,192,36180,1,8,0:0:0:0:
192,192,36180,1,2,0:0:0:0:
320,192,36356,128,2,36533:0:0:0:0:
64,192,36533,1,2,0:0:0:0:
192,192,36533,1,4,0:0:0:0:
448,192,36533,1,0,0:0:0:0:
320,192,36709,1,0,0:0:0:0:
192,192,36797,1,0,0:0:0:0:
64,192,36886,1,8,0:0:0:0:
448,192,36886,1,2,0:0:0:0:
320,192,37062,128,0,37238:0:0:0:0:
192,192,37238,1,2,0:0:0:0:
448,192,37238,1,0,0:0:0:0:
64,192,37415,1,0,0:0:0:0:
64,192,37503,1,0,0:0:0:0:
192,192,37591,1,8,0:0:0:0:
320,192,37591,1,2,0:0:0:0:
448,192,37768,1,0,0:0:0:80:Snare Drum 2.wav
320,192,37856,1,0,0:0:0:80:Snare Drum 2.wav
64,192,37944,1,2,0:0:0:0:
192,192,37944,1,0,0:0:0:0:
448,192,38121,128,0,38297:0:0:0:0:
64,192,38297,1,8,0:0:0:0:
320,192,38297,1,2,0:0:0:0:
192,192,38474,1,0,0:0:0:0:
320,192,38562,1,0,0:0:0:0:
64,192,38650,1,2,0:0:0:0:
448,192,38650,1,0,0:0:0:0:
320,192,38827,1,0,0:0:0:0:
320,192,38915,1,0,0:0:0:0:
64,192,39003,1,8,0:0:0:0:
192,192,39003,1,2,0:0:0:0:
320,192,39180,1,2,0:0:0:0:
448,192,39180,1,0,0:0:0:0:
64,192,39356,1,2,0:0:0:0:
192,192,39356,1,0,0:0:0:0:
448,192,39444,1,0,0:0:0:0:
320,192,39533,1,0,0:0:0:0:
192,192,39621,1,0,0:0:0:0:
64,192,39709,1,8,0:0:0:0:
448,192,39709,1,2,0:0:0:0:
320,192,39797,1,0,0:0:0:0:
64,192,39886,1,0,0:0:0:0:
192,192,39974,1,0,0:0:0:0:
320,192,40062,1,2,0:0:0:0:
448,192,40062,1,0,0:0:0:0:
64,192,40150,1,0,0:0:0:0:
192,192,40238,1,0,0:0:0:0:
320,192,40327,1,0,0:0:0:0:
64,192,40415,1,8,0:0:0:0:
448,192,40415,1,2,0:0:0:0:
192,192,40503,1,0,0:0:0:0:
448,192,40591,1,0,0:0:0:0:
320,192,40680,1,0,0:0:0:0:
64,192,40768,1,2,0:0:0:0:
192,192,40768,1,4,0:0:0:0:
448,192,40768,1,0,0:0:0:0:
64,192,41033,1,2,0:0:0:0:
192,192,41033,1,4,0:0:0:0:
448,192,41033,1,0,0:0:0:0:
64,192,41297,1,2,0:0:0:0:
320,192,41297,1,4,0:0:0:0:
448,192,41297,1,0,0:0:0:0:
64,192,41474,1,2,0:0:0:0:
192,192,41474,1,4,0:0:0:0:
448,192,41474,1,0,0:0:0:0:
320,192,41738,1,2,0:0:0:0:
448,192,41738,1,0,0:0:0:0:
64,192,41827,1,2,0:0:0:0:
192,192,41827,1,0,0:0:0:0:
320,192,41915,1,2,0:0:0:0:
64,192,42003,1,2,0:0:0:0:
448,192,42003,1,0,0:0:0:0:
192,192,42091,1,2,0:0:0:0:
64,192,42180,1,2,0:0:0:0:
320,192,42180,1,4,0:0:0:0:
448,192,42180,1,0,0:0:0:0:
192,192,42268,1,0,0:0:0:0:
448,192,42356,1,0,0:0:0:0:
320,192,42444,1,0,0:0:0:0:
64,192,42533,1,8,0:0:0:0:
192,192,42533,1,2,0:0:0:0:
320,192,42621,1,0,0:0:0:0:
448,192,42709,1,0,0:0:0:0:
192,192,42797,1,0,0:0:0:0:
64,192,42886,1,2,0:0:0:0:
320,192,42886,1,0,0:0:0:0:
192,192,42974,1,0,0:0:0:0:
448,192,43062,1,0,0:0:0:0:
320,192,43150,1,0,0:0:0:0:
64,192,43238,1,8,0:0:0:0:
192,192,43238,1,2,0:0:0:0:
448,192,43327,1,0,0:0:0:0:
320,192,43415,1,0,0:0:0:0:
192,192,43503,1,0,0:0:0:0:
64,192,43591,1,2,0:0:0:0:
448,192,43591,1,0,0:0:0:0:
320,192,43680,1,0,0:0:0:0:
64,192,43768,1,0,0:0:0:0:
192,192,43856,1,0,0:0:0:0:
320,192,43944,1,8,0:0:0:0:
448,192,43944,1,2,0:0:0:0:
64,192,44033,1,0,0:0:0:0:
192,192,44121,1,0,0:0:0:0:
320,192,44209,1,0,0:0:0:0:
64,192,44297,1,2,0:0:0:0:
448,192,44297,1,0,0:0:0:0:
192,192,44386,1,0,0:0:0:0:
448,192,44474,1,0,0:0:0:0:
320,192,44562,1,0,0:0:0:0:
64,192,44650,1,8,0:0:0:0:
192,192,44650,1,2,0:0:0:0:
448,192,44738,1,0,0:0:0:0:
192,192,44827,1,2,0:0:0:0:
320,192,44827,1,0,0:0:0:0:
64,192,44915,1,0,0:0:0:0:
320,192,45003,1,2,0:0:0:0:
448,192,45003,1,0,0:0:0:0:
192,192,45091,1,0,0:0:0:0:
64,192,45180,1,0,0:0:0:0:
448,192,45268,1,0,0:0:0:0:
192,192,45356,1,8,0:0:0:0:
320,192,45356,1,2,0:0:0:0:
64,192,45444,1,0,0:0:0:0:
448,192,45533,1,0,0:0:0:0:
320,192,45621,1,0,0:0:0:0:
64,192,45709,1,2,0:0:0:0:
192,192,45709,1,0,0:0:0:0:
320,192,45797,1,0,0:0:0:0:
448,192,45886,1,0,0:0:0:0:
192,192,45974,1,0,0:0:0:0:
64,192,46062,1,8,0:0:0:0:
320,192,46062,1,2,0:0:0:0:
192,192,46150,1,0,0:0:0:0:
448,192,46238,1,0,0:0:0:0:
320,192,46327,1,0,0:0:0:0:
64,192,46415,1,2,0:0:0:0:
192,192,46415,1,0,0:0:0:0:
320,192,46503,1,0,0:0:0:0:
448,192,46591,1,0,0:0:0:0:
64,192,46680,1,0,0:0:0:0:
192,192,46768,1,8,0:0:0:0:
320,192,46768,1,2,0:0:0:0:
448,192,46856,1,0,0:0:0:0:
64,192,46944,1,0,0:0:0:0:
192,192,47033,1,0,0:0:0:0:
320,192,47121,128,2,47297:0:0:0:0:
448,192,47121,128,0,47297:0:0:0:0:
64,192,47297,1,0,0:0:0:0:
192,192,47386,1,2,0:0:0:0:
320,192,47474,128,8,47650:0:0:0:0:
448,192,47474,128,2,47650:0:0:0:0:
64,192,47650,1,2,0:0:0:0:
192,192,47650,1,0,0:0:0:0:
64,192,47827,1,2,0:0:0:0:
192,192,47827,1,4,0:0:0:0:
448,192,47827,1,0,0:0:0:0:
320,192,48180,1,0,0:0:0:45:S.wav
448,192,48180,1,0,0:0:0:0:
64,192,48356,1,2,0:0:0:0:
192,192,48356,1,4,0:0:0:0:
448,192,48356,1,0,0:0:0:0:
64,192,48709,1,2,0:0:0:0:
192,192,48709,1,0,0:0:0:0:
320,192,48886,1,0,0:0:0:45:S.wav
448,192,48886,1,0,0:0:0:0:
64,192,49062,1,2,0:0:0:0:
192,192,49062,1,0,0:0:0:0:
320,192,49415,1,2,0:0:0:0:
192,192,49503,1,2,0:0:0:0:
64,192,49591,1,2,0:0:0:0:
320,192,49591,1,4,0:0:0:0:
448,192,49591,1,0,0:0:0:45:S.wav
64,192,49944,1,2,0:0:0:0:
320,192,49944,1,4,0:0:0:0:
448,192,49944,1,0,0:0:0:0:
192,192,50121,1,0,0:0:0:0:
320,192,50209,1,2,0:0:0:0:
64,192,50297,1,0,0:0:0:45:S.wav
448,192,50297,1,0,0:0:0:0:
64,192,50474,1,2,0:0:0:0:
192,192,50474,1,4,0:0:0:0:
448,192,50474,1,0,0:0:0:0:
320,192,50827,1,0,0:0:0:50:S.wav
448,192,50827,1,0,0:0:0:0:
320,192,51003,1,0,0:0:0:50:S.wav
448,192,51003,1,0,0:0:0:0:
64,192,51180,1,0,0:0:0:50:K.wav
192,192,51180,1,0,0:0:0:0:
320,192,51356,1,0,0:0:0:50:S.wav
448,192,51356,1,0,0:0:0:0:
64,192,51533,1,0,0:0:0:60:Tom1.wav
192,192,51533,1,0,0:0:0:0:
192,192,51709,1,0,0:0:0:60:Tom2.wav
320,192,51709,1,0,0:0:0:0:
320,192,51886,1,0,0:0:0:45:Tom3.wav
448,192,51886,1,0,0:0:0:0:
64,192,52062,128,4,52415:0:0:0:0:
192,192,52062,1,0,0:0:0:45:K.wav
448,192,52062,1,0,0:0:0:0:
320,192,52415,1,0,0:0:0:30:soft-hitfinish.wav
448,192,52415,1,0,0:0:0:45:S.wav
192,192,52591,128,0,52680:0:0:0:45:K.wav
192,192,52768,128,0,53121:0:0:0:45:K.wav
64,192,52944,1,0,0:0:0:45:S.wav
320,192,52944,1,0,0:0:0:0:
448,192,53121,1,0,0:0:0:60:Tom1.wav
320,192,53297,128,0,53474:0:0:0:45:Tom3.wav
64,192,53474,1,0,0:0:0:0:
192,192,53650,128,0,54003:0:0:0:45:K.wav
64,192,53827,1,8,0:0:0:45:S.wav
448,192,53827,1,0,0:0:0:0:
320,192,54003,128,0,54091:0:0:0:45:K.wav
320,192,54180,128,0,54356:0:0:0:45:K.wav
192,192,54356,1,8,0:0:0:45:S.wav
448,192,54356,1,0,0:0:0:0:
64,192,54533,128,0,54886:0:0:0:60:Tom1.wav
192,192,54709,1,0,0:0:0:45:Tom3.wav
320,192,54886,1,4,0:0:0:40:Crash.wav
448,192,54886,128,0,55238:0:0:0:45:K.wav
192,192,55062,1,0,0:0:0:0:
64,192,55238,1,0,0:0:0:45:S.wav
320,192,55238,1,0,0:0:0:0:
192,192,55415,128,0,55503:0:0:0:45:K.wav
192,192,55591,128,0,55944:0:0:0:45:K.wav
320,192,55768,1,0,0:0:0:45:S.wav
448,192,55768,1,0,0:0:0:0:
64,192,55944,1,0,0:0:0:60:Tom1.wav
320,192,56121,128,0,56297:0:0:0:45:Tom3.wav
64,192,56297,1,0,0:0:0:0:
192,192,56474,128,0,56827:0:0:0:45:K.wav
64,192,56650,1,0,0:0:0:45:S.wav
448,192,56650,1,0,0:0:0:0:
320,192,56827,128,0,56915:0:0:0:45:K.wav
320,192,57003,128,0,57180:0:0:0:45:K.wav
192,192,57180,1,0,0:0:0:45:S.wav
448,192,57180,1,0,0:0:0:0:
64,192,57356,128,0,57709:0:0:0:60:Tom1.wav
320,192,57533,1,0,0:0:0:45:Tom3.wav
448,192,57709,128,0,57886:0:0:0:0:
320,192,57886,128,0,58062:0:0:0:0:
192,192,58062,128,0,58238:0:0:0:0:
448,192,58238,128,0,58591:0:0:0:0:
64,192,58591,128,0,58944:0:0:0:0:
320,192,58944,128,0,59297:0:0:0:0:
192,192,59297,128,0,59650:0:0:0:0:
64,192,59650,128,0,59827:0:0:0:0:
448,192,59827,128,0,60180:0:0:0:0:
192,192,60180,128,0,60533:0:0:0:0:
64,192,60533,1,0,0:0:0:0:
448,192,60533,128,0,60709:0:0:0:0:
320,192,60709,128,0,60886:0:0:0:0:
192,192,60886,128,0,61062:0:0:0:0:
448,192,61062,128,0,61415:0:0:0:0:
64,192,61415,128,0,61768:0:0:0:0:
320,192,61768,128,0,61944:0:0:0:0:
192,192,61944,1,0,0:0:0:0:
192,192,62209,1,0,0:0:0:0:
192,192,62386,1,0,0:0:0:0:
64,192,62562,1,0,0:0:0:0:
320,192,62650,1,0,0:0:0:0:
320,192,62915,1,0,0:0:0:0:
320,192,63091,1,0,0:0:0:0:
448,192,63268,1,0,0:0:0:0:
64,192,63356,1,0,0:0:0:0:
320,192,63474,1,0,0:0:0:0:
64,192,63591,1,0,0:0:0:0:
320,192,63709,1,0,0:0:0:0:
64,192,63827,1,0,0:0:0:0:
192,192,63944,1,0,0:0:0:0:
320,192,64062,1,2,0:0:0:0:
448,192,64062,1,0,0:0:0:0:
64,192,64768,1,2,0:0:0:0:
448,192,64768,1,0,0:0:0:0:
320,192,64856,1,0,0:0:0:0:
192,192,64944,1,0,0:0:0:0:
448,192,65033,1,0,0:0:0:0:
64,192,65121,1,2,0:0:0:0:
192,192,65121,1,0,0:0:0:0:
320,192,65209,1,0,0:0:0:0:
64,192,65297,1,0,0:0:0:0:
192,192,65386,1,0,0:0:0:0:
320,192,65474,1,2,0:0:0:0:
448,192,65474,1,0,0:0:0:0:
192,192,65562,1,0,0:0:0:0:
64,192,65650,1,0,0:0:0:0:
320,192,65738,1,2,0:0:0:0:
448,192,65738,1,0,0:0:0:0:
64,192,65827,1,2,0:0:0:0:
192,192,65827,1,0,0:0:0:50:Snare.wav
320,192,65915,1,2,0:0:0:0:
64,192,66003,1,2,0:0:0:0:
448,192,66003,1,0,0:0:0:0:
192,192,66091,1,2,0:0:0:0:
64,192,66180,128,2,66533:0:0:0:0:
320,192,66180,1,4,0:0:0:0:
448,192,66180,1,0,0:0:0:0:
320,192,66356,1,0,0:0:0:0:
192,192,66533,1,8,0:0:0:0:
448,192,66533,1,2,0:0:0:0:
448,192,66709,128,0,66886:0:0:0:0:
192,192,66886,1,2,0:0:0:0:
320,192,66886,1,0,0:0:0:0:
192,192,67062,128,0,67238:0:0:0:0:
64,192,67238,1,8,0:0:0:0:
320,192,67238,1,2,0:0:0:0:
320,192,67415,128,0,67591:0:0:0:0:
64,192,67591,1,2,0:0:0:0:
448,192,67591,1,0,0:0:0:0:
64,192,67768,128,0,67944:0:0:0:0:
192,192,67944,128,8,68121:0:0:0:0:
448,192,67944,1,2,0:0:0:0:
320,192,68121,128,0,68297:0:0:0:0:
64,192,68297,1,2,0:0:0:0:
448,192,68297,1,0,0:0:0:0:
192,192,68474,128,0,68650:0:0:0:0:
64,192,68650,1,8,0:0:0:0:
448,192,68650,128,2,68827:0:0:0:0:
64,192,68827,128,2,69003:0:0:0:0:
320,192,68827,1,0,0:0:0:0:
192,192,69003,1,2,0:0:0:0:
320,192,69003,128,4,69356:0:0:0:0:
448,192,69003,1,0,0:0:0:0:
192,192,69180,1,0,0:0:0:0:
64,192,69356,1,2,0:0:0:0:
448,192,69356,1,8,0:0:0:0:
448,192,69533,1,0,0:0:0:0:
64,192,69709,128,2,70062:0:0:0:0:
320,192,69709,1,0,0:0:0:0:
320,192,69886,1,0,0:0:0:0:
192,192,70062,1,8,0:0:0:0:
448,192,70062,1,2,0:0:0:0:
192,192,70238,1,0,0:0:0:0:
64,192,70415,1,2,0:0:0:0:
448,192,70415,128,0,70768:0:0:0:0:
64,192,70591,1,0,0:0:0:0:
192,192,70768,1,8,0:0:0:0:
320,192,70768,1,2,0:0:0:0:
192,192,70944,128,0,71121:0:0:0:0:
64,192,71121,1,2,0:0:0:0:
448,192,71121,1,0,0:0:0:0:
448,192,71297,128,0,71474:0:0:0:0:
320,192,71386,1,2,0:0:0:0:
64,192,71474,1,8,0:0:0:0:
192,192,71474,1,2,0:0:0:0:
192,192,71650,1,2,0:0:0:0:
320,192,71650,1,0,0:0:0:0:
64,192,71827,1,2,0:0:0:0:
320,192,71827,1,4,0:0:0:0:
448,192,71827,128,0,72180:0:0:0:0:
192,192,72091,1,2,0:0:0:0:
64,192,72180,1,8,0:0:0:0:
320,192,72180,1,0,0:0:0:0:
64,192,72356,1,2,0:0:0:0:
192,192,72356,128,4,72709:0:0:0:0:
448,192,72356,1,0,0:0:0:0:
320,192,72709,1,2,0:0:0:0:
448,192,72797,1,0,0:0:0:0:
64,192,72886,1,8,0:0:0:0:
192,192,72886,1,0,0:0:0:0:
320,192,72974,1,0,0:0:0:0:
64,192,73062,1,0,0:0:0:0:
448,192,73062,1,0,0:0:0:0:
192,192,73150,1,0,0:0:0:0:
64,192,73238,1,2,0:0:0:0:
320,192,73238,128,4,73591:0:0:0:0:
448,192,73238,1,0,0:0:0:0:
192,192,73503,1,2,0:0:0:0:
64,192,73591,1,8,0:0:0:0:
448,192,73591,1,0,0:0:0:0:
64,192,73768,128,2,74121:0:0:0:0:
192,192,73768,1,4,0:0:0:0:
448,192,73768,1,0,0:0:0:0:
320,192,74121,1,2,0:0:0:0:
192,192,74209,1,2,0:0:0:0:
64,192,74297,1,8,0:0:0:0:
448,192,74297,1,0,0:0:0:0:
320,192,74386,1,0,0:0:0:0:
64,192,74474,1,2,0:0:0:0:
192,192,74474,1,0,0:0:0:0:
320,192,74562,1,0,0:0:0:0:
64,192,74650,128,2,75003:0:0:0:0:
192,192,74650,1,4,0:0:0:0:
448,192,74650,1,0,0:0:0:0:
448,192,74827,1,0,0:0:0:0:
192,192,75003,1,8,0:0:0:0:
320,192,75003,1,2,0:0:0:0:
192,192,75180,1,0,0:0:0:0:
64,192,75356,1,2,0:0:0:0:
320,192,75356,1,4,0:0:0:0:
448,192,75356,128,0,75709:0:0:0:0:
64,192,75533,1,0,0:0:0:0:
192,192,75709,1,8,0:0:0:0:
320,192,75709,1,2,0:0:0:0:
320,192,75886,1,0,0:0:0:0:
64,192,76062,1,2,0:0:0:0:
192,192,76062,1,4,0:0:0:0:
448,192,76062,1,0,0:0:0:0:
320,192,76238,1,2,0:0:0:0:
448,192,76238,1,0,0:0:0:0:
64,192,76327,1,2,0:0:0:0:
192,192,76327,1,0,0:0:0:0:
320,192,76415,1,8,0:0:0:0:
448,192,76415,1,0,0:0:0:0:
64,192,76591,1,2,0:0:0:0:
192,192,76591,1,0,0:0:0:0:
320,192,76768,1,8,0:0:0:0:
448,192,76768,1,0,0:0:0:0:
64,192,76856,1,8,0:0:0:0:
192,192,76856,1,0,0:0:0:0:
320,192,76944,1,2,0:0:0:0:
448,192,76944,1,0,0:0:0:0:
64,192,77033,1,2,0:0:0:0:
192,192,77033,1,0,0:0:0:0:
320,192,77121,1,8,0:0:0:0:
448,192,77121,1,2,0:0:0:0:
192,192,77209,1,0,0:0:0:0:
64,192,77297,1,2,0:0:0:0:
448,192,77297,1,8,0:0:0:0:
320,192,77386,1,2,0:0:0:0:
64,192,77474,1,2,0:0:0:0:
192,192,77474,1,4,0:0:0:0:
448,192,77474,128,0,77827:0:0:0:0:
192,192,77650,1,0,0:0:0:0:
64,192,77827,1,8,0:0:0:0:
320,192,77827,1,2,0:0:0:0:
64,192,78003,128,0,78180:0:0:0:0:
192,192,78180,1,2,0:0:0:0:
320,192,78180,1,0,0:0:0:0:
320,192,78356,128,0,78533:0:0:0:0:
192,192,78533,1,8,0:0:0:0:
448,192,78533,1,2,0:0:0:0:
192,192,78709,128,0,78886:0:0:0:0:
64,192,78886,1,2,0:0:0:0:
448,192,78886,1,0,0:0:0:0:
448,192,79062,128,0,79238:0:0:0:0:
64,192,79238,1,8,0:0:0:0:
320,192,79238,128,2,79415:0:0:0:0:
192,192,79415,128,0,79591:0:0:0:0:
64,192,79591,1,2,0:0:0:0:
448,192,79591,1,0,0:0:0:0:
320,192,79768,128,0,79944:0:0:0:0:
64,192,79944,128,8,80121:0:0:0:0:
448,192,79944,1,2,0:0:0:0:
192,192,80121,1,2,0:0:0:0:
448,192,80121,128,0,80297:0:0:0:0:
64,192,80297,1,2,0:0:0:0:
192,192,80297,128,4,80650:0:0:0:0:
320,192,80297,1,0,0:0:0:0:
320,192,80474,1,0,0:0:0:0:
64,192,80650,1,8,0:0:0:0:
448,192,80650,1,2,0:0:0:0:
64,192,80827,1,0,0:0:0:80:Snare Drum 2.wav
192,192,81003,1,2,0:0:0:0:
448,192,81003,128,0,81356:0:0:0:0:
192,192,81180,1,0,0:0:0:0:
64,192,81356,1,8,0:0:0:0:
320,192,81356,1,2,0:0:0:0:
320,192,81533,1,0,0:0:0:80:Snare Drum 2.wav
64,192,81709,128,2,82062:0:0:0:0:
448,192,81709,1,0,0:0:0:0:
448,192,81886,1,0,0:0:0:0:
192,192,82062,1,8,0:0:0:0:
320,192,82062,1,2,0:0:0:0:
320,192,82238,128,0,82415:0:0:0:0:
64,192,82415,1,2,0:0:0:0:
192,192,82415,1,0,0:0:0:0:
448,192,82591,1,2,0:0:0:0:
64,192,82680,1,2,0:0:0:0:
192,192,82680,1,0,0:0:0:0:
320,192,82768,1,8,0:0:0:0:
448,192,82768,1,2,0:0:0:0:
192,192,82944,1,2,0:0:0:0:
320,192,82944,1,0,0:0:0:0:
64,192,83121,128,2,83474:0:0:0:0:
192,192,83121,1,4,0:0:0:0:
448,192,83121,1,0,0:0:0:0:
320,192,83386,1,2,0:0:0:0:
192,192,83474,1,8,0:0:0:0:
448,192,83474,1,0,0:0:0:0:
64,192,83650,1,2,0:0:0:0:
320,192,83650,1,4,0:0:0:0:
448,192,83650,128,0,84180:0:0:0:0:
320,192,84003,1,2,0:0:0:0:
64,192,84180,1,8,0:0:0:0:
192,192,84180,1,0,0:0:0:0:
320,192,84356,1,0,0:0:0:0:
192,192,84444,1,0,0:0:0:0:
64,192,84533,1,2,0:0:0:0:
320,192,84533,128,4,84886:0:0:0:0:
448,192,84533,1,0,0:0:0:0:
192,192,84797,1,2,0:0:0:0:
64,192,84886,1,8,0:0:0:0:
448,192,84886,1,0,0:0:0:0:
64,192,85062,1,2,0:0:0:0:
192,192,85062,128,4,85591:0:0:0:0:
448,192,85062,1,0,0:0:0:0:
64,192,85415,1,2,0:0:0:0:
320,192,85591,1,8,0:0:0:0:
448,192,85591,1,0,0:0:0:0:
64,192,85680,1,8,0:0:0:0:
192,192,85680,1,0,0:0:0:0:
320,192,85768,1,0,0:0:0:60:Tom1.wav
448,192,85768,1,0,0:0:0:0:
192,192,85856,1,0,0:0:0:60:Tom2.wav
64,192,85944,1,2,0:0:0:0:
320,192,85944,1,4,0:0:0:0:
448,192,85944,1,0,0:0:0:0:
64,192,86121,1,0,0:0:0:0:
192,192,86297,1,8,0:0:0:0:
320,192,86297,1,2,0:0:0:0:
192,192,86474,1,0,0:0:0:0:
64,192,86650,128,2,87003:0:0:0:0:
448,192,86650,1,0,0:0:0:0:
448,192,86827,1,0,0:0:0:0:
192,192,87003,1,8,0:0:0:0:
320,192,87003,1,2,0:0:0:0:
320,192,87180,1,0,0:0:0:0:
64,192,87356,1,2,0:0:0:0:
192,192,87356,1,4,0:0:0:0:
448,192,87356,128,0,87709:0:0:0:0:
192,192,87533,1,0,0:0:0:0:
64,192,87709,1,8,0:0:0:0:
320,192,87709,1,2,0:0:0:0:
320,192,87886,1,0,0:0:0:0:
64,192,88062,1,2,0:0:0:0:
192,192,88062,1,0,0:0:0:0:
320,192,88238,1,0,0:0:0:0:
192,192,88327,1,2,0:0:0:0:
448,192,88327,1,0,0:0:0:0:
64,192,88415,1,8,0:0:0:0:
320,192,88415,1,0,0:0:0:0:
64,192,88591,1,2,0:0:0:0:
448,192,88591,1,0,0:0:0:0:
192,192,88680,1,2,0:0:0:0:
64,192,88768,1,2,0:0:0:0:
320,192,88768,1,4,0:0:0:0:
448,192,88768,1,0,0:0:0:0:
320,192,88944,1,0,0:0:0:95:Snare Clap.wav
448,192,88944,1,0,0:0:0:0:
64,192,89121,1,10,0:0:0:0:
192,192,89121,1,0,0:0:0:95:Snare Clap.wav
320,192,89297,1,0,0:0:0:95:Snare Clap.wav
448,192,89297,1,0,0:0:0:0:
64,192,89474,1,2,0:0:0:0:
192,192,89474,1,0,0:0:0:95:Snare Clap.wav
64,192,89650,1,0,0:0:0:95:Snare Clap.wav
192,192,89650,1,0,0:0:0:0:
320,192,89827,1,10,0:0:0:0:
448,192,89827,1,0,0:0:0:95:Snare Clap.wav
64,192,90003,1,2,0:0:0:0:
192,192,90003,1,0,0:0:0:95:Snare Clap.wav
320,192,90180,1,2,0:0:0:0:
448,192,90180,1,0,0:0:0:95:Snare Clap.wav
64,192,90268,1,2,0:0:0:0:
192,192,90268,1,0,0:0:0:95:Snare Clap.wav
320,192,90356,1,2,0:0:0:0:
448,192,90356,1,0,0:0:0:95:Snare Clap.wav
64,192,90444,1,2,0:0:0:0:
192,192,90444,1,0,0:0:0:95:Snare Clap.wav
320,192,90533,1,10,0:0:0:0:
448,192,90533,1,0,0:0:0:95:Snare Clap.wav
64,192,90621,1,2,0:0:0:0:
192,192,90621,1,0,0:0:0:95:Snare Clap.wav
320,192,90709,1,2,0:0:0:0:
448,192,90709,1,0,0:0:0:95:Snare Clap.wav
64,192,90797,1,2,0:0:0:0:
192,192,90797,1,0,0:0:0:95:Snare Clap.wav
448,192,90886,1,2,0:0:0:0:
320,192,90930,1,0,0:0:0:95:Snare Clap.wav
192,192,90974,1,2,0:0:0:0:
64,192,91018,1,0,0:0:0:95:Snare Clap.wav
320,192,91062,1,2,0:0:0:0:
448,192,91062,1,0,0:0:0:95:Snare Clap.wav
64,192,91150,1,2,0:0:0:0:
192,192,91150,1,0,0:0:0:95:Snare Clap.wav
448,192,91238,1,10,0:0:0:0:
320,192,91283,1,0,0:0:0:95:Snare Clap.wav
192,192,91327,1,2,0:0:0:0:
448,192,91415,1,2,0:0:0:0:
320,192,91459,1,0,0:0:0:95:Snare Clap.wav
192,192,91503,1,2,0:0:0:0:
64,192,91591,1,2,0:0:0:0:
320,192,91591,1,4,0:0:0:0:
448,192,91591,128,0,91680:0:0:0:0:
192,192,91768,128,0,91856:0:0:0:0:
448,192,91768,128,0,91856:0:0:0:0:
192,192,91944,128,8,92121:0:0:0:0:
448,192,91944,128,2,92297:0:0:0:0:
64,192,92121,1,0,0:0:0:0:
320,192,92209,1,0,0:0:0:0:
64,192,92297,128,2,92386:0:0:0:0:
192,192,92297,1,0,0:0:0:0:
64,192,92474,128,0,92562:0:0:0:0:
320,192,92474,128,0,92562:0:0:0:0:
64,192,92650,128,8,93003:0:0:0:0:
320,192,92650,128,2,92827:0:0:0:0:
448,192,92827,1,0,0:0:0:0:
320,192,92915,1,0,0:0:0:0:
192,192,93003,128,2,93091:0:0:0:0:
448,192,93003,1,0,0:0:0:0:
192,192,93180,128,0,93268:0:0:0:0:
448,192,93180,128,0,93268:0:0:0:0:
192,192,93356,128,8,93709:0:0:0:0:
448,192,93356,128,2,93533:0:0:0:0:
320,192,93533,1,0,0:0:0:0:
64,192,93621,1,0,0:0:0:0:
320,192,93709,1,2,0:0:0:0:
448,192,93709,128,0,93797:0:0:0:0:
64,192,93886,128,0,93974:0:0:0:0:
320,192,93886,128,0,93974:0:0:0:0:
64,192,94062,128,8,94415:0:0:0:0:
320,192,94062,128,2,94238:0:0:0:0:
448,192,94238,1,2,0:0:0:0:
320,192,94327,1,0,0:0:0:0:
192,192,94415,128,2,94503:0:0:0:0:
448,192,94415,1,0,0:0:0:0:
192,192,94591,128,0,94680:0:0:0:0:
448,192,94591,128,0,94680:0:0:0:0:
192,192,94768,128,8,95121:0:0:0:0:
448,192,94768,128,2,94944:0:0:0:0:
320,192,94944,1,0,0:0:0:0:
64,192,95033,1,0,0:0:0:0:
320,192,95121,128,2,95209:0:0:0:0:
448,192,95121,128,0,95209:0:0:0:0:
64,192,95297,128,0,95474:0:0:0:0:
320,192,95297,128,0,95386:0:0:0:0:
320,192,95474,128,10,95827:0:0:0:0:
64,192,95650,1,0,0:0:0:0:
448,192,95738,1,0,0:0:0:0:
64,192,95827,128,2,96003:0:0:0:0:
192,192,95827,128,4,95915:0:0:0:0:
448,192,95915,128,0,96003:0:0:0:0:
320,192,96003,128,0,96091:0:0:0:0:
192,192,96091,128,0,96180:0:0:0:0:
64,192,96180,128,8,96268:0:0:0:0:
448,192,96180,128,2,96356:0:0:0:0:
320,192,96268,128,0,96356:0:0:0:0:
64,192,96356,128,0,96533:0:0:0:0:
192,192,96444,128,0,96533:0:0:0:0:
320,192,96533,1,2,0:0:0:0:
448,192,96533,1,0,0:0:0:0:
64,192,96709,1,8,0:0:0:0:
192,192,96709,1,4,0:0:0:0:
448,192,96709,1,0,0:0:0:0:
320,192,96797,1,0,0:0:0:0:
64,192,96886,1,12,0:0:0:0:
448,192,96886,1,2,0:0:0:0:
192,192,96974,1,2,0:0:0:0:
320,192,97062,1,2,0:0:0:0:
448,192,97062,1,0,0:0:0:0:
64,192,97150,1,2,0:0:0:0:
192,192,97150,1,0,0:0:0:0:
64,192,97238,1,2,0:0:0:0:
320,192,97238,128,4,97327:0:0:0:0:
448,192,97238,1,0,0:0:0:0:
64,192,97415,128,0,97503:0:0:0:0:
320,192,97415,128,0,97503:0:0:0:0:
64,192,97591,128,8,97768:0:0:0:0:
320,192,97591,128,2,97944:0:0:0:0:
192,192,97768,1,4,0:0:0:0:
448,192,97856,1,0,0:0:0:0:
64,192,97944,128,2,98033:0:0:0:0:
192,192,97944,1,4,0:0:0:0:
64,192,98121,128,0,98209:0:0:0:0:
448,192,98121,128,0,98209:0:0:0:0:
64,192,98297,128,8,98650:0:0:0:0:
448,192,98297,128,2,98474:0:0:0:0:
320,192,98474,1,8,0:0:0:0:
192,192,98562,1,8,0:0:0:0:
320,192,98650,1,2,0:0:0:0:
448,192,98650,128,0,98738:0:0:0:0:
192,192,98827,128,2,98915:0:0:0:0:
448,192,98827,128,0,98915:0:0:0:0:
192,192,99003,128,8,99180:0:0:0:0:
448,192,99003,128,2,99356:0:0:0:0:
64,192,99180,1,2,0:0:0:0:
320,192,99268,1,2,0:0:0:0:
64,192,99356,1,2,0:0:0:0:
192,192,99356,1,0,0:0:0:0:
448,192,99444,1,2,0:0:0:0:
192,192,99533,1,2,0:0:0:0:
320,192,99533,1,0,0:0:0:0:
64,192,99621,1,2,0:0:0:0:
320,192,99709,1,2,0:0:0:0:
448,192,99709,1,8,0:0:0:0:
320,192,99886,1,2,0:0:0:0:
448,192,99886,1,0,0:0:0:0:
64,192,100062,128,2,100121:0:0:0:0:
192,192,100062,1,0,0:0:0:0:
64,192,100297,128,0,100356:0:0:0:0:
320,192,100415,128,0,100474:0:0:0:0:
320,192,100650,128,0,100709:0:0:0:0:
192,192,100768,128,0,100827:0:0:0:0:
192,192,101003,128,0,101062:0:0:0:0:
448,192,101121,128,0,101180:0:0:0:0:
448,192,101356,128,0,101415:0:0:0:0:
64,192,101474,1,0,0:0:0:0:
192,192,101474,1,0,0:0:0:0:
320,192,101591,1,0,0:0:0:0:
448,192,101591,1,0,0:0:0:0:
64,192,101709,1,0,0:0:0:0:
192,192,101709,1,0,0:0:0:0:
64,192,101944,1,0,0:0:0:0:
192,192,101944,1,0,0:0:0:0:
320,192,102062,1,0,0:0:0:0:
448,192,102062,1,0,0:0:0:0:
64,192,102180,1,2,0:0:0:0:
192,192,102180,1,0,0:0:0:0:
320,192,102415,1,2,0:0:0:0:
448,192,102415,1,0,0:0:0:0:
64,192,102474,1,2,0:0:0:0:
192,192,102474,1,0,0:0:0:0:
320,192,102533,1,2,0:0:0:0:
448,192,102533,1,0,0:0:0:0:
320,192,102768,1,2,0:0:0:0:
448,192,102768,1,0,0:0:0:0:
64,192,102886,1,2,0:0:0:0:
192,192,102886,1,4,0:0:0:0:
448,192,102886,1,0,0:0:0:0:
64,192,103062,128,0,103238:0:0:0:0:
320,192,103238,1,8,0:0:0:0:
448,192,103238,1,2,0:0:0:0:
192,192,103415,1,0,0:0:0:0:
320,192,103503,1,0,0:0:0:0:
64,192,103591,1,2,0:0:0:0:
448,192,103591,1,0,0:0:0:0:
192,192,103680,1,0,0:0:0:0:
448,192,103768,1,0,0:0:0:0:
320,192,103856,1,0,0:0:0:0:
64,192,103944,1,8,0:0:0:0:
192,192,103944,1,2,0:0:0:0:
64,192,104121,1,0,0:0:0:80:Snare Drum 2.wav
448,192,104121,1,0,0:0:0:0:
320,192,104297,1,2,0:0:0:0:
448,192,104297,1,0,0:0:0:0:
320,192,104474,128,0,104650:0:0:0:0:
64,192,104650,1,8,0:0:0:0:
448,192,104650,1,2,0:0:0:0:
192,192,104827,128,0,105003:0:0:0:0:
64,192,105003,1,2,0:0:0:0:
448,192,105003,1,0,0:0:0:0:
320,192,105091,1,0,0:0:0:0:
192,192,105180,1,0,0:0:0:0:
320,192,105268,1,0,0:0:0:0:
64,192,105356,1,8,0:0:0:0:
448,192,105356,1,2,0:0:0:0:
192,192,105533,1,2,0:0:0:0:
320,192,105533,1,0,0:0:0:0:
192,192,105709,1,2,0:0:0:0:
320,192,105709,1,0,0:0:0:0:
64,192,105886,128,0,106062:0:0:0:0:
320,192,106062,1,8,0:0:0:0:
448,192,106062,1,2,0:0:0:0:
192,192,106238,128,0,106415:0:0:0:0:
64,192,106415,1,2,0:0:0:0:
448,192,106415,1,0,0:0:0:0:
320,192,106503,1,0,0:0:0:0:
192,192,106591,1,0,0:0:0:0:
64,192,106680,1,0,0:0:0:0:
320,192,106768,1,8,0:0:0:0:
448,192,106768,1,2,0:0:0:0:
192,192,106944,128,0,107121:0:0:0:0:
64,192,107121,1,2,0:0:0:0:
448,192,107121,1,0,0:0:0:0:
320,192,107297,128,0,107474:0:0:0:0:
64,192,107474,1,8,0:0:0:0:
192,192,107474,1,2,0:0:0:0:
448,192,107562,1,0,0:0:0:0:
192,192,107650,1,0,0:0:0:0:
320,192,107738,1,0,0:0:0:0:
64,192,107827,1,2,0:0:0:0:
448,192,107827,1,0,0:0:0:0:
192,192,107915,1,0,0:0:0:0:
320,192,108003,1,0,0:0:0:0:
64,192,108091,1,2,0:0:0:0:
192,192,108091,1,0,0:0:0:0:
320,192,108180,1,8,0:0:0:0:
448,192,108180,1,2,0:0:0:0:
192,192,108356,128,2,108533:0:0:0:0:
64,192,108533,1,2,0:0:0:0:
320,192,108533,1,4,0:0:0:0:
448,192,108533,1,0,0:0:0:0:
320,192,108709,128,0,108886:0:0:0:0:
64,192,108886,1,8,0:0:0:0:
448,192,108886,1,2,0:0:0:0:
64,192,109062,128,0,109238:0:0:0:0:
320,192,109238,1,2,0:0:0:0:
448,192,109238,1,0,0:0:0:0:
192,192,109327,1,0,0:0:0:0:
320,192,109415,1,0,0:0:0:0:
192,192,109503,1,0,0:0:0:0:
64,192,109591,1,8,0:0:0:0:
448,192,109591,1,2,0:0:0:0:
64,192,109768,1,0,0:0:0:80:Snare Drum 2.wav
320,192,109768,1,0,0:0:0:0:
192,192,109944,1,2,0:0:0:0:
448,192,109944,1,0,0:0:0:0:
192,192,110121,128,0,110297:0:0:0:0:
64,192,110297,1,8,0:0:0:0:
320,192,110297,1,2,0:0:0:0:
320,192,110474,128,0,110650:0:0:0:0:
64,192,110650,1,2,0:0:0:0:
448,192,110650,1,0,0:0:0:0:
192,192,110738,1,0,0:0:0:0:
448,192,110827,1,0,0:0:0:0:
320,192,110915,1,0,0:0:0:0:
64,192,111003,1,8,0:0:0:0:
192,192,111003,1,2,0:0:0:0:
320,192,111180,1,2,0:0:0:0:
448,192,111180,1,0,0:0:0:0:
64,192,111356,1,2,0:0:0:0:
192,192,111356,128,0,111533:0:0:0:0:
320,192,111533,128,0,111709:0:0:0:0:
64,192,111709,1,8,0:0:0:0:
448,192,111709,128,2,111886:0:0:0:0:
192,192,111886,128,0,112062:0:0:0:0:
320,192,112062,1,2,0:0:0:0:
448,192,112062,1,0,0:0:0:0:
192,192,112238,128,0,112415:0:0:0:0:
64,192,112415,1,8,0:0:0:0:
448,192,112415,128,2,112591:0:0:0:0:
320,192,112591,128,0,112768:0:0:0:0:
64,192,112768,1,2,0:0:0:0:
192,192,112768,1,0,0:0:0:0:
64,192,113033,1,2,0:0:0:0:
192,192,113033,1,0,0:0:0:0:
320,192,113121,1,8,0:0:0:0:
448,192,113121,1,2,0:0:0:0:
64,192,113297,1,2,0:0:0:0:
192,192,113297,1,0,0:0:0:0:
320,192,113474,1,2,0:0:0:0:
448,192,113474,1,0,0:0:0:0:
64,192,113562,1,2,0:0:0:0:
192,192,113562,1,0,0:0:0:0:
320,192,113650,1,2,0:0:0:0:
448,192,113650,1,0,0:0:0:0:
192,192,113738,1,2,0:0:0:0:
64,192,113827,1,8,0:0:0:0:
448,192,113827,1,2,0:0:0:0:
320,192,114003,1,2,0:0:0:0:
192,192,114091,1,2,0:0:0:0:
64,192,114180,1,2,0:0:0:0:
320,192,114180,1,4,0:0:0:0:
448,192,114180,1,0,0:0:0:0:
192,192,114268,1,0,0:0:0:0:
448,192,114356,1,0,0:0:0:0:
320,192,114444,1,0,0:0:0:0:
64,192,114533,1,8,0:0:0:0:
192,192,114533,1,2,0:0:0:0:
320,192,114621,1,0,0:0:0:0:
448,192,114709,1,0,0:0:0:0:
192,192,114797,1,0,0:0:0:0:
64,192,114886,1,2,0:0:0:0:
320,192,114886,1,0,0:0:0:0:
192,192,114974,1,0,0:0:0:0:
448,192,115062,1,0,0:0:0:0:
320,192,115150,1,0,0:0:0:0:
64,192,115238,1,8,0:0:0:0:
192,192,115238,1,2,0:0:0:0:
320,192,115327,1,0,0:0:0:0:
448,192,115415,1,0,0:0:0:0:
64,192,115503,1,0,0:0:0:0:
192,192,115591,1,2,0:0:0:0:
320,192,115591,1,0,0:0:0:0:
448,192,115680,1,0,0:0:0:0:
64,192,115768,1,0,0:0:0:0:
192,192,115856,1,0,0:0:0:0:
320,192,115944,1,8,0:0:0:0:
448,192,115944,1,2,0:0:0:0:
192,192,116033,1,0,0:0:0:0:
64,192,116121,1,0,0:0:0:0:
320,192,116209,1,0,0:0:0:0:
192,192,116297,1,2,0:0:0:0:
448,192,116297,1,0,0:0:0:0:
320,192,116386,1,0,0:0:0:0:
64,192,116474,1,0,0:0:0:0:
192,192,116562,1,0,0:0:0:0:
320,192,116650,1,8,0:0:0:0:
448,192,116650,1,2,0:0:0:0:
64,192,116738,1,0,0:0:0:0:
192,192,116827,1,2,0:0:0:0:
320,192,116827,1,0,0:0:0:0:
448,192,116915,1,0,0:0:0:0:
64,192,117003,1,2,0:0:0:0:
192,192,117003,1,0,0:0:0:0:
320,192,117091,1,0,0:0:0:0:
448,192,117180,1,0,0:0:0:0:
192,192,117268,1,0,0:0:0:0:
64,192,117356,1,8,0:0:0:0:
320,192,117356,1,2,0:0:0:0:
192,192,117444,1,0,0:0:0:0:
448,192,117533,1,0,0:0:0:0:
320,192,117621,1,0,0:0:0:0:
64,192,117709,1,2,0:0:0:0:
192,192,117709,1,0,0:0:0:0:
448,192,117797,1,0,0:0:0:0:
320,192,117886,1,0,0:0:0:0:
192,192,117974,1,0,0:0:0:0:
64,192,118062,1,8,0:0:0:0:
448,192,118062,1,2,0:0:0:0:
320,192,118150,1,0,0:0:0:0:
64,192,118238,1,0,0:0:0:0:
192,192,118327,1,0,0:0:0:0:
320,192,118415,1,2,0:0:0:0:
448,192,118415,1,0,0:0:0:0:
64,192,118503,1,0,0:0:0:0:
192,192,118591,1,0,0:0:0:0:
320,192,118680,1,0,0:0:0:0:
64,192,118768,1,8,0:0:0:0:
448,192,118768,1,2,0:0:0:0:
192,192,118856,1,0,0:0:0:0:
448,192,118944,1,0,0:0:0:0:
320,192,119033,1,0,0:0:0:0:
64,192,119121,128,2,119297:0:0:0:0:
192,192,119121,128,0,119297:0:0:0:0:
448,192,119297,1,0,0:0:0:0:
320,192,119386,1,2,0:0:0:0:
64,192,119474,128,8,119650:0:0:0:0:
192,192,119474,128,2,119650:0:0:0:0:
320,192,119650,1,2,0:0:0:0:
448,192,119650,1,0,0:0:0:0:
64,192,119827,1,2,0:0:0:0:
192,192,119827,1,4,0:0:0:0:
448,192,119827,1,0,0:0:0:0:
320,192,120180,1,0,0:0:0:45:S.wav
448,192,120180,1,0,0:0:0:0:
64,192,120356,1,4,0:0:0:0:
192,192,120356,1,0,0:0:0:45:K.wav
448,192,120356,1,0,0:0:0:0:
64,192,120709,1,0,0:0:0:45:K.wav
192,192,120709,1,0,0:0:0:0:
320,192,120886,1,0,0:0:0:45:S.wav
448,192,120886,1,0,0:0:0:0:
64,192,121062,1,0,0:0:0:45:K.wav
192,192,121062,1,0,0:0:0:0:
320,192,121415,1,0,0:0:0:45:K.wav
192,192,121503,1,0,0:0:0:45:K.wav
64,192,121591,1,4,0:0:0:0:
320,192,121591,1,0,0:0:0:45:S.wav
448,192,121591,1,0,0:0:0:45:K.wav
64,192,121944,1,2,0:0:0:0:
320,192,121944,1,4,0:0:0:0:
448,192,121944,1,0,0:0:0:0:
192,192,122121,1,0,0:0:0:0:
320,192,122209,1,0,0:0:0:0:
64,192,122297,1,0,0:0:0:45:S.wav
448,192,122297,1,0,0:0:0:0:
64,192,122474,1,2,0:0:0:0:
192,192,122474,1,4,0:0:0:0:
448,192,122474,1,0,0:0:0:0:
320,192,122827,1,0,0:0:0:45:S.wav
448,192,122827,1,0,0:0:0:0:
320,192,123003,1,0,0:0:0:45:S.wav
448,192,123003,1,0,0:0:0:0:
64,192,123180,1,0,0:0:0:45:K.wav
192,192,123180,1,0,0:0:0:0:
320,192,123356,1,0,0:0:0:45:S.wav
448,192,123356,1,0,0:0:0:0:
192,192,123533,1,0,0:0:0:60:Tom1.wav
320,192,123533,1,0,0:0:0:0:
64,192,123709,1,0,0:0:0:60:Tom2.wav
192,192,123709,1,0,0:0:0:0:
320,192,123886,1,0,0:0:0:45:Tom3.wav
448,192,123886,1,0,0:0:0:0:
64,192,124062,128,4,124415:0:0:0:0:
192,192,124062,1,0,0:0:0:45:K.wav
448,192,124062,1,0,0:0:0:0:
320,192,124415,1,0,0:0:0:0:
448,192,124415,1,0,0:0:0:0:
192,192,124591,128,0,124680:0:0:0:45:K.wav
192,192,124768,128,0,125121:0:0:0:45:K.wav
64,192,124944,1,0,0:0:0:0:
320,192,124944,1,0,0:0:0:0:
448,192,125121,1,0,0:0:0:60:Tom1.wav
320,192,125297,128,0,125474:0:0:0:60:Tom2.wav
64,192,125474,1,0,0:0:0:0:
448,192,125474,1,0,0:0:0:0:
192,192,125650,128,0,126003:0:0:0:45:K.wav
320,192,125827,1,0,0:0:0:60:Tom1.wav
64,192,126003,1,0,0:0:0:60:Tom2.wav
448,192,126003,128,0,126091:0:0:0:0:
448,192,126180,128,0,126356:0:0:0:45:K.wav
192,192,126356,1,0,0:0:0:60:Tom2.wav
64,192,126533,128,0,126886:0:0:0:60:Tom2.wav
448,192,126533,1,0,0:0:0:0:
320,192,126709,1,0,0:0:0:45:Tom3.wav
192,192,126886,1,0,0:0:0:35:Crash.wav
448,192,126886,128,0,127238:0:0:0:45:K.wav
64,192,127238,1,0,0:0:0:0:
192,192,127238,1,0,0:0:0:0:
320,192,127415,128,0,127503:0:0:0:45:K.wav
320,192,127591,128,0,127944:0:0:0:45:K.wav
192,192,127768,1,0,0:0:0:0:
448,192,127768,1,0,0:0:0:0:
64,192,127944,1,0,0:0:0:60:Tom1.wav
192,192,128121,128,0,128297:0:0:0:45:Tom3.wav
64,192,128297,1,0,0:0:0:0:
448,192,128297,1,0,0:0:0:0:
320,192,128474,128,2,128827:0:0:0:45:K.wav
64,192,128650,1,0,0:0:0:60:Tom1.wav
192,192,128827,128,0,128915:0:0:0:60:Tom2.wav
448,192,128827,1,0,0:0:0:0:
192,192,129003,128,0,129180:0:0:0:0:
64,192,129180,1,0,0:0:0:60:Tom1.wav
320,192,129356,1,0,0:0:0:60:Tom1.wav
448,192,129356,128,0,129709:0:0:0:0:
192,192,129533,1,0,0:0:0:45:Tom3.wav
64,192,129709,128,0,129886:0:0:0:0:
192,192,129886,128,0,130062:0:0:0:0:
320,192,130062,128,0,130238:0:0:0:0:
64,192,130238,128,0,130591:0:0:0:0:
448,192,130591,128,0,130944:0:0:0:0:
192,192,130944,128,0,131297:0:0:0:0:
320,192,131297,128,0,131650:0:0:0:0:
448,192,131650,128,0,131827:0:0:0:0:
64,192,131827,128,0,132180:0:0:0:0:
320,192,132180,128,0,132533:0:0:0:0:
64,192,132533,128,0,132709:0:0:0:0:
448,192,132533,1,0,0:0:0:0:
192,192,132709,128,0,132886:0:0:0:0:
320,192,132886,128,0,133062:0:0:0:0:
64,192,133062,128,0,133415:0:0:0:0:
448,192,133415,128,0,133768:0:0:0:0:
192,192,133768,128,0,133944:0:0:0:0:
320,192,133944,1,0,0:0:0:0:
320,192,134209,1,0,0:0:0:0:
320,192,134386,1,0,0:0:0:0:
448,192,134562,1,0,0:0:0:0:
192,192,134650,1,0,0:0:0:0:
192,192,134915,1,0,0:0:0:0:
192,192,135091,1,0,0:0:0:0:
64,192,135268,1,0,0:0:0:0:
448,192,135356,1,0,0:0:0:0:
192,192,135474,1,0,0:0:0:0:
448,192,135591,1,0,0:0:0:0:
192,192,135709,1,0,0:0:0:0:
448,192,135827,1,0,0:0:0:0:
320,192,135944,1,0,0:0:0:0:
64,192,136062,1,2,0:0:0:0:
192,192,136062,1,0,0:0:0:0:
320,192,136768,1,2,0:0:0:0:
448,192,136768,1,0,0:0:0:0:
64,192,136856,1,0,0:0:0:0:
192,192,136944,1,0,0:0:0:0:
320,192,137033,1,0,0:0:0:0:
64,192,137121,1,2,0:0:0:0:
448,192,137121,1,0,0:0:0:0:
192,192,137209,1,0,0:0:0:0:
448,192,137297,1,0,0:0:0:0:
320,192,137386,1,0,0:0:0:0:
64,192,137474,1,2,0:0:0:0:
192,192,137474,1,0,0:0:0:0:
448,192,137562,1,0,0:0:0:0:
320,192,137650,1,0,0:0:0:0:
64,192,137738,1,2,0:0:0:0:
192,192,137738,1,0,0:0:0:0:
320,192,137827,1,2,0:0:0:0:
448,192,137827,1,0,0:0:0:50:Snare.wav
192,192,137915,1,2,0:0:0:0:
64,192,138003,1,2,0:0:0:0:
448,192,138003,1,0,0:0:0:0:
320,192,138091,1,2,0:0:0:0:
64,192,138180,1,2,0:0:0:0:
192,192,138180,1,4,0:0:0:0:
448,192,138180,128,0,138533:0:0:0:0:
192,192,138356,1,0,0:0:0:0:
64,192,138533,1,8,0:0:0:0:
320,192,138533,1,2,0:0:0:0:
320,192,138709,128,0,138886:0:0:0:0:
192,192,138886,1,2,0:0:0:0:
448,192,138886,1,0,0:0:0:0:
192,192,139062,128,0,139238:0:0:0:0:
64,192,139238,1,8,0:0:0:0:
320,192,139238,1,2,0:0:0:0:
64,192,139415,128,0,139591:0:0:0:0:
192,192,139591,1,2,0:0:0:0:
448,192,139591,1,0,0:0:0:0:
448,192,139768,128,0,139944:0:0:0:0:
64,192,139944,128,8,140121:0:0:0:0:
320,192,139944,1,2,0:0:0:0:
448,192,140121,128,0,140297:0:0:0:0:
64,192,140297,1,2,0:0:0:0:
192,192,140297,1,0,0:0:0:0:
320,192,140474,128,0,140650:0:0:0:0:
64,192,140650,128,8,140827:0:0:0:0:
448,192,140650,1,2,0:0:0:0:
192,192,140827,1,2,0:0:0:0:
448,192,140827,128,0,141003:0:0:0:0:
64,192,141003,1,2,0:0:0:0:
192,192,141003,128,4,141356:0:0:0:0:
320,192,141003,1,0,0:0:0:0:
320,192,141180,1,0,0:0:0:0:
64,192,141356,1,8,0:0:0:0:
448,192,141356,1,0,0:0:0:0:
64,192,141533,1,0,0:0:0:80:Snare Drum 2.wav
192,192,141709,1,2,0:0:0:0:
448,192,141709,128,0,142062:0:0:0:0:
192,192,141886,1,0,0:0:0:0:
64,192,142062,1,8,0:0:0:0:
320,192,142062,1,2,0:0:0:0:
320,192,142238,1,0,0:0:0:0:
192,192,142415,128,2,142768:0:0:0:0:
448,192,142415,1,0,0:0:0:0:
448,192,142591,1,0,0:0:0:0:
64,192,142768,1,8,0:0:0:0:
320,192,142768,1,2,0:0:0:0:
320,192,142944,128,0,143121:0:0:0:0:
64,192,143121,1,2,0:0:0:0:
448,192,143121,1,0,0:0:0:0:
64,192,143297,128,0,143474:0:0:0:0:
192,192,143386,1,2,0:0:0:0:
320,192,143474,1,2,0:0:0:0:
448,192,143474,1,8,0:0:0:0:
192,192,143650,1,2,0:0:0:0:
320,192,143650,1,0,0:0:0:0:
64,192,143827,1,2,0:0:0:0:
192,192,143827,1,4,0:0:0:0:
448,192,143827,128,0,144180:0:0:0:0:
192,192,144091,1,2,0:0:0:0:
64,192,144180,1,8,0:0:0:0:
320,192,144180,1,0,0:0:0:0:
64,192,144356,1,2,0:0:0:0:
192,192,144356,128,4,144709:0:0:0:0:
448,192,144356,1,0,0:0:0:0:
320,192,144709,1,2,0:0:0:0:
448,192,144797,1,0,0:0:0:0:
64,192,144886,1,8,0:0:0:0:
192,192,144886,1,0,0:0:0:0:
320,192,144974,1,0,0:0:0:0:
64,192,145062,1,0,0:0:0:0:
448,192,145062,1,0,0:0:0:0:
192,192,145150,1,0,0:0:0:0:
64,192,145238,1,2,0:0:0:0:
320,192,145238,128,4,145591:0:0:0:0:
448,192,145238,1,0,0:0:0:0:
192,192,145503,1,2,0:0:0:0:
64,192,145591,1,8,0:0:0:0:
448,192,145591,1,0,0:0:0:0:
64,192,145768,128,2,146121:0:0:0:0:
192,192,145768,1,4,0:0:0:0:
448,192,145768,1,0,0:0:0:0:
320,192,146121,1,2,0:0:0:0:
192,192,146209,1,2,0:0:0:0:
64,192,146297,1,8,0:0:0:0:
448,192,146297,1,0,0:0:0:0:
320,192,146386,1,0,0:0:0:0:
64,192,146474,1,2,0:0:0:0:
192,192,146474,1,0,0:0:0:0:
320,192,146562,1,0,0:0:0:0:
64,192,146650,128,2,147003:0:0:0:0:
192,192,146650,1,4,0:0:0:0:
448,192,146650,1,0,0:0:0:0:
448,192,146827,1,0,0:0:0:0:
192,192,146915,1,2,0:0:0:0:
320,192,147003,1,8,0:0:0:0:
448,192,147003,1,0,0:0:0:0:
320,192,147180,1,2,0:0:0:0:
64,192,147356,1,2,0:0:0:0:
192,192,147356,1,4,0:0:0:0:
448,192,147356,128,0,147709:0:0:0:0:
64,192,147533,1,0,0:0:0:0:
320,192,147621,1,2,0:0:0:0:
64,192,147709,1,8,0:0:0:0:
192,192,147709,1,0,0:0:0:0:
320,192,147886,1,2,0:0:0:0:
192,192,147974,1,0,0:0:0:0:
64,192,148062,1,2,0:0:0:0:
448,192,148062,1,4,0:0:0:0:
192,192,148150,1,2,0:0:0:0:
320,192,148150,1,0,0:0:0:0:
64,192,148238,1,2,0:0:0:0:
448,192,148238,1,0,0:0:0:0:
192,192,148327,1,2,0:0:0:0:
320,192,148327,1,0,0:0:0:0:
64,192,148415,1,8,0:0:0:0:
448,192,148415,1,0,0:0:0:0:
192,192,148591,1,2,0:0:0:0:
320,192,148591,1,0,0:0:0:0:
64,192,148768,1,8,0:0:0:0:
192,192,148768,1,0,0:0:0:0:
320,192,148856,1,8,0:0:0:0:
448,192,148856,1,0,0:0:0:0:
64,192,148944,1,2,0:0:0:0:
192,192,148944,1,0,0:0:0:0:
320,192,149033,1,2,0:0:0:0:
448,192,149033,1,0,0:0:0:0:
64,192,149121,1,8,0:0:0:0:
192,192,149121,1,0,0:0:0:0:
320,192,149209,1,0,0:0:0:0:
64,192,149297,1,2,0:0:0:0:
448,192,149297,1,8,0:0:0:0:
192,192,149386,1,2,0:0:0:0:
64,192,149474,128,2,149827:0:0:0:0:
320,192,149474,1,4,0:0:0:0:
448,192,149474,1,0,0:0:0:0:
320,192,149650,1,0,0:0:0:0:
192,192,149827,1,8,0:0:0:0:
448,192,149827,1,2,0:0:0:0:
448,192,150003,128,0,150180:0:0:0:0:
192,192,150180,1,2,0:0:0:0:
320,192,150180,1,0,0:0:0:0:
192,192,150356,128,0,150533:0:0:0:0:
64,192,150533,1,2,0:0:0:0:
320,192,150533,1,8,0:0:0:0:
320,192,150709,128,0,150886:0:0:0:80:Snare Drum 2.wav
64,192,150886,1,2,0:0:0:0:
448,192,150886,1,0,0:0:0:0:
64,192,151062,128,0,151238:0:0:0:0:
192,192,151238,1,8,0:0:0:0:
448,192,151238,128,2,151415:0:0:0:0:
64,192,151415,128,0,151591:0:0:0:0:
320,192,151591,1,2,0:0:0:0:
448,192,151591,1,0,0:0:0:0:
192,192,151768,128,0,151944:0:0:0:0:
64,192,151944,1,8,0:0:0:0:
448,192,151944,128,2,152121:0:0:0:0:
64,192,152121,128,2,152297:0:0:0:0:
320,192,152121,1,0,0:0:0:0:
192,192,152297,1,2,0:0:0:0:
320,192,152297,128,4,152650:0:0:0:0:
448,192,152297,1,0,0:0:0:0:
192,192,152474,1,0,0:0:0:0:
64,192,152650,1,8,0:0:0:0:
448,192,152650,1,2,0:0:0:0:
448,192,152827,1,0,0:0:0:0:
64,192,153003,128,2,153356:0:0:0:0:
320,192,153003,1,0,0:0:0:0:
320,192,153180,1,0,0:0:0:0:
192,192,153356,1,8,0:0:0:0:
448,192,153356,1,2,0:0:0:0:
192,192,153533,1,0,0:0:0:0:
64,192,153709,1,2,0:0:0:0:
448,192,153709,128,0,154062:0:0:0:0:
64,192,153886,1,0,0:0:0:0:
192,192,154062,1,8,0:0:0:0:
320,192,154062,1,2,0:0:0:0:
192,192,154238,128,0,154415:0:0:0:0:
64,192,154415,1,2,0:0:0:0:
320,192,154415,1,0,0:0:0:0:
192,192,154591,1,0,0:0:0:0:
320,192,154680,1,2,0:0:0:0:
448,192,154680,1,0,0:0:0:0:
64,192,154768,1,8,0:0:0:0:
192,192,154768,1,2,0:0:0:0:
192,192,154944,1,2,0:0:0:0:
320,192,154944,1,0,0:0:0:0:
64,192,155121,1,2,0:0:0:0:
320,192,155121,1,4,0:0:0:0:
448,192,155121,128,0,155474:0:0:0:0:
192,192,155386,1,2,0:0:0:0:
64,192,155474,1,8,0:0:0:0:
320,192,155474,1,0,0:0:0:0:
64,192,155650,128,2,156180:0:0:0:0:
192,192,155650,1,4,0:0:0:0:
448,192,155650,1,0,0:0:0:0:
192,192,156003,1,2,0:0:0:0:
320,192,156180,1,8,0:0:0:0:
448,192,156180,1,0,0:0:0:0:
192,192,156356,1,8,0:0:0:0:
320,192,156444,1,8,0:0:0:0:
64,192,156533,128,2,156886:0:0:0:0:
192,192,156533,1,4,0:0:0:0:
448,192,156533,1,0,0:0:0:0:
320,192,156797,1,2,0:0:0:0:
192,192,156886,1,8,0:0:0:0:
448,192,156886,1,0,0:0:0:0:
64,192,157062,1,2,0:0:0:0:
320,192,157062,1,4,0:0:0:0:
448,192,157062,128,0,157591:0:0:0:0:
320,192,157415,1,2,0:0:0:0:
64,192,157591,1,8,0:0:0:0:
192,192,157591,1,0,0:0:0:0:
320,192,157680,1,8,0:0:0:0:
448,192,157680,1,0,0:0:0:0:
64,192,157768,1,0,0:0:0:60:Tom1.wav
192,192,157768,1,0,0:0:0:0:
320,192,157856,1,0,0:0:0:60:Tom2.wav
64,192,157944,1,2,0:0:0:0:
192,192,157944,1,4,0:0:0:0:
448,192,157944,1,0,0:0:0:0:
448,192,158121,1,0,0:0:0:0:
192,192,158297,1,8,0:0:0:0:
320,192,158297,1,2,0:0:0:0:
192,192,158474,1,0,0:0:0:0:
64,192,158650,128,2,159003:0:0:0:0:
448,192,158650,1,0,0:0:0:0:
448,192,158827,1,0,0:0:0:0:
192,192,159003,1,8,0:0:0:0:
320,192,159003,1,2,0:0:0:0:
320,192,159180,1,0,0:0:0:0:
64,192,159356,1,2,0:0:0:0:
192,192,159356,1,4,0:0:0:0:
448,192,159356,128,0,159709:0:0:0:0:
64,192,159533,1,0,0:0:0:0:
192,192,159709,1,8,0:0:0:0:
320,192,159709,1,2,0:0:0:0:
320,192,159886,1,0,0:0:0:0:
64,192,160062,1,2,0:0:0:0:
192,192,160062,1,0,0:0:0:0:
192,192,160238,1,2,0:0:0:0:
320,192,160238,1,0,0:0:0:0:
320,192,160415,1,8,0:0:0:0:
448,192,160415,1,2,0:0:0:0:
64,192,160591,1,2,0:0:0:0:
448,192,160591,1,0,0:0:0:0:
320,192,160680,1,2,0:0:0:0:
64,192,160768,1,2,0:0:0:0:
192,192,160768,1,4,0:0:0:0:
448,192,160768,1,0,0:0:0:0:
64,192,160944,1,0,0:0:0:95:Snare Clap.wav
192,192,160944,1,0,0:0:0:0:
320,192,161121,1,10,0:0:0:0:
448,192,161121,1,0,0:0:0:95:Snare Clap.wav
64,192,161297,1,0,0:0:0:95:Snare Clap.wav
192,192,161297,1,0,0:0:0:0:
320,192,161474,1,2,0:0:0:0:
448,192,161474,1,0,0:0:0:95:Snare Clap.wav
320,192,161650,1,0,0:0:0:95:Snare Clap.wav
448,192,161650,1,0,0:0:0:0:
64,192,161827,1,10,0:0:0:0:
192,192,161827,1,0,0:0:0:95:Snare Clap.wav
320,192,162003,1,0,0:0:0:95:Snare Clap.wav
448,192,162003,1,0,0:0:0:0:
64,192,162180,1,2,0:0:0:0:
192,192,162180,1,0,0:0:0:95:Snare Clap.wav
320,192,162268,1,2,0:0:0:0:
448,192,162268,1,0,0:0:0:95:Snare Clap.wav
64,192,162356,1,2,0:0:0:0:
192,192,162356,1,0,0:0:0:95:Snare Clap.wav
320,192,162444,1,2,0:0:0:0:
448,192,162444,1,0,0:0:0:95:Snare Clap.wav
64,192,162533,1,10,0:0:0:0:
192,192,162533,1,0,0:0:0:95:Snare Clap.wav
320,192,162621,1,2,0:0:0:0:
448,192,162621,1,0,0:0:0:95:Snare Clap.wav
64,192,162709,1,2,0:0:0:0:
192,192,162709,1,0,0:0:0:95:Snare Clap.wav
320,192,162797,1,2,0:0:0:0:
448,192,162797,1,0,0:0:0:95:Snare Clap.wav
64,192,162886,1,2,0:0:0:0:
192,192,162930,1,0,0:0:0:95:Snare Clap.wav
320,192,162974,1,2,0:0:0:0:
448,192,163018,1,0,0:0:0:95:Snare Clap.wav
64,192,163062,1,2,0:0:0:0:
192,192,163062,1,0,0:0:0:95:Snare Clap.wav
320,192,163150,1,2,0:0:0:0:
448,192,163150,1,0,0:0:0:95:Snare Clap.wav
64,192,163238,1,10,0:0:0:0:
192,192,163283,1,0,0:0:0:95:Snare Clap.wav
320,192,163327,1,2,0:0:0:0:
64,192,163415,1,2,0:0:0:0:
192,192,163459,1,0,0:0:0:95:Snare Clap.wav
320,192,163503,1,2,0:0:0:0:
64,192,163591,1,4,0:0:0:0:
192,192,163591,1,2,0:0:0:0:
448,192,163591,1,0,0:0:0:60:Timpani.wav
320,192,166062,1,0,0:0:0:30:Timpani.wav
192,192,166180,1,0,0:0:0:30:Timpani.wav
320,192,166297,1,0,0:0:0:30:Timpani.wav
64,192,166415,1,4,0:0:0:0:
192,192,166415,1,0,0:0:0:35:Timpani.wav
448,192,166415,1,0,0:0:0:0:
320,192,167827,1,0,0:0:0:35:Timpani.wav
448,192,167827,1,0,0:0:0:0:
320,192,168180,1,0,0:0:0:35:Timpani.wav
448,192,168180,1,0,0:0:0:0:
64,192,168533,1,0,0:0:0:35:Timpani.wav
192,192,168533,1,0,0:0:0:0:
64,192,168886,1,0,0:0:0:35:Timpani.wav
192,192,168886,1,0,0:0:0:0:
64,192,169238,1,4,0:0:0:0:
320,192,169238,1,0,0:0:0:35:Timpani.wav
448,192,169238,1,0,0:0:0:0:
192,192,169474,1,0,0:0:0:100:Snare Drum.wav
64,192,169591,1,0,0:0:0:100:Snare Drum.wav
448,192,169591,1,0,0:0:0:0:
320,192,169709,1,0,0:0:0:100:Snare Drum.wav
192,192,169827,1,0,0:0:0:100:Snare Drum.wav
64,192,169944,1,0,0:0:0:100:Snare Drum.wav
448,192,169944,1,0,0:0:0:0:
320,192,170180,1,0,0:0:0:100:Snare Drum.wav
64,192,170297,1,0,0:0:0:100:Snare Drum.wav
448,192,170297,1,0,0:0:0:0:
192,192,170415,1,0,0:0:0:100:Snare Drum.wav
320,192,170533,1,0,0:0:0:100:Snare Drum.wav
64,192,170650,1,0,0:0:0:30:Timpani.wav
448,192,170650,1,0,0:0:0:100:Snare Drum.wav
192,192,170886,1,0,0:0:0:100:Snare Drum.wav
320,192,170886,1,0,0:0:0:0:
64,192,171003,1,0,0:0:0:30:Timpani.wav
448,192,171003,1,0,0:0:0:100:Snare Drum.wav
320,192,171121,1,0,0:0:0:100:Snare Drum.wav
64,192,171238,1,0,0:0:0:100:Snare Drum.wav
192,192,171356,1,0,0:0:0:30:Timpani.wav
448,192,171356,1,0,0:0:0:100:Snare Drum.wav
320,192,171474,1,0,0:0:0:100:Snare Drum.wav
64,192,171591,1,0,0:0:0:100:Snare Drum.wav
192,192,171709,1,4,0:0:0:0:
320,192,171709,1,0,0:0:0:30:Timpani.wav
448,192,171709,1,0,0:0:0:100:Snare Drum.wav
64,192,171827,1,0,0:0:0:100:Snare Drum.wav
320,192,171944,1,0,0:0:0:100:Snare Drum.wav
64,192,172062,1,4,0:0:0:0:
192,192,172062,1,0,0:0:0:30:Timpani.wav
448,192,172062,1,0,0:0:0:100:Snare Drum.wav
320,192,172297,1,0,0:0:0:100:Snare Drum.wav
64,192,172415,1,0,0:0:0:100:Snare Drum.wav
448,192,172415,1,0,0:0:0:0:
192,192,172533,1,0,0:0:0:100:Snare Drum.wav
320,192,172650,1,0,0:0:0:100:Snare Drum.wav
64,192,172768,1,4,0:0:0:0:
192,192,172768,1,0,0:0:0:30:Timpani.wav
448,192,172768,1,0,0:0:0:100:Snare Drum.wav
192,192,173003,1,0,0:0:0:0:
64,192,173121,1,0,0:0:0:0:
448,192,173121,1,0,0:0:0:0:
320,192,173238,1,0,0:0:0:0:
192,192,173356,1,0,0:0:0:95:Snare Drum 2.wav
64,192,173474,1,2,0:0:0:0:
448,192,173474,1,0,0:0:0:95:Snare Drum 2.wav
192,192,173591,1,0,0:0:0:95:Snare Drum 2.wav
320,192,173591,1,0,0:0:0:0:
64,192,173709,1,0,0:0:0:95:Snare Drum 2.wav
448,192,173709,1,0,0:0:0:0:
192,192,173827,1,0,0:0:0:95:Snare Drum 2.wav
320,192,173827,1,0,0:0:0:0:
64,192,173944,1,0,0:0:0:95:Snare Drum 2.wav
448,192,173944,1,0,0:0:0:0:
192,192,174062,1,0,0:0:0:95:Snare Drum 2.wav
320,192,174062,1,0,0:0:0:0:
64,192,174180,1,0,0:0:0:95:Snare Drum 2.wav
448,192,174180,1,0,0:0:0:0:
320,192,174297,1,0,0:0:0:95:Snare Drum 2.wav
192,192,174415,1,0,0:0:0:95:Snare Drum 2.wav
64,192,174533,1,0,0:0:0:95:Snare Drum 2.wav
448,192,174533,1,0,0:0:0:0:
320,192,174650,1,0,0:0:0:95:Snare Drum 2.wav
192,192,174768,1,0,0:0:0:95:Snare Drum 2.wav
64,192,174886,1,2,0:0:0:0:
320,192,174886,1,4,0:0:0:0:
448,192,174886,1,0,0:0:0:0:
64,192,175121,1,0,0:0:0:0:
192,192,175238,1,8,0:0:0:0:
448,192,175238,1,2,0:0:0:0:
320,192,175356,1,0,0:0:0:0:
192,192,175474,1,0,0:0:0:0:
64,192,175591,1,2,0:0:0:0:
448,192,175591,1,0,0:0:0:0:
448,192,175827,1,0,0:0:0:0:
64,192,175944,1,8,0:0:0:0:
320,192,175944,1,2,0:0:0:0:
192,192,176062,1,0,0:0:0:0:
320,192,176180,1,0,0:0:0:0:
64,192,176297,1,2,0:0:0:0:
192,192,176297,1,0,0:0:0:0:
192,192,176533,1,0,0:0:0:0:
64,192,176650,1,8,0:0:0:0:
448,192,176650,1,2,0:0:0:0:
320,192,176768,1,0,0:0:0:0:
192,192,176886,1,0,0:0:0:0:
320,192,177003,1,2,0:0:0:0:
448,192,177003,1,0,0:0:0:0:
320,192,177238,1,0,0:0:0:0:
64,192,177356,1,8,0:0:0:0:
448,192,177356,1,2,0:0:0:0:
192,192,177474,1,0,0:0:0:0:
320,192,177591,1,2,0:0:0:0:
64,192,177709,1,2,0:0:0:0:
448,192,177709,1,0,0:0:0:0:
64,192,177944,1,0,0:0:0:0:
192,192,178062,1,8,0:0:0:0:
448,192,178062,1,2,0:0:0:0:
320,192,178180,1,0,0:0:0:0:
192,192,178297,1,0,0:0:0:0:
64,192,178415,1,2,0:0:0:0:
448,192,178415,1,0,0:0:0:0:
448,192,178650,1,0,0:0:0:0:
64,192,178768,1,8,0:0:0:0:
320,192,178768,1,2,0:0:0:0:
192,192,178886,1,0,0:0:0:0:
320,192,179003,1,0,0:0:0:0:
64,192,179121,1,2,0:0:0:0:
192,192,179121,1,0,0:0:0:0:
320,192,179238,1,0,0:0:0:0:
192,192,179356,1,0,0:0:0:0:
64,192,179474,1,8,0:0:0:0:
448,192,179474,1,2,0:0:0:0:
320,192,179591,1,0,0:0:0:0:
192,192,179709,1,0,0:0:0:0:
64,192,179827,1,2,0:0:0:0:
448,192,179827,1,0,0:0:0:0:
320,192,179944,1,2,0:0:0:0:
64,192,180062,1,2,0:0:0:0:
192,192,180180,1,8,0:0:0:0:
448,192,180180,1,0,0:0:0:0:
320,192,180297,1,2,0:0:0:0:
64,192,180415,1,2,0:0:0:0:
192,192,180533,1,2,0:0:0:0:
320,192,180533,1,4,0:0:0:0:
448,192,180533,1,0,0:0:0:0:
320,192,180768,1,0,0:0:0:0:
192,192,180886,1,8,0:0:0:0:
448,192,180886,1,2,0:0:0:0:
320,192,181003,1,0,0:0:0:0:
64,192,181121,1,0,0:0:0:0:
192,192,181238,1,2,0:0:0:0:
448,192,181238,1,0,0:0:0:0:
320,192,181356,1,0,0:0:0:0:
192,192,181474,1,0,0:0:0:0:
64,192,181591,128,8,181944:0:0:0:0:
448,192,181591,1,2,0:0:0:0:
320,192,181827,1,0,0:0:0:0:
192,192,181944,1,2,0:0:0:0:
448,192,181944,1,0,0:0:0:0:
192,192,182180,1,0,0:0:0:0:
64,192,182297,1,8,0:0:0:0:
448,192,182297,1,2,0:0:0:0:
320,192,182415,1,0,0:0:0:0:
192,192,182533,1,0,0:0:0:0:
64,192,182650,1,2,0:0:0:0:
448,192,182650,128,0,183003:0:0:0:0:
192,192,182886,1,0,0:0:0:0:
64,192,183003,128,8,183356:0:0:0:0:
320,192,183003,1,2,0:0:0:0:
192,192,183238,1,2,0:0:0:0:
320,192,183356,1,2,0:0:0:0:
448,192,183356,1,0,0:0:0:0:
448,192,183591,1,0,0:0:0:0:
64,192,183709,1,8,0:0:0:0:
320,192,183709,1,2,0:0:0:0:
192,192,183827,1,0,0:0:0:0:
320,192,183944,1,0,0:0:0:0:
64,192,184062,128,2,184415:0:0:0:0:
448,192,184062,1,0,0:0:0:0:
320,192,184297,1,0,0:0:0:0:
192,192,184415,1,8,0:0:0:0:
448,192,184415,1,2,0:0:0:0:
320,192,184533,1,0,0:0:0:0:
64,192,184650,1,0,0:0:0:0:
192,192,184768,1,2,0:0:0:0:
320,192,184768,1,4,0:0:0:0:
448,192,184768,1,0,0:0:0:0:
64,192,184886,1,0,0:0:0:0:
448,192,185003,1,0,0:0:0:0:
64,192,185121,1,2,0:0:0:0:
192,192,185121,1,8,0:0:0:0:
320,192,185121,1,4,0:0:0:0:
448,192,185238,1,0,0:0:0:0:
64,192,185356,1,0,0:0:0:0:
192,192,185474,1,2,0:0:0:0:
320,192,185474,1,4,0:0:0:0:
448,192,185474,1,0,0:0:0:0:
64,192,185591,1,0,0:0:0:0:
320,192,185709,1,2,0:0:0:0:
64,192,185827,1,2,0:0:0:0:
192,192,185827,1,8,0:0:0:0:
320,192,185944,1,2,0:0:0:0:
448,192,185944,1,0,0:0:0:0:
64,192,186062,1,2,0:0:0:0:
192,192,186062,1,0,0:0:0:0:
64,192,186180,1,2,0:0:0:0:
320,192,186180,1,4,0:0:0:0:
448,192,186180,1,0,0:0:0:0:
192,192,186415,1,0,0:0:0:0:
64,192,186533,1,8,0:0:0:0:
448,192,186533,1,2,0:0:0:0:
320,192,186650,1,0,0:0:0:0:
192,192,186768,1,0,0:0:0:0:
320,192,186886,1,2,0:0:0:0:
448,192,186886,1,0,0:0:0:0:
320,192,187121,1,0,0:0:0:0:
64,192,187238,1,8,0:0:0:0:
448,192,187238,1,2,0:0:0:0:
192,192,187356,1,0,0:0:0:0:
320,192,187474,1,0,0:0:0:0:
64,192,187591,1,2,0:0:0:0:
192,192,187591,1,0,0:0:0:0:
64,192,187827,1,0,0:0:0:0:
192,192,187944,1,8,0:0:0:0:
448,192,187944,1,2,0:0:0:0:
320,192,188062,1,0,0:0:0:0:
192,192,188180,1,0,0:0:0:0:
64,192,188297,1,2,0:0:0:0:
448,192,188297,1,0,0:0:0:0:
448,192,188533,1,0,0:0:0:0:
64,192,188650,1,8,0:0:0:0:
320,192,188650,1,2,0:0:0:0:
192,192,188768,1,0,0:0:0:0:
448,192,188886,1,2,0:0:0:0:
64,192,189003,1,2,0:0:0:0:
320,192,189003,1,0,0:0:0:0:
64,192,189238,1,0,0:0:0:0:
192,192,189356,1,8,0:0:0:0:
448,192,189356,1,2,0:0:0:0:
320,192,189474,1,0,0:0:0:0:
192,192,189591,1,0,0:0:0:0:
64,192,189709,1,2,0:0:0:0:
448,192,189709,1,0,0:0:0:0:
448,192,189944,1,0,0:0:0:0:
64,192,190062,1,8,0:0:0:0:
320,192,190062,1,2,0:0:0:0:
192,192,190180,1,0,0:0:0:0:
320,192,190297,1,0,0:0:0:0:
64,192,190415,1,2,0:0:0:0:
448,192,190415,1,0,0:0:0:0:
192,192,190533,1,0,0:0:0:0:
320,192,190650,1,0,0:0:0:0:
64,192,190768,1,8,0:0:0:0:
448,192,190768,1,2,0:0:0:0:
192,192,190886,1,0,0:0:0:0:
448,192,191003,1,0,0:0:0:0:
64,192,191121,1,2,0:0:0:0:
320,192,191121,1,0,0:0:0:0:
192,192,191238,1,0,0:0:0:0:
320,192,191356,1,2,0:0:0:0:
448,192,191356,1,0,0:0:0:0:
64,192,191474,1,8,0:0:0:0:
192,192,191474,1,2,0:0:0:0:
448,192,191591,1,2,0:0:0:0:
64,192,191709,1,2,0:0:0:0:
192,192,191827,1,2,0:0:0:0:
320,192,191827,1,4,0:0:0:0:
448,192,191827,1,0,0:0:0:0:
320,192,192062,1,0,0:0:0:0:
64,192,192180,1,8,0:0:0:0:
448,192,192180,1,2,0:0:0:0:
192,192,192297,1,0,0:0:0:0:
448,192,192415,1,0,0:0:0:0:
64,192,192533,1,2,0:0:0:0:
320,192,192533,1,0,0:0:0:0:
64,192,192768,1,0,0:0:0:0:
192,192,192886,1,8,0:0:0:0:
448,192,192886,1,2,0:0:0:0:
320,192,193003,1,0,0:0:0:0:
192,192,193121,1,0,0:0:0:0:
320,192,193238,1,2,0:0:0:0:
448,192,193238,1,0,0:0:0:0:
448,192,193474,1,0,0:0:0:0:
64,192,193591,1,8,0:0:0:0:
192,192,193591,1,2,0:0:0:0:
320,192,193709,1,0,0:0:0:0:
64,192,193827,1,0,0:0:0:0:
192,192,193944,1,2,0:0:0:0:
448,192,193944,1,0,0:0:0:0:
192,192,194180,1,0,0:0:0:0:
64,192,194297,1,8,0:0:0:0:
448,192,194297,1,2,0:0:0:0:
320,192,194415,1,0,0:0:0:0:
192,192,194533,1,2,0:0:0:0:
64,192,194650,1,2,0:0:0:0:
448,192,194650,1,0,0:0:0:0:
64,192,194886,1,0,0:0:0:0:
320,192,195003,1,14,0:0:0:0:
448,192,195003,1,0,0:0:0:95:Snare Drum.wav
64,192,195121,1,0,0:0:0:95:Snare Drum.wav
192,192,195121,1,0,0:0:0:0:
320,192,195238,1,0,0:0:0:95:Snare Drum.wav
448,192,195238,1,0,0:0:0:0:
64,192,195356,1,2,0:0:0:0:
192,192,195356,1,0,0:0:0:0:
192,192,195591,1,0,0:0:0:0:
320,192,195709,1,14,0:0:0:0:
448,192,195709,1,0,0:0:0:95:Snare Drum.wav
64,192,195827,1,0,0:0:0:95:Snare Drum.wav
192,192,195827,1,0,0:0:0:0:
320,192,195944,1,0,0:0:0:95:Snare Drum.wav
448,192,195944,1,0,0:0:0:0:
64,192,196062,1,2,0:0:0:0:
192,192,196062,1,0,0:0:0:0:
320,192,196180,1,12,0:0:0:0:
448,192,196180,1,0,0:0:0:95:Snare Drum.wav
320,192,196297,1,8,0:0:0:0:
448,192,196297,1,0,0:0:0:95:Snare Drum.wav
64,192,196415,1,2,0:0:0:0:
192,192,196415,1,0,0:0:0:0:
320,192,196533,1,12,0:0:0:0:
448,192,196533,1,0,0:0:0:95:Snare Drum.wav
320,192,196650,1,8,0:0:0:0:
448,192,196650,1,0,0:0:0:95:Snare Drum.wav
64,192,196768,1,2,0:0:0:0:
192,192,196768,1,0,0:0:0:0:
448,192,196886,1,0,0:0:0:95:Snare Drum 2.wav
320,192,196944,1,0,0:0:0:95:Snare Drum 2.wav
192,192,197003,1,4,0:0:0:0:
64,192,197062,1,0,0:0:0:95:Snare Drum 2.wav
320,192,197121,1,2,0:0:0:0:
448,192,197121,1,0,0:0:0:95:Snare Drum 2.wav
192,192,197238,1,2,0:0:0:0:
320,192,197238,1,0,0:0:0:95:Snare Drum 2.wav
64,192,197356,1,2,0:0:0:0:
192,192,197356,1,0,0:0:0:95:Snare Drum 2.wav
64,192,197474,1,2,0:0:0:0:
320,192,197474,1,4,0:0:0:0:
448,192,197474,1,0,0:0:0:0:
448,192,197709,1,0,0:0:0:0:
64,192,197827,1,8,0:0:0:0:
192,192,197827,1,2,0:0:0:0:
320,192,197944,1,0,0:0:0:0:
64,192,198062,1,0,0:0:0:0:
192,192,198180,1,2,0:0:0:0:
448,192,198180,1,0,0:0:0:0:
320,192,198297,1,0,0:0:0:0:
192,192,198415,1,0,0:0:0:0:
64,192,198533,128,8,198886:0:0:0:0:
448,192,198533,1,2,0:0:0:0:
320,192,198768,1,0,0:0:0:0:
192,192,198886,1,2,0:0:0:0:
448,192,198886,1,0,0:0:0:0:
192,192,199121,1,0,0:0:0:0:
64,192,199238,1,8,0:0:0:0:
448,192,199238,1,2,0:0:0:0:
320,192,199356,1,0,0:0:0:0:
192,192,199474,1,0,0:0:0:0:
64,192,199591,1,2,0:0:0:0:
448,192,199591,128,0,199944:0:0:0:0:
192,192,199827,1,0,0:0:0:0:
64,192,199944,128,8,200297:0:0:0:0:
320,192,199944,1,2,0:0:0:0:
320,192,200180,1,2,0:0:0:0:
192,192,200297,1,2,0:0:0:0:
448,192,200297,1,0,0:0:0:0:
192,192,200533,1,0,0:0:0:0:
64,192,200650,1,8,0:0:0:0:
448,192,200650,1,2,0:0:0:0:
320,192,200768,1,0,0:0:0:0:
192,192,200886,1,0,0:0:0:0:
64,192,201003,1,2,0:0:0:0:
448,192,201003,128,0,201356:0:0:0:0:
192,192,201238,1,0,0:0:0:0:
64,192,201356,1,8,0:0:0:0:
320,192,201356,1,2,0:0:0:0:
192,192,201474,1,0,0:0:0:0:
448,192,201591,1,0,0:0:0:0:
64,192,201709,1,2,0:0:0:0:
320,192,201709,1,0,0:0:0:0:
192,192,201827,1,0,0:0:0:0:
320,192,201944,1,0,0:0:0:0:
64,192,202062,1,8,0:0:0:0:
448,192,202062,1,2,0:0:0:0:
192,192,202180,1,0,0:0:0:0:
448,192,202297,1,0,0:0:0:0:
64,192,202415,128,2,202768:0:0:0:0:
320,192,202415,1,0,0:0:0:0:
192,192,202650,1,2,0:0:0:0:
320,192,202768,1,8,0:0:0:0:
448,192,202768,1,2,0:0:0:0:
64,192,202886,1,2,0:0:0:0:
192,192,202886,1,0,0:0:0:0:
320,192,203003,1,2,0:0:0:0:
448,192,203003,1,0,0:0:0:0:
64,192,203121,1,2,0:0:0:0:
192,192,203121,1,4,0:0:0:0:
448,192,203121,1,0,0:0:0:0:
192,192,203356,1,0,0:0:0:0:
64,192,203474,1,8,0:0:0:0:
448,192,203474,1,2,0:0:0:0:
320,192,203591,1,0,0:0:0:0:
64,192,203709,1,0,0:0:0:0:
192,192,203827,1,2,0:0:0:0:
448,192,203827,1,0,0:0:0:0:
320,192,203944,1,0,0:0:0:0:
64,192,204062,1,0,0:0:0:0:
192,192,204180,1,8,0:0:0:0:
448,192,204180,128,2,204533:0:0:0:0:
192,192,204415,1,0,0:0:0:0:
64,192,204533,1,2,0:0:0:0:
320,192,204533,1,0,0:0:0:0:
320,192,204768,1,0,0:0:0:0:
64,192,204886,1,8,0:0:0:0:
448,192,204886,1,2,0:0:0:0:
192,192,205003,1,0,0:0:0:0:
320,192,205121,1,0,0:0:0:0:
64,192,205238,1,2,0:0:0:0:
448,192,205238,1,0,0:0:0:0:
192,192,205356,1,2,0:0:0:0:
320,192,205356,1,0,0:0:0:0:
64,192,205474,1,2,0:0:0:0:
448,192,205474,1,0,0:0:0:0:
192,192,205591,128,8,205944:0:0:0:0:
320,192,205591,1,2,0:0:0:0:
448,192,205827,1,2,0:0:0:0:
64,192,205944,1,2,0:0:0:0:
320,192,205944,1,4,0:0:0:0:
448,192,205944,1,0,0:0:0:0:
64,192,206180,1,0,0:0:0:0:
320,192,206297,1,0,0:0:0:40:Snare.wav
448,192,206297,1,0,0:0:0:0:
64,192,206415,1,0,0:0:0:0:
192,192,206415,1,0,0:0:0:0:
320,192,206533,1,0,0:0:0:0:
448,192,206533,1,0,0:0:0:0:
64,192,206650,128,0,207003:0:0:0:0:
192,192,206650,1,0,0:0:0:0:
192,192,206886,1,0,0:0:0:0:
320,192,207003,1,0,0:0:0:40:Snare.wav
448,192,207003,1,0,0:0:0:0:
64,192,207121,1,0,0:0:0:0:
192,192,207121,1,0,0:0:0:0:
320,192,207238,1,0,0:0:0:0:
448,192,207238,1,0,0:0:0:0:
64,192,207356,1,2,0:0:0:0:
192,192,207356,1,4,0:0:0:0:
448,192,207356,1,0,0:0:0:0:
320,192,207474,1,8,0:0:0:0:
64,192,207591,1,8,0:0:0:0:
192,192,207709,1,2,0:0:0:0:
320,192,207709,1,4,0:0:0:0:
448,192,207709,1,0,0:0:0:0:
64,192,207827,1,8,0:0:0:0:
448,192,207944,1,8,0:0:0:0:
64,192,208062,1,2,0:0:0:0:
192,192,208062,1,4,0:0:0:0:
320,192,208062,1,0,0:0:0:0:
448,192,208180,1,0,0:0:0:95:Snare Drum 2.wav
320,192,208238,1,0,0:0:0:95:Snare Drum 2.wav
192,192,208297,1,2,0:0:0:0:
64,192,208356,1,0,0:0:0:95:Snare Drum 2.wav
320,192,208415,1,2,0:0:0:0:
448,192,208415,128,0,208768:0:0:0:95:Snare Drum 2.wav
64,192,208533,1,2,0:0:0:0:
320,192,208650,1,2,0:0:0:0:
64,192,208768,128,2,209474:0:0:0:0:
192,192,208768,1,4,0:0:0:0:
192,192,209003,1,0,0:0:0:0:
320,192,209121,1,8,0:0:0:0:
448,192,209121,1,2,0:0:0:0:
448,192,209356,1,0,0:0:0:0:
192,192,209474,1,2,0:0:0:0:
320,192,209474,128,0,209827:0:0:0:0:
448,192,209709,1,0,0:0:0:0:
64,192,209827,1,8,0:0:0:0:
192,192,209827,128,2,210180:0:0:0:0:
64,192,210062,1,0,0:0:0:0:
320,192,210180,1,2,0:0:0:0:
448,192,210180,128,0,210886:0:0:0:0:
64,192,210415,1,0,0:0:0:0:
192,192,210533,1,8,0:0:0:0:
320,192,210533,1,2,0:0:0:0:
320,192,210768,1,0,0:0:0:0:
64,192,210886,128,2,211238:0:0:0:0:
192,192,210886,1,0,0:0:0:0:
192,192,211121,1,0,0:0:0:0:
320,192,211238,1,8,0:0:0:0:
448,192,211238,128,2,211591:0:0:0:0:
320,192,211474,1,2,0:0:0:0:
64,192,211591,1,2,0:0:0:0:
192,192,211591,128,0,212297:0:0:0:0:
64,192,211827,1,0,0:0:0:0:
320,192,211944,1,8,0:0:0:0:
448,192,211944,1,2,0:0:0:0:
320,192,212180,1,0,0:0:0:0:
64,192,212297,1,2,0:0:0:0:
448,192,212297,1,0,0:0:0:0:
64,192,212533,1,0,0:0:0:0:
320,192,212650,128,8,213003:0:0:0:0:
448,192,212650,1,2,0:0:0:0:
448,192,212886,1,0,0:0:0:0:
64,192,213003,128,2,213356:0:0:0:0:
192,192,213003,1,0,0:0:0:0:
192,192,213238,1,2,0:0:0:0:
320,192,213356,1,8,0:0:0:0:
448,192,213356,128,2,213709:0:0:0:0:
320,192,213591,1,2,0:0:0:0:
64,192,213709,1,2,0:0:0:0:
192,192,213709,128,0,214062:0:0:0:0:
320,192,213944,1,2,0:0:0:0:
64,192,214062,1,2,0:0:0:0:
448,192,214062,1,8,0:0:0:0:
192,192,214180,1,0,0:0:0:0:
320,192,214297,1,2,0:0:0:0:
64,192,214415,1,2,0:0:0:0:
192,192,214415,1,4,0:0:0:0:
448,192,214415,128,0,215121:0:0:0:0:
64,192,214650,1,0,0:0:0:0:
192,192,214768,1,8,0:0:0:0:
320,192,214768,1,2,0:0:0:0:
320,192,215003,1,0,0:0:0:0:
64,192,215121,128,2,215474:0:0:0:0:
192,192,215121,1,0,0:0:0:0:
192,192,215356,1,0,0:0:0:0:
320,192,215474,128,8,215827:0:0:0:0:
448,192,215474,1,2,0:0:0:0:
448,192,215709,1,0,0:0:0:0:
64,192,215827,1,2,0:0:0:0:
192,192,215827,128,0,216533:0:0:0:0:
64,192,216062,1,0,0:0:0:0:
320,192,216180,1,8,0:0:0:0:
448,192,216180,1,2,0:0:0:0:
320,192,216415,1,0,0:0:0:0:
64,192,216533,1,2,0:0:0:0:
448,192,216533,128,0,216886:0:0:0:0:
64,192,216768,1,0,0:0:0:0:
192,192,216886,1,8,0:0:0:0:
320,192,216886,1,2,0:0:0:0:
64,192,217003,1,0,0:0:0:0:
448,192,217121,1,2,0:0:0:0:
64,192,217238,128,2,217591:0:0:0:0:
320,192,217238,1,0,0:0:0:0:
320,192,217474,1,0,0:0:0:0:
192,192,217591,1,8,0:0:0:0:
320,192,217591,1,2,0:0:0:0:
448,192,217591,1,4,0:0:0:0:
64,192,217709,1,0,0:0:0:0:
320,192,217827,1,0,0:0:0:0:
64,192,217944,1,2,0:0:0:0:
448,192,217944,128,0,218297:0:0:0:0:
64,192,218180,1,0,0:0:0:0:
64,192,218297,1,8,0:0:0:0:
192,192,218297,1,2,0:0:0:0:
320,192,218297,1,4,0:0:0:0:
448,192,218415,1,0,0:0:0:95:Snare Clap.wav
192,192,218533,1,0,0:0:0:95:Snare Clap.wav
64,192,218650,1,2,0:0:0:0:
320,192,218650,1,0,0:0:0:95:Snare Clap.wav
448,192,218650,1,0,0:0:0:0:
192,192,218768,1,4,0:0:0:0:
448,192,218886,1,2,0:0:0:0:
64,192,219003,1,2,0:0:0:0:
192,192,219003,1,0,0:0:0:95:Snare Clap.wav
320,192,219003,1,0,0:0:0:0:
448,192,219121,1,4,0:0:0:0:
64,192,219238,1,2,0:0:0:0:
192,192,219356,1,2,0:0:0:0:
320,192,219356,1,0,0:0:0:95:Snare Clap.wav
448,192,219356,1,0,0:0:0:0:
64,192,219474,1,4,0:0:0:0:
192,192,219533,1,0,0:0:0:95:Snare Clap.wav
320,192,219591,1,2,0:0:0:0:
448,192,219650,1,0,0:0:0:95:Snare Clap.wav
64,192,219709,1,2,0:0:0:0:
192,192,219709,1,0,0:0:0:95:Snare Clap.wav
192,192,219827,1,0,0:0:0:95:Snare Clap.wav
320,192,219827,1,0,0:0:0:0:
320,192,219944,1,2,0:0:0:0:
448,192,219944,1,0,0:0:0:95:Snare Clap.wav
64,192,220062,128,2,220768:0:0:0:0:
192,192,220062,1,4,0:0:0:0:
448,192,220062,1,0,0:0:0:0:
448,192,220297,1,0,0:0:0:0:
192,192,220415,1,0,0:0:0:35:Snare.wav
320,192,220415,1,0,0:0:0:0:
192,192,220650,1,0,0:0:0:0:
320,192,220768,1,0,0:0:0:0:
448,192,220768,128,0,221121:0:0:0:0:
320,192,221003,1,0,0:0:0:0:
64,192,221121,1,0,0:0:0:35:Snare.wav
192,192,221121,128,0,221474:0:0:0:0:
64,192,221356,1,0,0:0:0:0:
320,192,221474,128,2,222180:0:0:0:0:
448,192,221474,1,0,0:0:0:0:
448,192,221709,1,0,0:0:0:0:
64,192,221827,1,0,0:0:0:35:Snare.wav
192,192,221827,1,0,0:0:0:0:
192,192,222062,1,0,0:0:0:0:
64,192,222180,128,0,222533:0:0:0:0:
448,192,222180,1,0,0:0:0:0:
192,192,222415,1,0,0:0:0:0:
320,192,222533,1,0,0:0:0:35:Snare.wav
448,192,222533,128,0,222886:0:0:0:0:
320,192,222768,1,0,0:0:0:0:
64,192,222886,1,2,0:0:0:0:
192,192,222886,128,0,223591:0:0:0:0:
64,192,223121,1,0,0:0:0:0:
320,192,223238,1,0,0:0:0:35:Snare.wav
448,192,223238,1,0,0:0:0:0:
320,192,223474,1,0,0:0:0:0:
64,192,223591,1,0,0:0:0:0:
448,192,223591,1,0,0:0:0:0:
448,192,223827,1,0,0:0:0:0:
192,192,223944,128,0,224297:0:0:0:35:Snare.wav
320,192,223944,1,0,0:0:0:0:
320,192,224180,1,0,0:0:0:0:
64,192,224297,1,2,0:0:0:0:
448,192,224297,128,0,224650:0:0:0:0:
192,192,224533,1,0,0:0:0:0:
64,192,224650,128,0,225003:0:0:0:35:Snare.wav
320,192,224650,1,0,0:0:0:0:
448,192,224886,1,0,0:0:0:0:
192,192,225003,1,2,0:0:0:0:
320,192,225003,128,0,225709:0:0:0:0:
192,192,225238,1,0,0:0:0:0:
64,192,225356,1,0,0:0:0:35:Snare.wav
448,192,225356,1,0,0:0:0:0:
192,192,225591,1,0,0:0:0:0:
64,192,225709,128,2,226415:0:0:0:0:
192,192,225709,1,4,0:0:0:0:
448,192,225709,1,0,0:0:0:0:
448,192,225944,1,0,0:0:0:0:
192,192,226062,1,0,0:0:0:35:Snare.wav
320,192,226062,1,0,0:0:0:0:
192,192,226297,1,0,0:0:0:0:
320,192,226415,128,0,226768:0:0:0:0:
448,192,226415,1,0,0:0:0:0:
448,192,226650,1,0,0:0:0:0:
64,192,226768,1,0,0:0:0:35:Snare.wav
192,192,226768,128,0,227121:0:0:0:0:
64,192,227003,1,0,0:0:0:0:
64,192,227121,1,2,0:0:0:0:
320,192,227121,1,4,0:0:0:0:
448,192,227121,128,0,227827:0:0:0:0:
320,192,227356,1,0,0:0:0:0:
64,192,227474,1,0,0:0:0:35:Snare.wav
192,192,227474,1,0,0:0:0:0:
192,192,227709,1,0,0:0:0:0:
64,192,227827,128,0,228180:0:0:0:0:
320,192,227827,1,0,0:0:0:0:
320,192,228062,1,0,0:0:0:0:
192,192,228180,1,2,0:0:0:0:
448,192,228180,1,0,0:0:0:30:Snare.wav
64,192,228415,1,2,0:0:0:0:
192,192,228415,1,0,0:0:0:0:
64,192,228533,1,2,0:0:0:0:
320,192,228533,1,4,0:0:0:0:
448,192,228533,128,0,228886:0:0:0:0:
320,192,228768,1,0,0:0:0:0:
64,192,228886,1,0,0:0:0:45:Snare.wav
192,192,228886,1,0,0:0:0:0:
448,192,229003,1,0,0:0:0:0:
192,192,229121,1,0,0:0:0:0:
64,192,229238,128,2,229591:0:0:0:0:
320,192,229238,1,4,0:0:0:0:
448,192,229238,1,0,0:0:0:0:
320,192,229474,1,0,0:0:0:0:
192,192,229591,1,0,0:0:0:45:Snare.wav
448,192,229591,1,0,0:0:0:0:
64,192,229709,1,0,0:0:0:0:
448,192,229827,1,0,0:0:0:0:
64,192,229944,1,2,0:0:0:0:
192,192,229944,1,4,0:0:0:0:
320,192,229944,1,0,0:0:0:0:
448,192,230062,1,8,0:0:0:0:
192,192,230180,1,8,0:0:0:0:
64,192,230297,1,2,0:0:0:0:
320,192,230297,1,4,0:0:0:0:
448,192,230297,1,0,0:0:0:0:
192,192,230415,1,8,0:0:0:0:
448,192,230533,1,8,0:0:0:0:
64,192,230650,1,2,0:0:0:0:
192,192,230650,1,4,0:0:0:0:
320,192,230650,1,0,0:0:0:0:
448,192,230768,1,0,0:0:0:95:Snare Clap.wav
320,192,230827,1,0,0:0:0:95:Snare Clap.wav
192,192,230886,1,2,0:0:0:0:
64,192,230944,1,0,0:0:0:95:Snare Clap.wav
320,192,231003,1,6,0:0:0:0:
448,192,231003,1,0,0:0:0:95:Snare Clap.wav
192,192,231121,1,2,0:0:0:0:
320,192,231121,1,0,0:0:0:95:Snare Clap.wav
64,192,231238,1,2,0:0:0:0:
192,192,231238,1,0,0:0:0:95:Snare Clap.wav
64,192,231356,128,2,232768:0:0:0:0:
320,192,231356,1,4,0:0:0:0:
448,192,231356,1,0,0:0:0:0:
192,192,231709,1,0,0:0:0:0:
448,192,232062,1,0,0:0:0:0:
320,192,232415,1,0,0:0:0:0:
192,192,232768,1,0,0:0:0:0:
448,192,232768,128,0,234180:0:0:0:0:
320,192,233121,1,0,0:0:0:0:
64,192,233474,1,0,0:0:0:0:
320,192,233827,1,0,0:0:0:0:
64,192,234180,1,0,0:0:0:0:
192,192,234180,128,0,235591:0:0:0:0:
448,192,234533,1,0,0:0:0:0:
320,192,234886,1,0,0:0:0:0:
64,192,235238,1,0,0:0:0:0:
320,192,235591,128,0,237003:0:0:0:0:
448,192,235591,1,0,0:0:0:0:
64,192,235944,1,0,0:0:0:0:
192,192,236297,1,0,0:0:0:0:
448,192,236650,1,0,0:0:0:0:
64,192,237003,128,0,238415:0:0:0:0:
192,192,237003,1,0,0:0:0:0:
448,192,237356,1,0,0:0:0:0:
192,192,237709,1,0,0:0:0:0:
320,192,238062,1,0,0:0:0:0:
192,192,238415,1,0,0:0:0:0:
448,192,238415,128,0,239827:0:0:0:0:
320,192,238768,1,0,0:0:0:0:
192,192,239121,1,0,0:0:0:0:
64,192,239474,1,0,0:0:0:0:
192,192,239827,128,0,241238:0:0:0:0:
320,192,239827,1,0,0:0:0:0:
64,192,240180,1,0,0:0:0:0:
448,192,240533,1,0,0:0:0:0:
64,192,240886,1,0,0:0:0:0:
320,192,241238,128,0,242650:0:0:0:0:
448,192,241238,1,0,0:0:0:0:
192,192,241591,1,0,0:0:0:0:
64,192,241944,1,0,0:0:0:0:
64,192,242650,128,2,244768:0:0:0:0:
192,192,242650,128,4,244768:0:0:0:0:
448,192,242650,128,0,244768:0:0:0:0:
64,192,245474,1,2,0:0:0:0:
192,192,245474,1,4,0:0:0:0:
448,192,245474,1,0,0:0:0:0:
320,192,246003,1,0,0:0:0:100:Snare Drum.wav
192,192,246091,1,0,0:0:0:100:Snare Drum.wav
64,192,246180,1,0,0:0:0:100:Snare Drum.wav
448,192,246180,1,0,0:0:0:0:
64,192,246886,1,0,0:0:0:100:Snare Drum.wav
448,192,246886,1,0,0:0:0:0:
64,192,247415,1,0,0:0:0:100:Snare Drum.wav
192,192,247459,1,0,0:0:0:100:Snare Drum.wav
320,192,247503,1,0,0:0:0:100:Snare Drum.wav
448,192,247547,1,0,0:0:0:100:Snare Drum.wav
64,192,247591,1,0,0:0:0:100:Snare Drum.wav
192,192,247591,1,0,0:0:0:0:
64,192,247768,1,0,0:0:0:100:Snare Drum.wav
192,192,247768,1,0,0:0:0:0:
448,192,247944,1,0,0:0:0:100:Snare Drum.wav
320,192,247988,1,0,0:0:0:100:Snare Drum.wav
64,192,248033,1,0,0:0:0:100:Snare Drum.wav
192,192,248077,1,0,0:0:0:100:Snare Drum.wav
448,192,248121,1,0,0:0:0:100:Snare Drum.wav
320,192,248165,1,0,0:0:0:100:Snare Drum.wav
64,192,248209,1,0,0:0:0:100:Snare Drum.wav
192,192,248253,1,0,0:0:0:100:Snare Drum.wav
320,192,248297,1,2,0:0:0:0:
448,192,248297,1,0,0:0:0:0:
192,192,248827,1,0,0:0:0:100:Snare Drum.wav
320,192,248915,1,0,0:0:0:100:Snare Drum.wav
64,192,249003,1,0,0:0:0:100:Snare Drum.wav
448,192,249003,1,0,0:0:0:0:
64,192,249709,1,0,0:0:0:100:Snare Drum.wav
448,192,249709,1,0,0:0:0:0:
448,192,250238,1,0,0:0:0:100:Snare Drum.wav
320,192,250283,1,0,0:0:0:100:Snare Drum.wav
192,192,250327,1,0,0:0:0:100:Snare Drum.wav
64,192,250371,1,0,0:0:0:100:Snare Drum.wav
320,192,250415,1,0,0:0:0:100:Snare Drum.wav
448,192,250415,1,0,0:0:0:0:
320,192,250591,1,0,0:0:0:100:Snare Drum.wav
448,192,250591,1,0,0:0:0:0:
64,192,250768,1,0,0:0:0:100:Snare Drum.wav
192,192,250812,1,0,0:0:0:100:Snare Drum.wav
320,192,250856,1,0,0:0:0:100:Snare Drum.wav
448,192,250900,1,0,0:0:0:100:Snare Drum.wav
64,192,250944,1,0,0:0:0:100:Snare Drum.wav
192,192,250988,1,0,0:0:0:100:Snare Drum.wav
320,192,251033,1,0,0:0:0:100:Snare Drum.wav
448,192,251077,1,0,0:0:0:100:Snare Drum.wav
64,192,251121,1,2,0:0:0:0:
192,192,251121,1,4,0:0:0:0:
320,192,251650,1,0,0:0:0:100:Snare Drum.wav
192,192,251738,1,0,0:0:0:100:Snare Drum.wav
64,192,251827,1,0,0:0:0:100:Snare Drum.wav
448,192,251827,1,0,0:0:0:0:
64,192,252533,1,0,0:0:0:100:Snare Drum.wav
448,192,252533,1,0,0:0:0:0:
64,192,253062,1,0,0:0:0:100:Snare Drum.wav
192,192,253106,1,0,0:0:0:100:Snare Drum.wav
320,192,253150,1,0,0:0:0:100:Snare Drum.wav
448,192,253194,1,0,0:0:0:100:Snare Drum.wav
64,192,253238,1,0,0:0:0:100:Snare Drum.wav
192,192,253238,1,0,0:0:0:0:
64,192,253415,1,0,0:0:0:100:Snare Drum.wav
192,192,253415,1,0,0:0:0:0:
448,192,253591,1,0,0:0:0:100:Snare Drum.wav
320,192,253636,1,0,0:0:0:100:Snare Drum.wav
192,192,253680,1,0,0:0:0:100:Snare Drum.wav
64,192,253724,1,0,0:0:0:100:Snare Drum.wav
448,192,253768,1,0,0:0:0:100:Snare Drum.wav
320,192,253812,1,0,0:0:0:100:Snare Drum.wav
192,192,253856,1,0,0:0:0:100:Snare Drum.wav
64,192,253900,1,0,0:0:0:100:Snare Drum.wav
320,192,253944,1,2,0:0:0:0:
448,192,253944,1,4,0:0:0:0:
64,192,254297,1,0,0:0:0:100:Snare Drum.wav
192,192,254297,1,0,0:0:0:0:
320,192,254386,1,0,0:0:0:100:Snare Drum.wav
448,192,254386,1,0,0:0:0:0:
64,192,254474,1,0,0:0:0:100:Snare Drum.wav
192,192,254474,1,0,0:0:0:0:
320,192,254562,1,0,0:0:0:100:Snare Drum.wav
448,192,254562,1,0,0:0:0:0:
64,192,254650,1,0,0:0:0:100:Snare Drum.wav
192,192,254650,1,0,0:0:0:0:
320,192,254827,1,0,0:0:0:100:Snare Drum.wav
192,192,255003,128,0,255356:0:0:0:0:
64,192,255356,1,2,0:0:0:0:
320,192,255356,1,4,0:0:0:0:
448,192,255356,1,0,0:0:0:0:
448,192,255533,1,0,0:0:0:95:Snare Clap.wav
64,192,255709,1,2,0:0:0:0:
192,192,255709,1,0,0:0:0:95:Snare Clap.wav
64,192,255886,1,0,0:0:0:95:Snare Clap.wav
320,192,256062,1,2,0:0:0:0:
448,192,256062,1,0,0:0:0:95:Snare Clap.wav
192,192,256150,1,0,0:0:0:0:
320,192,256238,1,0,0:0:0:95:Snare Clap.wav
192,192,256327,1,0,0:0:0:0:
64,192,256415,1,2,0:0:0:0:
448,192,256415,1,0,0:0:0:95:Snare Clap.wav
320,192,256503,1,0,0:0:0:0:
64,192,256591,1,0,0:0:0:95:Snare Clap.wav
192,192,256680,1,0,0:0:0:0:
320,192,256768,1,6,0:0:0:0:
448,192,256768,1,0,0:0:0:95:Snare Clap.wav
192,192,256856,1,0,0:0:0:95:Snare Clap.wav
64,192,256944,1,2,0:0:0:0:
448,192,256944,1,0,0:0:0:95:Snare Clap.wav
320,192,257033,1,0,0:0:0:95:Snare Clap.wav
64,192,257121,1,2,0:0:0:0:
192,192,257121,1,0,0:0:0:95:Snare Clap.wav
448,192,257209,1,0,0:0:0:95:Snare Clap.wav
192,192,257297,1,2,0:0:0:0:
320,192,257297,1,0,0:0:0:95:Snare Clap.wav
64,192,257386,1,0,0:0:0:95:Snare Clap.wav
320,192,257474,1,2,0:0:0:0:
448,192,257474,1,0,0:0:0:95:Snare Clap.wav
192,192,257562,1,0,0:0:0:95:Snare Clap.wav
64,192,257650,1,2,0:0:0:0:
448,192,257650,1,0,0:0:0:95:Snare Clap.wav
320,192,257738,1,0,0:0:0:95:Snare Clap.wav
64,192,257827,1,2,0:0:0:0:
192,192,257827,1,0,0:0:0:95:Snare Clap.wav
448,192,257915,1,0,0:0:0:95:Snare Clap.wav
192,192,258003,1,2,0:0:0:0:
320,192,258003,1,0,0:0:0:95:Snare Clap.wav
64,192,258091,1,0,0:0:0:95:Snare Clap.wav
320,192,258180,1,6,0:0:0:0:
448,192,258180,1,0,0:0:0:95:Snare Clap.wav
64,192,258268,1,2,0:0:0:0:
192,192,258268,1,0,0:0:0:95:Snare Clap.wav
320,192,258356,1,2,0:0:0:0:
448,192,258356,1,0,0:0:0:95:Snare Clap.wav
64,192,258444,1,2,0:0:0:0:
192,192,258444,1,0,0:0:0:95:Snare Clap.wav
320,192,258533,1,2,0:0:0:0:
448,192,258533,1,0,0:0:0:95:Snare Clap.wav
64,192,258621,1,2,0:0:0:0:
192,192,258621,1,0,0:0:0:95:Snare Clap.wav
320,192,258709,1,2,0:0:0:0:
448,192,258709,1,0,0:0:0:95:Snare Clap.wav
64,192,258797,1,2,0:0:0:0:
192,192,258797,1,0,0:0:0:95:Snare Clap.wav
320,192,258886,1,2,0:0:0:0:
448,192,258886,1,0,0:0:0:95:Snare Clap.wav
64,192,258974,1,2,0:0:0:0:
192,192,258974,1,0,0:0:0:95:Snare Clap.wav
320,192,259062,1,2,0:0:0:0:
448,192,259062,1,0,0:0:0:95:Snare Clap.wav
64,192,259150,1,2,0:0:0:0:
192,192,259150,1,0,0:0:0:95:Snare Clap.wav
320,192,259238,1,2,0:0:0:0:
448,192,259238,1,0,0:0:0:95:Snare Clap.wav
64,192,259327,1,2,0:0:0:0:
192,192,259327,1,0,0:0:0:95:Snare Clap.wav
320,192,259415,1,2,0:0:0:0:
448,192,259415,1,0,0:0:0:95:Snare Clap.wav
64,192,259503,1,2,0:0:0:0:
192,192,259503,1,0,0:0:0:95:Snare Clap.wav
64,192,259591,1,2,0:0:0:0:
320,192,259591,1,4,0:0:0:0:
448,192,259591,1,0,0:0:0:0:
64,192,261003,1,2,0:0:0:0:
192,192,261003,1,0,0:0:0:0:
320,192,261091,1,0,0:0:0:0:
448,192,261180,1,0,0:0:0:0:
192,192,261268,1,0,0:0:0:0:
64,192,261356,1,2,0:0:0:0:
320,192,261356,1,0,0:0:0:0:
192,192,261444,1,0,0:0:0:0:
448,192,261533,1,0,0:0:0:0:
320,192,261621,1,0,0:0:0:0:
64,192,261709,1,2,0:0:0:0:
192,192,261709,1,0,0:0:0:0:
320,192,261797,1,0,0:0:0:0:
448,192,261886,1,0,0:0:0:0:
64,192,261974,1,2,0:0:0:0:
192,192,261974,1,0,0:0:0:0:
320,192,262062,1,2,0:0:0:0:
448,192,262062,1,0,0:0:0:50:Snare.wav
192,192,262150,1,0,0:0:0:0:
64,192,262238,1,2,0:0:0:0:
448,192,262238,1,0,0:0:0:0:
320,192,262327,1,0,0:0:0:0:
64,192,262415,1,2,0:0:0:0:
192,192,262415,1,4,0:0:0:0:
448,192,262415,128,0,262768:0:0:0:0:
192,192,262591,1,0,0:0:0:0:
64,192,262768,1,8,0:0:0:0:
320,192,262768,1,2,0:0:0:0:
64,192,262944,128,0,263121:0:0:0:0:
192,192,263121,1,2,0:0:0:0:
320,192,263121,1,0,0:0:0:0:
320,192,263297,128,0,263474:0:0:0:0:
192,192,263474,1,8,0:0:0:0:
448,192,263474,1,2,0:0:0:0:
192,192,263650,128,0,263827:0:0:0:0:
64,192,263827,1,2,0:0:0:0:
448,192,263827,1,0,0:0:0:0:
448,192,264003,128,0,264180:0:0:0:0:
64,192,264180,1,8,0:0:0:0:
192,192,264180,128,2,264356:0:0:0:0:
320,192,264356,128,0,264533:0:0:0:0:
64,192,264533,1,2,0:0:0:0:
448,192,264533,1,0,0:0:0:0:
320,192,264709,128,0,264886:0:0:0:0:
64,192,264886,128,8,265062:0:0:0:0:
448,192,264886,1,2,0:0:0:0:
192,192,265062,1,2,0:0:0:0:
448,192,265062,128,0,265238:0:0:0:0:
64,192,265238,1,2,0:0:0:0:
192,192,265238,128,4,265591:0:0:0:0:
320,192,265238,1,0,0:0:0:0:
320,192,265415,1,0,0:0:0:0:
64,192,265591,1,8,0:0:0:0:
448,192,265591,1,2,0:0:0:0:
64,192,265768,1,0,0:0:0:0:
192,192,265944,1,2,0:0:0:0:
448,192,265944,128,0,266297:0:0:0:0:
192,192,266121,1,0,0:0:0:0:
64,192,266297,1,8,0:0:0:0:
320,192,266297,1,2,0:0:0:0:
320,192,266474,1,0,0:0:0:0:
64,192,266650,128,2,267003:0:0:0:0:
448,192,266650,1,0,0:0:0:0:
448,192,266827,1,0,0:0:0:0:
192,192,267003,1,8,0:0:0:0:
320,192,267003,1,2,0:0:0:0:
320,192,267180,128,0,267356:0:0:0:0:
64,192,267356,1,2,0:0:0:0:
448,192,267356,1,0,0:0:0:0:
64,192,267533,128,0,267709:0:0:0:0:
192,192,267621,1,2,0:0:0:0:
320,192,267709,1,8,0:0:0:0:
448,192,267709,1,2,0:0:0:0:
192,192,267886,1,2,0:0:0:0:
320,192,267886,1,0,0:0:0:0:
64,192,268062,128,2,268415:0:0:0:0:
192,192,268062,1,4,0:0:0:0:
448,192,268062,1,0,0:0:0:0:
320,192,268327,1,2,0:0:0:0:
192,192,268415,1,8,0:0:0:0:
448,192,268415,1,0,0:0:0:0:
64,192,268591,1,2,0:0:0:0:
320,192,268591,128,4,268944:0:0:0:0:
448,192,268591,1,0,0:0:0:0:
192,192,268944,1,2,0:0:0:0:
64,192,269033,1,0,0:0:0:0:
320,192,269121,1,8,0:0:0:0:
448,192,269121,1,0,0:0:0:0:
192,192,269209,1,0,0:0:0:0:
64,192,269297,1,0,0:0:0:0:
448,192,269297,1,0,0:0:0:0:
320,192,269386,1,0,0:0:0:0:
64,192,269474,1,2,0:0:0:0:
192,192,269474,128,4,269827:0:0:0:0:
448,192,269474,1,0,0:0:0:0:
320,192,269738,1,2,0:0:0:0:
64,192,269827,1,8,0:0:0:0:
448,192,269827,1,0,0:0:0:0:
64,192,270003,1,2,0:0:0:0:
320,192,270003,1,4,0:0:0:0:
448,192,270003,128,0,270356:0:0:0:0:
192,192,270356,1,2,0:0:0:0:
320,192,270444,1,2,0:0:0:0:
64,192,270533,1,8,0:0:0:0:
448,192,270533,1,0,0:0:0:0:
192,192,270621,1,0,0:0:0:0:
320,192,270709,1,2,0:0:0:0:
448,192,270709,1,0,0:0:0:0:
192,192,270797,1,0,0:0:0:0:
64,192,270886,1,2,0:0:0:0:
320,192,270886,1,4,0:0:0:0:
448,192,270886,128,0,271238:0:0:0:0:
64,192,271062,1,0,0:0:0:0:
320,192,271150,1,2,0:0:0:0:
64,192,271238,1,8,0:0:0:0:
192,192,271238,1,0,0:0:0:0:
320,192,271415,1,2,0:0:0:0:
64,192,271591,128,2,271944:0:0:0:0:
192,192,271591,1,4,0:0:0:0:
448,192,271591,1,0,0:0:0:0:
448,192,271768,1,0,0:0:0:0:
192,192,271856,1,2,0:0:0:0:
320,192,271944,1,8,0:0:0:0:
448,192,271944,1,0,0:0:0:0:
192,192,272121,1,2,0:0:0:0:
320,192,272209,1,2,0:0:0:0:
64,192,272297,1,2,0:0:0:0:
448,192,272297,1,4,0:0:0:0:
192,192,272386,1,2,0:0:0:0:
320,192,272386,1,0,0:0:0:0:
64,192,272474,1,2,0:0:0:0:
448,192,272474,1,0,0:0:0:0:
192,192,272562,1,2,0:0:0:0:
320,192,272562,1,0,0:0:0:0:
64,192,272650,1,8,0:0:0:0:
448,192,272650,1,0,0:0:0:0:
192,192,272827,1,2,0:0:0:0:
320,192,272827,1,0,0:0:0:0:
64,192,273003,1,8,0:0:0:0:
192,192,273003,1,0,0:0:0:0:
320,192,273091,1,8,0:0:0:0:
448,192,273091,1,0,0:0:0:0:
64,192,273180,1,2,0:0:0:0:
192,192,273180,1,0,0:0:0:0:
320,192,273268,1,2,0:0:0:0:
448,192,273268,1,0,0:0:0:0:
64,192,273356,1,8,0:0:0:0:
192,192,273356,1,2,0:0:0:0:
320,192,273444,1,0,0:0:0:0:
64,192,273533,1,2,0:0:0:0:
448,192,273533,1,8,0:0:0:0:
192,192,273621,1,2,0:0:0:0:
64,192,273709,128,2,274062:0:0:0:0:
320,192,273709,1,4,0:0:0:0:
448,192,273709,1,0,0:0:0:0:
320,192,273886,1,0,0:0:0:0:
192,192,274062,1,8,0:0:0:0:
448,192,274062,1,2,0:0:0:0:
448,192,274238,128,0,274415:0:0:0:0:
192,192,274415,1,2,0:0:0:0:
320,192,274415,1,0,0:0:0:0:
192,192,274591,128,0,274768:0:0:0:0:
64,192,274768,1,8,0:0:0:0:
320,192,274768,1,2,0:0:0:0:
320,192,274944,128,0,275121:0:0:0:0:
64,192,275121,1,2,0:0:0:0:
448,192,275121,1,0,0:0:0:0:
64,192,275297,128,0,275474:0:0:0:0:
320,192,275474,128,8,275650:0:0:0:0:
448,192,275474,1,2,0:0:0:0:
192,192,275650,128,0,275827:0:0:0:0:
64,192,275827,1,2,0:0:0:0:
448,192,275827,1,0,0:0:0:0:
192,192,276003,128,0,276180:0:0:0:0:
64,192,276180,1,8,0:0:0:0:
448,192,276180,128,2,276356:0:0:0:0:
64,192,276356,128,2,276533:0:0:0:0:
320,192,276356,1,0,0:0:0:0:
192,192,276533,1,2,0:0:0:0:
320,192,276533,128,4,276886:0:0:0:0:
448,192,276533,1,0,0:0:0:0:
192,192,276709,1,0,0:0:0:0:
64,192,276886,1,8,0:0:0:0:
448,192,276886,1,2,0:0:0:0:
448,192,277062,1,0,0:0:0:80:Snare Drum 2.wav
64,192,277238,128,2,277591:0:0:0:0:
320,192,277238,1,0,0:0:0:0:
320,192,277415,1,0,0:0:0:0:
192,192,277591,1,8,0:0:0:0:
448,192,277591,1,2,0:0:0:0:
192,192,277768,1,0,0:0:0:80:Snare Drum 2.wav
64,192,277944,1,2,0:0:0:0:
448,192,277944,128,0,278297:0:0:0:0:
64,192,278121,1,0,0:0:0:0:
192,192,278297,1,8,0:0:0:0:
320,192,278297,1,2,0:0:0:0:
192,192,278474,128,0,278650:0:0:0:0:
320,192,278650,1,2,0:0:0:0:
448,192,278650,1,0,0:0:0:0:
64,192,278827,1,0,0:0:0:0:
320,192,278915,1,2,0:0:0:0:
448,192,278915,1,0,0:0:0:0:
64,192,279003,1,8,0:0:0:0:
192,192,279003,1,2,0:0:0:0:
192,192,279180,1,2,0:0:0:0:
320,192,279180,1,0,0:0:0:0:
64,192,279356,1,2,0:0:0:0:
320,192,279356,1,4,0:0:0:0:
448,192,279356,128,0,279709:0:0:0:0:
192,192,279621,1,2,0:0:0:0:
64,192,279709,1,8,0:0:0:0:
320,192,279709,1,0,0:0:0:0:
64,192,279886,128,2,280415:0:0:0:0:
192,192,279886,1,4,0:0:0:0:
448,192,279886,1,0,0:0:0:0:
192,192,280238,1,2,0:0:0:0:
320,192,280415,1,8,0:0:0:0:
448,192,280415,1,0,0:0:0:0:
192,192,280591,1,0,0:0:0:0:
320,192,280680,1,0,0:0:0:0:
64,192,280768,1,2,0:0:0:0:
192,192,280768,128,4,281121:0:0:0:0:
448,192,280768,1,0,0:0:0:0:
320,192,281033,1,2,0:0:0:0:
64,192,281121,1,8,0:0:0:0:
448,192,281121,1,0,0:0:0:0:
64,192,281297,1,2,0:0:0:0:
320,192,281297,128,4,281827:0:0:0:0:
448,192,281297,1,0,0:0:0:0:
448,192,281650,1,2,0:0:0:0:
64,192,281827,1,8,0:0:0:0:
192,192,281827,1,0,0:0:0:0:
320,192,281915,1,8,0:0:0:0:
448,192,281915,1,0,0:0:0:0:
64,192,282003,1,0,0:0:0:60:Tom1.wav
192,192,282003,1,0,0:0:0:0:
320,192,282091,1,0,0:0:0:60:Tom2.wav
64,192,282180,1,2,0:0:0:0:
192,192,282180,1,4,0:0:0:0:
448,192,282180,1,0,0:0:0:0:
448,192,282356,1,0,0:0:0:0:
192,192,282533,1,8,0:0:0:0:
320,192,282533,1,2,0:0:0:0:
320,192,282709,1,0,0:0:0:0:
64,192,282886,1,2,0:0:0:0:
448,192,282886,128,0,283238:0:0:0:0:
64,192,283062,1,0,0:0:0:0:
192,192,283238,1,2,0:0:0:0:
320,192,283238,1,8,0:0:0:0:
192,192,283415,1,0,0:0:0:0:
64,192,283591,128,2,283944:0:0:0:0:
320,192,283591,1,4,0:0:0:0:
448,192,283591,1,0,0:0:0:0:
320,192,283768,1,0,0:0:0:0:
192,192,283944,1,8,0:0:0:0:
448,192,283944,1,2,0:0:0:0:
192,192,284121,1,0,0:0:0:0:
320,192,284297,1,2,0:0:0:0:
448,192,284297,1,0,0:0:0:0:
192,192,284474,1,2,0:0:0:0:
320,192,284474,1,0,0:0:0:0:
64,192,284650,1,8,0:0:0:0:
192,192,284650,1,0,0:0:0:0:
64,192,284827,1,2,0:0:0:0:
448,192,284827,1,0,0:0:0:0:
192,192,284915,1,0,0:0:0:0:
64,192,285003,1,2,0:0:0:0:
320,192,285003,1,4,0:0:0:0:
448,192,285003,1,0,0:0:0:0:
320,192,285180,1,0,0:0:0:95:Snare Clap.wav
448,192,285180,1,0,0:0:0:0:
64,192,285356,1,10,0:0:0:0:
192,192,285356,1,0,0:0:0:95:Snare Clap.wav
320,192,285533,1,0,0:0:0:95:Snare Clap.wav
448,192,285533,1,0,0:0:0:0:
64,192,285709,1,2,0:0:0:0:
192,192,285709,1,0,0:0:0:95:Snare Clap.wav
64,192,285886,1,0,0:0:0:95:Snare Clap.wav
192,192,285886,1,0,0:0:0:0:
320,192,286062,1,10,0:0:0:0:
448,192,286062,1,0,0:0:0:95:Snare Clap.wav
64,192,286238,1,0,0:0:0:95:Snare Clap.wav
192,192,286238,1,0,0:0:0:0:
320,192,286415,1,2,0:0:0:0:
448,192,286415,1,0,0:0:0:95:Snare Clap.wav
64,192,286503,1,2,0:0:0:0:
192,192,286503,1,0,0:0:0:95:Snare Clap.wav
320,192,286591,1,2,0:0:0:0:
448,192,286591,1,0,0:0:0:95:Snare Clap.wav
64,192,286680,1,2,0:0:0:0:
192,192,286680,1,0,0:0:0:95:Snare Clap.wav
320,192,286768,1,10,0:0:0:0:
448,192,286768,1,0,0:0:0:95:Snare Clap.wav
64,192,286856,1,2,0:0:0:0:
192,192,286856,1,0,0:0:0:95:Snare Clap.wav
320,192,286944,1,2,0:0:0:0:
448,192,286944,1,0,0:0:0:95:Snare Clap.wav
64,192,287033,1,2,0:0:0:0:
192,192,287033,1,0,0:0:0:95:Snare Clap.wav
448,192,287121,1,2,0:0:0:0:
320,192,287165,1,0,0:0:0:95:Snare Clap.wav
192,192,287209,1,2,0:0:0:0:
64,192,287253,1,0,0:0:0:95:Snare Clap.wav
320,192,287297,1,2,0:0:0:0:
448,192,287297,1,0,0:0:0:95:Snare Clap.wav
64,192,287386,1,2,0:0:0:0:
192,192,287386,1,0,0:0:0:95:Snare Clap.wav
448,192,287474,1,10,0:0:0:0:
320,192,287518,1,0,0:0:0:95:Snare Clap.wav
192,192,287562,1,2,0:0:0:0:
448,192,287650,1,2,0:0:0:0:
320,192,287694,1,0,0:0:0:95:Snare Clap.wav
192,192,287738,1,2,0:0:0:0:
64,192,287827,1,2,0:0:0:0:
320,192,287827,1,4,0:0:0:0:
448,192,287827,128,0,288533:0:0:0:0:
192,192,288003,1,0,0:0:0:0:
192,192,288180,1,0,0:0:0:0:
320,192,288356,1,0,0:0:0:0:
64,192,288533,128,0,288886:0:0:0:0:
192,192,288709,1,0,0:0:0:0:
448,192,288886,128,0,289062:0:0:0:0:
64,192,289062,1,2,0:0:0:0:
192,192,289062,1,0,0:0:0:0:
320,192,289238,1,0,0:0:0:0:
64,192,289415,1,2,0:0:0:0:
192,192,289415,1,0,0:0:0:0:
320,192,289591,1,2,0:0:0:0:
448,192,289591,1,0,0:0:0:0:
192,192,289768,128,0,289944:0:0:0:0:
448,192,289944,128,0,290121:0:0:0:0:
64,192,290121,128,0,290297:0:0:0:0:
192,192,290297,128,0,290474:0:0:0:0:
320,192,290474,128,0,290650:0:0:0:0:
64,192,290650,1,2,0:0:0:0:
192,192,290650,1,4,0:0:0:0:
448,192,290650,1,0,0:0:0:0:
64,192,290827,1,2,0:0:0:0:
192,192,290827,1,0,0:0:0:0:
320,192,291003,1,2,0:0:0:0:
448,192,291003,1,0,0:0:0:0:
64,192,291180,1,2,0:0:0:0:
192,192,291180,1,0,0:0:0:0:
320,192,291356,1,2,0:0:0:0:
448,192,291356,1,0,0:0:0:0:
320,192,291533,1,2,0:0:0:0:
448,192,291533,1,0,0:0:0:0:
64,192,291709,1,2,0:0:0:0:
192,192,291709,1,0,0:0:0:0:
320,192,291886,1,2,0:0:0:0:
448,192,291886,1,0,0:0:0:0:
64,192,292062,1,2,0:0:0:0:
192,192,292062,1,0,0:0:0:0:
320,192,292150,1,2,0:0:0:0:
448,192,292150,1,0,0:0:0:0:
64,192,292238,1,2,0:0:0:0:
192,192,292238,1,0,0:0:0:0:
320,192,292327,1,2,0:0:0:0:
448,192,292327,1,0,0:0:0:0:
64,192,292415,1,2,0:0:0:0:
192,192,292415,1,0,0:0:0:0:
320,192,292503,1,2,0:0:0:0:
448,192,292503,1,0,0:0:0:0:
64,192,292591,1,2,0:0:0:0:
192,192,292591,1,0,0:0:0:0:
320,192,292680,1,2,0:0:0:0:
448,192,292680,1,0,0:0:0:0:
64,192,292768,1,2,0:0:0:0:
192,192,292812,1,2,0:0:0:0:
320,192,292856,1,2,0:0:0:0:
448,192,292900,1,2,0:0:0:0:
64,192,292944,1,2,0:0:0:0:
192,192,292988,1,2,0:0:0:0:
320,192,293033,1,2,0:0:0:0:
448,192,293077,1,2,0:0:0:0:
64,192,293121,1,2,0:0:0:0:
192,192,293165,1,2,0:0:0:0:
320,192,293209,1,2,0:0:0:0:
448,192,293253,1,2,0:0:0:0:
64,192,293297,1,2,0:0:0:0:
192,192,293341,1,2,0:0:0:0:
320,192,293386,1,2,0:0:0:0:
448,192,293430,1,2,0:0:0:0:
64,192,293474,128,0,294180:0:0:0:0:
192,192,293827,1,0,0:0:0:100:Snare Drum.wav
448,192,293944,1,0,0:0:0:100:Snare Drum.wav
192,192,294062,1,0,0:0:0:100:Snare Drum.wav
320,192,294180,1,2,0:0:0:0:
448,192,294180,128,4,294886:0:0:0:0:
320,192,294533,1,0,0:0:0:100:Snare Drum.wav
64,192,294650,1,0,0:0:0:100:Snare Drum.wav
320,192,294768,1,0,0:0:0:100:Snare Drum.wav
64,192,294886,1,2,0:0:0:0:
192,192,294886,128,4,295591:0:0:0:0:
64,192,295238,1,0,0:0:0:100:Snare Drum.wav
448,192,295356,1,0,0:0:0:100:Snare Drum.wav
64,192,295474,1,0,0:0:0:100:Snare Drum.wav
320,192,295591,128,2,295944:0:0:0:0:
448,192,295591,1,4,0:0:0:0:
64,192,295944,1,2,0:0:0:0:
192,192,295944,1,4,0:0:0:0:
320,192,296062,1,2,0:0:0:0:
448,192,296062,1,4,0:0:0:0:
64,192,296180,1,2,0:0:0:0:
192,192,296180,1,4,0:0:0:0:
64,192,296297,1,2,0:0:0:0:
320,192,296297,128,4,300886:0:0:0:0:
448,192,296297,128,0,300886:0:0:0:0:
64,192,297709,128,0,298238:0:0:0:85:Boom.wav
192,192,298238,128,0,298415:0:0:0:0:
64,192,298415,128,0,300886:0:0:0:0:
