osu file format v14

[General]
AudioFilename: audio.mp3
AudioLeadIn: 0
PreviewTime: 65216
Countdown: 0
SampleSet: Soft
StackLeniency: 0.5
Mode: 0
LetterboxInBreaks: 0
WidescreenStoryboard: 1

[Editor]
Bookmarks: 805,6452,19157,30452,41746,51628,65746,99628
DistanceSpacing: 1
BeatDivisor: 4
GridSize: 4
TimelineZoom: 3.699998

[Metadata]
Title:Ahoy!! Warera Houshou Kaizokudan*
TitleUnicode:Ahoy!! 我ら宝鐘海賊団☆
Artist:Houshou Marine
ArtistUnicode:宝鐘マリン
Creator:Luscent
Version:Amateurre's Insane
Source:
Tags:IOSYS ARM japanese pop jpop j-pop electronic Amateurre wanpachi toybot vikala vtuber virtual youtuber ホロライブ hololive まろん maron 三輪紫乃 miwa shino しばやん shibayan hoshou captain senchou ahoy
BeatmapID:3042670
BeatmapSetID:1482982

[Difficulty]
HPDrainRate:4.5
CircleSize:3.8
OverallDifficulty:8
ApproachRate:9
SliderMultiplier:1.8
SliderTickRate:1

[Events]
//Background and Video events
0,0,"d.jpg",0,0
Video,-555,"marine.mp4"
//Break Periods
2,27652,29322
2,57299,60910
//Storyboard Layer 0 (Background)
//Storyboard Layer 1 (Fail)
//Storyboard Layer 2 (Pass)
//Storyboard Layer 3 (Foreground)
//Storyboard Layer 4 (Overlay)
//Storyboard Sound Samples

[TimingPoints]
-606,352.941176470588,4,2,1,75,1,0
99,-142.857142857143,4,2,1,75,0,0
452,-66.6666666666667,4,2,1,75,0,0
805,352.941176470588,4,2,1,75,1,0
7157,-83.3333333333333,4,2,1,75,0,0
7863,-100,4,2,1,75,0,0
8569,-83.3333333333333,4,2,1,75,0,0
9275,-250,4,2,1,75,0,0
9628,-83.3333333333333,4,2,1,75,0,0
9981,-250,4,2,1,75,0,0
10334,-83.3333333333333,4,2,1,75,0,0
10687,-250,4,2,1,75,0,0
11040,-83.3333333333333,4,2,1,75,0,0
11393,-250,4,2,1,75,0,0
11746,-83.3333333333333,4,2,1,75,0,0
12099,-83.3333333333333,4,2,1,40,0,0
12452,-100,4,2,1,55,0,0
12805,-100,4,2,1,70,0,0
13157,-100,4,2,1,85,0,0
13510,-100,4,2,1,100,0,0
16157,-100,4,2,1,65,0,0
16334,-100,4,2,1,70,0,0
18363,-100,4,2,1,50,0,0
18805,-83.3333333333333,4,2,1,80,0,0
29922,-83.3333333333333,4,2,1,55,0,0
30334,-83.3333333333333,4,2,1,55,0,0
30452,-100,4,2,1,70,0,0
40334,-100,4,2,1,80,0,0
41746,-100,4,2,1,70,0,0
47393,-83.3333333333333,4,2,1,70,0,0
47922,-100,4,2,1,70,0,0
51628,-125,4,2,1,60,0,0
64334,-125,4,2,1,60,0,0
64687,-125,4,2,1,70,0,0
65040,-125,4,2,1,80,0,0
65746,-125,4,2,1,90,0,0
66275,-83.3333333333333,4,2,1,90,0,0
91157,-83.3333333333333,4,2,1,70,0,0
97863,-83.3333333333333,4,2,1,80,0,0
98569,-83.3333333333333,4,2,1,90,0,0
99275,-83.3333333333333,4,2,1,100,0,0
99804,-83.3333333333333,4,2,1,80,0,0
103863,-83.3333333333333,4,2,1,50,0,0

[Colours]
Combo1 : 173,255,95
Combo2 : 251,191,125
Combo3 : 17,254,176
Combo4 : 255,138,108

[HitObjects]
99,127,99,6,0,L|101:92,4,25.1999992309571,0|0|0|0|0,3:0|3:0|3:0|3:0|3:0,2:0:0:0:
22,169,452,2,0,B|74:195|119:158|89:119|146:96|210:133,1,202.5,4|0,3:2|2:0,2:0:0:0:
217,144,805,6,0,P|230:125|227:81,1,45,6|0,3:2|2:0,2:0:0:0:
296,210,981,1,2,2:0:0:0:
296,210,1069,1,2,2:0:0:0:
296,210,1157,2,0,P|331:238|296:294,1,90,2|2,2:0|2:0,2:0:0:0:
96,354,1510,6,0,P|61:326|96:270,1,90,6|2,3:2|2:0,2:0:0:0:
244,305,1863,1,2,2:0:0:0:
154,293,2040,1,2,2:0:0:0:
35,91,2216,6,0,P|57:94|75:107,1,45,6|2,3:2|2:0,2:0:0:0:
225,148,2393,1,2,2:0:0:0:
225,148,2481,1,2,2:0:0:0:
225,148,2569,2,0,P|182:141|156:176,1,90,2|2,2:0|2:0,2:0:0:0:
320,358,2922,6,0,P|362:364|388:329,1,90,6|2,3:2|2:0,2:0:0:0:
304,190,3275,1,2,2:0:0:0:
329,277,3452,1,2,2:0:0:0:
473,153,3628,6,0,P|454:165|432:169,1,45,6|2,3:2|2:0,2:0:0:0:
275,121,3805,1,2,2:0:0:0:
275,121,3893,1,2,2:0:0:0:
275,121,3981,2,0,P|268:163|303:189,1,90,2|2,2:0|2:0,2:0:0:0:
512,69,4334,6,0,P|518:26|483:0,1,90,6|2,3:2|2:0,2:0:0:0:
351,93,4687,1,2,2:0:0:0:
425,64,4863,1,2,2:0:0:0:
497,185,5040,1,2,2:0:0:0:
497,185,5393,6,0,P|436:161|446:240,1,135,4|0,3:2|2:0,2:0:0:0:
512,361,5746,2,0,P|503:297|422:300,1,135,4|0,3:2|2:0,2:0:0:0:
265,244,6099,2,0,P|332:233|399:224,1,135,4|0,3:2|2:0,2:0:0:0:
416,212,6452,6,0,P|426:180|404:139,2,60,4|0|0,3:2|3:0|3:0,2:0:0:0:
314,156,6805,1,0,3:0:0:0:
307,127,6922,1,0,3:0:0:0:
316,99,7040,1,0,3:0:0:0:
337,79,7157,2,0,P|414:84|387:155,1,144,6|0,3:1|2:1,2:1:0:0:
223,108,7510,2,0,P|188:38|263:26,1,144,2|0,3:1|2:0,2:0:0:0:
314,156,7863,6,0,P|297:181|287:209,2,60,4|0|0,3:2|3:0|3:0,2:0:0:0:
170,209,8216,1,0,3:0:0:0:
187,232,8334,1,0,3:0:0:0:
201,258,8452,1,0,3:0:0:0:
211,284,8569,2,0,P|270:297|266:207,1,144,6|0,3:1|2:0,2:0:0:0:
82,171,8922,2,0,P|40:216|121:257,1,144,2|0,3:1|2:0,2:0:0:0:
170,209,9275,6,0,P|178:168|188:141,1,48,4|0,3:2|3:0,2:0:0:0:
199,152,9628,2,0,P|184:204|172:311,1,144,2|0,3:1|3:0,2:0:0:0:
320,359,9981,6,0,P|330:337|332:314,1,48,4|0,3:2|3:0,2:0:0:0:
316,301,10334,2,0,P|288:371|228:340,1,144,2|0,3:1|3:0,2:0:0:0:
89,266,10687,6,0,P|48:258|21:248,1,48,4|0,3:2|3:0,2:0:0:0:
31,266,11040,2,0,P|83:281|190:293,1,144,2|0,3:1|3:0,2:0:0:0:
399,296,11393,6,0,P|409:317|411:340,1,48,4|0,3:2|3:0,2:0:0:0:
395,354,11746,2,0,P|367:284|307:315,1,144,2|0,3:1|3:0,2:0:0:0:
249,216,12099,5,12,3:2:0:0:
245,176,12216,1,4,3:0:0:0:
269,144,12334,1,4,3:0:0:0:
314,136,12452,2,0,P|323:164|330:194,2,60,4|4|4,3:0|3:0|3:0,2:0:0:0:
412,77,12805,5,12,3:2:0:0:
430,39,12922,1,8,3:0:0:0:
479,33,13040,1,8,3:0:0:0:
512,51,13157,2,0,P|503:79|496:109,2,60,8|8|8,3:0|3:0|3:0,2:0:0:0:
320,47,13510,5,12,3:2:0:0:
256,192,13599,12,0,14922,2:0:0:0:
47,170,16157,5,0,3:0:0:0:
70,188,16246,1,0,3:0:0:0:
95,190,16334,2,2,B|125:143|92:130|148:76|148:76|46:139|131:149|21:216|21:216|160:189|100:270|154:297|231:277,1,540,6|0,3:1|2:1,2:1:0:0:
384,285,17569,5,0,3:0:0:0:
384,285,17657,1,0,3:0:0:0:
384,284,17746,2,0,P|378:235|370:195,1,90,4|0,3:2|2:0,2:0:0:0:
300,303,18010,1,0,3:0:0:0:
300,303,18099,2,0,P|294:254|286:214,1,90,8|0,3:2|3:0,2:0:0:0:
214,286,18363,1,0,3:0:0:0:
214,286,18452,1,2,3:1:0:0:
433,129,18805,6,2,P|494:166|481:257,1,162,6|0,3:1|2:0,2:1:0:0:
479,269,19157,6,0,P|452:263|425:261,1,54,6|0,3:2|2:0,2:0:0:0:
351,289,19334,1,2,2:1:0:0:
217,205,19510,2,0,P|272:199|323:190,1,108,10|2,2:1|2:0,2:0:0:0:
343,200,19775,5,2,2:0:0:0:
343,200,19863,2,0,P|345:173|350:146,1,54,2|0,3:2|2:0,2:0:0:0:
300,89,20040,1,2,2:1:0:0:
463,23,20216,2,0,P|507:59|496:113,1,108,10|2,2:1|2:0,2:0:0:0:
512,132,20481,5,2,2:0:0:0:
512,132,20569,2,0,P|485:134|458:139,1,54,2|0,3:2|2:0,2:0:0:0:
401,85,20746,1,2,2:1:0:0:
343,200,20922,2,0,P|289:190|236:184,1,108,10|2,2:1|2:0,2:0:0:0:
216,201,21187,5,2,2:0:0:0:
216,201,21275,2,0,P|214:168|210:135,1,54,2|0,3:2|2:0,2:0:0:0:
128,205,21452,2,0,P|126:172|122:139,1,54,2|0,2:1|2:0,2:0:0:0:
33,266,21628,5,10,2:1:0:0:
53,290,21716,1,2,2:0:0:0:
80,306,21805,1,2,2:0:0:0:
112,310,21893,1,2,2:0:0:0:
144,302,21981,2,0,P|181:297|207:297,1,54,2|0,3:2|2:0,2:0:0:0:
269,328,22157,1,2,2:0:0:0:
343,200,22334,2,0,P|396:234|390:292,1,108,10|2,2:0|2:0,2:0:0:0:
404,296,22599,5,0,2:0:0:0:
404,296,22687,2,0,P|414:270|406:235,1,54,2|0,3:2|2:0,2:0:0:0:
472,195,22863,1,2,2:0:0:0:
311,96,23040,2,0,P|328:147|342:199,1,108,10|0,2:0|2:0,2:0:0:0:
334,221,23305,5,0,2:0:0:0:
334,221,23393,2,0,P|298:234|273:236,1,54,6|0,3:2|2:0,2:0:0:0:
159,166,23569,2,0,P|185:170|210:180,1,54,2|0,2:0|2:0,2:0:0:0:
221,312,23746,1,10,2:0:0:0:
227,271,23834,1,0,2:0:0:0:
234,232,23922,1,2,2:0:0:0:
244,192,24010,1,0,2:0:0:0:
255,153,24099,1,2,3:2:0:0:
11,229,24275,6,0,P|6:197|-1:161,1,54,6|0,3:1|2:0,2:0:0:0:
172,148,24452,2,0,P|176:121|180:94,1,54,2|0,3:1|3:0,2:0:0:0:
67,21,24628,5,0,3:0:0:0:
67,21,24716,1,0,3:0:0:0:
67,21,24805,2,0,P|72:48|75:75,1,54,4|0,3:2|2:0,2:0:0:0:
81,150,24981,1,2,2:1:0:0:
187,254,25157,2,0,P|180:200|171:147,1,108,10|2,2:1|2:0,2:0:0:0:
186,133,25422,5,2,2:0:0:0:
186,133,25510,2,0,P|213:135|240:140,1,54,2|0,3:2|2:0,2:0:0:0:
304,186,25687,1,2,2:1:0:0:
451,128,25863,2,0,P|386:110|367:60,1,108,10|2,2:1|2:0,2:0:0:0:
355,68,26128,5,2,2:0:0:0:
355,68,26216,2,0,P|361:103|360:135,1,54,2|0,3:2|2:0,2:0:0:0:
304,186,26393,1,2,3:1:0:0:
454,303,26569,2,0,P|475:245|428:205,1,108,10|0,3:1|3:0,2:0:0:0:
324,289,26922,5,2,3:1:0:0:
295,292,27010,1,0,3:0:0:0:
268,298,27099,1,2,3:1:0:0:
240,306,27187,1,0,3:0:0:0:
214,316,27275,1,2,3:1:0:0:
132,284,27452,1,0,3:0:0:0:
58,322,29922,6,0,L|52:286,3,36,0|0|0|0,3:0|3:0|3:0|3:0,2:0:0:0:
11,156,30334,5,2,3:2:0:0:
84,188,30452,2,0,P|151:171|212:164,1,120,6|0,3:2|2:0,2:0:0:0:
318,225,30805,2,0,P|330:212|330:156,1,60,2|0,3:1|2:0,2:0:0:0:
327,155,31040,1,2,2:1:0:0:
306,245,31157,2,0,P|319:287|323:352,1,90,6|0,3:1|2:0,2:1:0:0:
481,300,31510,6,0,P|468:258|464:193,1,90,2|0,3:2|2:0,2:0:0:0:
512,36,31863,2,0,P|485:79|356:71,1,180,2|2,3:2|3:2,2:0:0:0:
210,165,32393,2,0,P|252:152|317:148,1,90,2|0,2:0|3:2,2:0:0:0:
179,66,32746,2,0,P|221:52|266:48,1,90,2|0,2:0|3:2,2:0:0:0:
98,186,33099,5,2,2:0:0:0:
101,5,33275,2,0,P|87:46|80:118,1,90,2|2,3:2|2:0,2:0:0:0:
194,190,33628,1,0,3:2:0:0:
2,249,33805,2,0,P|44:232|164:309,1,180,2|2,2:0|2:0,2:0:0:0:
370,351,34334,2,0,P|356:310|349:238,1,90,2|2,3:2|2:0,2:0:0:0:
250,346,34687,1,2,3:2:0:0:
456,250,34863,6,0,P|482:201|452:141,1,90,2|0,2:0|3:2,2:0:0:0:
282,113,35216,2,0,P|256:162|286:222,1,90,2|2,2:0|3:2,2:0:0:0:
367,179,35569,1,2,2:0:0:0:
377,166,35657,1,0,2:0:0:0:
388,152,35746,2,0,P|378:85|378:29,1,90,2|0,3:2|2:0,2:0:0:0:
300,147,35981,1,0,3:0:0:0:
255,215,36099,6,0,P|194:205|91:198,1,120,6|2,3:2|2:0,2:0:0:0:
28,126,36452,2,0,P|15:113|15:57,1,60,2|0,3:1|2:0,3:2:0:0:
19,56,36687,1,2,2:1:0:0:
39,146,36805,2,0,P|23:208|4:267,1,90,6|0,3:1|2:0,2:0:0:0:
251,213,37157,6,0,P|261:170|274:127,1,90,2|0,3:2|2:0,2:0:0:0:
90,322,37510,2,0,P|166:292|265:326,1,180,2|2,3:2|3:2,2:0:0:0:
478,260,38040,2,0,P|465:302|461:367,1,90,2|0,2:0|3:2,2:0:0:0:
379,229,38393,2,0,P|365:271|361:316,1,90,2|0,2:0|3:2,2:0:0:0:
288,123,38746,5,2,2:0:0:0:
158,234,38922,2,0,P|210:223|277:227,1,90,2|2,3:2|2:0,2:0:0:0:
380,103,39275,1,2,3:2:0:0:
249,0,39452,2,0,P|199:29|222:156,1,180,2|2,2:0|2:0,2:0:0:0:
55,274,39981,2,0,P|53:229|43:185,1,90,2|2,3:2|3:2,2:0:0:0:
254,211,40334,6,0,P|267:277|271:344,2,135,6|6|6,3:2|3:2|3:2,2:0:0:0:
354,68,41040,2,0,P|365:109|371:156,1,90,8|0,3:0|3:0,2:0:0:0:
394,179,41305,1,0,3:0:0:0:
394,179,41393,2,0,P|391:207|380:229,1,45,0|0,3:0|3:0,3:0:0:0:
225,107,41569,5,0,3:0:0:0:
225,107,41657,1,0,3:0:0:0:
225,107,41746,2,0,P|265:60|343:87,1,135,6|0,3:2|2:0,2:0:0:0:
354,68,42099,2,0,L|364:13,3,45,0|0|0|0,3:2|2:0|2:0|2:0,2:0:0:0:
305,150,42452,5,2,3:2:0:0:
225,192,42628,1,0,2:0:0:0:
140,172,42805,2,0,P|119:154|100:120,3,45,2|0|2|0,3:2|2:0|2:0|2:0,2:0:0:0:
243,275,43157,6,0,P|241:298|231:322,3,45,2|0|0|0,3:2|2:0|2:0|2:0,2:0:0:0:
52,322,43510,2,0,P|43:342|39:365,3,45,0|0|2|0,3:2|2:0|2:0|2:0,2:0:0:0:
133,257,43863,2,0,P|144:310|148:369,1,90,0|0,3:2|2:0,2:0:0:0:
352,360,44216,5,2,3:2:0:0:
402,295,44393,1,2,2:0:0:0:
402,295,44481,1,0,2:0:0:0:
402,295,44569,2,0,P|391:213|379:157,1,135,2|0,3:2|2:0,2:0:0:0:
398,142,44922,2,0,L|408:87,3,45,0|0|0|0,3:2|2:0|2:0|2:0,2:0:0:0:
297,174,45275,5,2,3:2:0:0:
210,165,45452,1,2,2:0:0:0:
165,236,45628,2,0,P|168:259|175:280,3,45,2|0|2|0,3:2|2:0|2:0|2:0,2:0:0:0:
261,97,45981,6,0,P|263:74|270:53,3,45,2|0|0|0,3:2|2:0|2:0|2:0,2:0:0:0:
103,116,46334,2,0,P|96:137|93:159,3,45,0|0|2|0,3:2|2:0|2:0|2:0,2:0:0:0:
156,8,46687,6,0,P|185:39|176:91,1,90,2|2,3:1|2:0,2:0:0:0:
328,193,47040,2,0,P|322:149|355:117,1,90,2|2,3:1|2:0,2:0:0:0:
375,120,47305,5,2,2:0:0:0:
375,120,47393,2,0,P|360:204|353:323,1,162,6|0,3:2|2:0,2:0:0:0:
364,303,47746,1,2,3:2:0:0:
214,187,47922,2,0,P|161:255|172:349,1,180,6|2,3:2|3:2,2:0:0:0:
271,284,48452,1,2,3:2:0:0:
78,361,48628,5,2,3:2:0:0:
16,300,48981,1,0,3:0:0:0:
16,300,49069,1,0,3:0:0:0:
16,300,49157,2,0,P|27:256|36:212,1,90,4|0,2:0|2:0,2:0:0:0:
143,92,49510,2,0,P|113:111|119:161,1,90,6|2,3:2|3:2,2:0:0:0:
123,178,49775,1,0,3:2:0:0:
123,178,49863,1,2,3:2:0:0:
223,122,50040,6,0,P|97:124|50:87,1,180,6|0,3:2|3:0,2:0:0:0:
213,211,50569,2,0,P|231:253|246:295,1,90,0|0,3:0|2:3,2:0:0:0:
328,97,50922,2,0,P|312:54|295:13,1,90,8|4,2:3|2:3,2:0:0:0:
312,200,51275,2,0,P|354:215|395:232,1,90,4|4,2:3|2:3,2:0:0:0:
494,167,51628,6,0,P|482:237|469:317,1,144,4|2,2:0|3:2,2:0:0:0:
470,309,52334,1,2,2:0:0:0:
323,363,52510,2,0,P|353:352|398:348,1,72,2|0,3:2|2:0,2:0:0:0:
494,167,52863,6,0,P|440:169|382:93,2,144,2|2|0,2:0|2:0|2:0,2:0:0:0:
385,244,53746,2,0,P|333:236|284:234,1,72,0|2,2:0|3:2,2:0:0:0:
198,187,54099,2,0,P|210:237|213:269,1,72,2|0,2:0|2:0,2:0:0:0:
134,368,54452,6,0,P|131:323|109:221,1,144,2|0,2:0|3:0,2:0:0:0:
22,101,54981,1,2,2:0:0:0:
95,137,55157,2,0,P|141:129|185:116,1,72,0|0,2:0|3:0,2:0:0:0:
228,273,55510,5,2,2:0:0:0:
294,319,55687,2,0,P|348:321|373:226,2,144,2|2|0,2:0|3:2|2:0,2:0:0:0:
269,189,56569,5,2,2:0:0:0:
301,170,56746,1,0,3:0:0:0:
301,212,56922,1,2,2:0:0:0:
291,191,57099,1,0,2:0:0:0:
452,151,61510,5,2,2:0:0:0:
452,151,61599,2,0,P|461:111|478:67,2,72,2|2|2,2:0|2:0|2:0,2:0:0:0:
350,164,62128,1,2,2:0:0:0:
350,164,62216,1,2,2:0:0:0:
350,164,62305,2,0,P|359:203|376:248,2,72,2|2|2,2:0|2:0|2:0,2:0:0:0:
230,88,62834,1,0,2:0:0:0:
230,88,62922,6,0,P|235:58|241:25,2,48,2|2|2,2:0|2:0|2:0,2:0:0:0:
169,159,63275,1,2,2:0:0:0:
172,180,63393,1,2,2:0:0:0:
176,201,63510,1,2,2:0:0:0:
180,222,63628,1,2,2:0:0:0:
180,222,64334,6,0,P|203:217|235:213,3,36,0|0|0|0,3:0|2:0|2:0|2:0,2:0:0:0:
280,262,64687,2,0,P|303:257|335:253,3,36,0|0|0|0,3:0|2:0|2:0|2:0,2:0:0:0:
385,291,65040,2,0,P|420:285|456:284,1,72,0|0,3:0|2:0,2:0:0:0:
483,295,65305,1,0,3:0:0:0:
482,294,65393,2,0,P|475:328|469:365,1,72,0|0,3:0|3:0,2:0:0:0:
349,156,65746,5,6,3:2:0:0:
411,249,65922,1,0,2:0:0:0:
197,163,66099,1,10,2:0:0:0:
290,61,66275,2,0,P|344:55|396:45,1,108,2|0,2:0|3:0,2:0:0:0:
274,220,66628,2,0,P|263:272|258:326,1,108,2|10,2:0|2:0,2:0:0:0:
114,78,66981,6,0,P|103:130|98:184,1,108,2|0,0:2|3:0,2:0:0:0:
32,237,67334,1,2,0:2:0:0:
193,163,67510,1,10,2:0:0:0:
64,4,67687,2,0,P|162:63|276:20,1,216,2|2,2:0|2:0,2:0:0:0:
429,165,68216,2,0,P|346:138|306:138,1,108,10|2,3:2|3:2,2:0:0:0:
210,274,68569,5,6,3:2:0:0:
336,257,68746,1,0,2:0:0:0:
265,362,68922,1,10,3:2:0:0:
345,247,69099,1,0,2:0:0:0:
369,354,69275,5,2,3:2:0:0:
276,184,69452,1,0,2:0:0:0:
462,261,69628,1,10,3:2:0:0:
268,177,69805,1,0,3:2:0:0:
272,347,69981,5,2,3:2:0:0:
441,147,70157,1,0,2:0:0:0:
132,233,70334,1,10,3:2:0:0:
231,261,70510,2,0,P|226:204|214:142,1,108,2|0,3:2|2:0,2:0:0:0:
344,0,70863,1,2,3:2:0:0:
344,0,70952,1,0,3:0:0:0:
344,0,71040,2,0,P|353:53|358:106,1,108,8|2,3:2|3:2,2:0:0:0:
115,228,71393,6,0,P|86:157|162:69,1,162,6|0,3:2|3:0,2:0:0:0:
136,77,71746,1,2,3:2:0:0:
390,201,71922,2,0,P|313:181|165:164,1,216,6|2,3:2|3:2,2:0:0:0:
31,302,72452,2,0,P|84:308|136:321,1,108,2|0,3:2|2:0,2:0:0:0:
313,290,72805,5,6,3:2:0:0:
256,207,72981,1,2,3:2:0:0:
211,370,73157,1,2,3:2:0:0:
472,327,73334,2,0,P|483:275|498:223,1,108,6|0,3:2|2:0,2:0:0:0:
395,95,73687,1,2,3:2:0:0:
395,95,73775,1,0,3:0:0:0:
395,95,73863,2,0,P|427:122|412:195,1,108,2|0,3:2|2:0,2:0:0:0:
258,77,74216,6,0,P|196:60|137:53,1,108,6|2,3:2|2:0,2:0:0:0:
53,129,74569,2,0,P|106:137|158:151,1,108,10|0,3:2|2:0,2:0:0:0:
313,247,74922,6,0,P|320:186|250:147,1,108,6|2,3:2|2:0,2:0:0:0:
9,211,75275,2,0,P|2:272|72:311,1,108,8|0,3:2|2:0,2:0:0:0:
167,171,75628,6,0,P|177:118|190:65,1,108,6|0,3:2|3:0,2:0:0:0:
179,50,75893,1,0,3:0:0:0:
179,50,75981,1,2,3:2:0:0:
268,164,76157,1,2,3:2:0:0:
89,237,76334,1,0,3:0:0:0:
129,219,76422,1,0,3:0:0:0:
175,220,76510,1,2,3:1:0:0:
217,239,76599,1,0,2:0:0:0:
248,271,76687,2,0,P|275:277|307:288,1,54,2|0,3:1|2:0,2:0:0:0:
477,147,76863,5,0,3:0:0:0:
477,147,76952,1,0,3:0:0:0:
477,147,77040,2,0,P|421:209|282:155,1,216,6|10,3:2|2:0,2:0:0:0:
421,26,77569,1,2,2:0:0:0:
381,126,77746,1,0,3:0:0:0:
203,171,77922,6,0,P|217:119|231:66,1,108,2|10,2:0|3:2,2:0:0:0:
408,240,78275,2,0,P|394:292|379:344,1,108,2|0,3:2|2:0,2:0:0:0:
139,295,78628,1,2,3:2:0:0:
274,237,78805,1,10,2:0:0:0:
203,346,78981,2,0,P|128:335|20:325,1,162,2|0,2:0|2:0,2:0:0:0:
27,339,79334,1,2,2:0:0:0:
188,209,79510,2,0,P|248:225|297:233,1,108,10|2,3:2|3:2,2:0:0:0:
476,152,79863,5,6,3:2:0:0:
368,113,80040,1,0,2:0:0:0:
411,229,80216,1,10,3:2:0:0:
359,102,80393,1,0,2:0:0:0:
293,232,80569,5,2,3:2:0:0:
445,66,80746,1,0,2:0:0:0:
224,137,80922,1,10,3:2:0:0:
454,56,81099,1,0,2:0:0:0:
415,250,81275,5,2,3:2:0:0:
333,24,81452,1,0,2:0:0:0:
139,215,81628,1,10,3:2:0:0:
246,144,81805,2,0,P|256:197|260:251,1,108,2|0,3:2|2:0,2:0:0:0:
50,362,82157,5,0,3:0:0:0:
50,362,82246,1,0,3:0:0:0:
50,362,82334,2,0,P|45:308|35:255,1,108,10|0,3:2|3:0,2:0:0:0:
183,292,82687,6,0,P|264:297|343:311,1,162,6|0,3:2|3:0,2:0:0:0:
358,322,83040,1,0,3:0:0:0:
444,165,83216,2,0,P|494:202|467:350,1,216,6|2,3:2|3:2,2:0:0:0:
341,156,83746,2,0,P|334:99|322:49,1,108,2|0,3:2|2:0,2:0:0:0:
325,25,84010,5,0,2:0:0:0:
325,25,84099,1,6,3:2:0:0:
244,113,84275,1,0,3:0:0:0:
427,151,84452,1,2,3:2:0:0:
281,261,84628,2,0,P|301:149|323:46,1,216,6|0,3:2|3:0,2:0:0:0:
45,81,85157,1,8,3:0:0:0:
55,42,85246,1,8,3:0:0:0:
86,18,85334,1,0,3:0:0:0:
126,18,85422,1,0,3:0:0:0:
157,42,85510,6,0,P|140:93|131:146,1,108,4|0,3:2|3:0,2:0:0:0:
16,265,85863,2,0,P|67:248|120:239,1,108,8|0,2:0|2:0,2:0:0:0:
143,257,86128,1,0,2:0:0:0:
142,257,86216,2,0,P|173:307|241:300,1,108,2|0,3:2|3:0,2:0:0:0:
399,253,86569,2,0,P|385:325|379:380,1,108,10|0,2:0|2:0,2:0:0:0:
296,206,86922,6,0,P|367:154|508:211,1,216,6|8,3:2|2:0,2:0:0:0:
239,117,87452,1,2,3:2:0:0:
239,117,87540,1,0,2:0:0:0:
239,117,87628,2,0,P|221:51|242:10,1,108,0|0,3:0|3:2,2:0:0:0:
296,206,87981,2,0,P|269:268|261:326,1,108,10|0,3:2|3:0,2:0:0:0:
83,129,88334,5,6,3:2:0:0:
189,259,88510,1,0,3:0:0:0:
38,344,88687,1,8,3:2:0:0:
104,236,88863,1,0,3:0:0:0:
284,338,89040,1,0,3:0:0:0:
195,168,89216,1,2,3:2:0:0:
133,368,89393,1,10,3:2:0:0:
261,251,89569,1,2,3:2:0:0:
396,358,89746,5,0,3:0:0:0:
399,331,89834,1,0,3:0:0:0:
402,304,89922,1,0,3:0:0:0:
405,277,90010,1,0,3:0:0:0:
407,250,90099,2,0,P|404:222|394:186,3,54,0|0|0|0,3:2|3:0|3:0|3:0,2:0:0:0:
504,139,90452,6,0,P|502:165|490:190,3,54,0|0|0|0,3:0|3:0|3:0|3:0,3:0:0:0:
325,138,90805,2,0,P|326:111|338:86,3,54,0|0|0|0,3:0|3:0|3:0|3:0,3:0:0:0:
442,67,91157,5,4,3:2:0:0:
0,225,92393,5,0,3:0:0:0:
128,263,92746,5,0,3:0:0:0:
18,224,92922,1,0,3:0:0:0:
18,224,93981,5,4,3:2:0:0:
128,263,94157,1,0,3:0:0:0:
224,169,94334,1,0,3:0:0:0:
353,243,94510,1,0,3:0:0:0:
425,115,94687,5,0,3:0:0:0:
244,273,94863,1,0,3:0:0:0:
510,370,95040,1,0,3:0:0:0:
444,242,95216,1,0,3:0:0:0:
355,351,95393,5,0,3:0:0:0:
357,324,95481,1,0,3:0:0:0:
358,297,95569,1,0,3:0:0:0:
356,270,95657,1,0,3:0:0:0:
353,243,95746,1,0,3:0:0:0:
348,216,95834,1,0,3:0:0:0:
341,190,95922,1,0,3:0:0:0:
333,165,96010,1,0,3:0:0:0:
322,140,96099,2,0,L|336:93,16,27,0|0|0|0|0|0|0|0|0|0|0|0|0|0|0|0|0,3:0|3:0|3:0|3:0|3:0|3:0|3:0|3:0|3:0|3:0|3:0|3:0|3:0|3:0|3:0|3:0|3:2,3:0:0:0:
34,105,97157,5,0,3:0:0:0:
4,69,97275,1,0,3:0:0:0:
18,14,97393,1,0,3:0:0:0:
87,50,97510,2,0,P|64:115|51:188,1,144,4|0,3:2|2:0,2:0:0:0:
302,232,97863,5,0,3:0:0:0:
332,196,97981,1,0,3:0:0:0:
318,141,98099,1,0,3:0:0:0:
249,177,98216,2,0,P|271:242|284:315,1,144,4|0,3:2|2:0,2:0:0:0:
66,279,98569,5,0,3:0:0:0:
36,243,98687,1,0,3:0:0:0:
50,188,98805,1,0,3:0:0:0:
119,224,98922,2,0,P|96:289|83:362,1,144,4|0,3:2|2:0,2:0:0:0:
275,372,99275,5,4,3:2:0:0:
305,336,99393,1,4,3:2:0:0:
291,281,99510,1,4,3:2:0:0:
215,309,99628,5,4,3:2:0:0:
256,192,99716,12,4,101040,2:0:0:0:
256,192,101157,12,0,103863,2:0:0:0:
