osu file format v14

[General]
AudioFilename: audio.mp3
AudioLeadIn: 0
PreviewTime: 65558
Countdown: 0
SampleSet: Soft
StackLeniency: 0.4
Mode: 0
LetterboxInBreaks: 0
WidescreenStoryboard: 1

[Editor]
Bookmarks: 1235,6882,16764,19587,30882,42176,52058,57705,66176,91587,102882,114176,124058,129705,138176,163587,174882,186176,197470,208764,220058,231352,245470,262411,287823,293470,296293,297705,300529
DistanceSpacing: 0.9
BeatDivisor: 4
GridSize: 32
TimelineZoom: 3.299999

[Metadata]
Title:Ahoy!! Warera Houshou Kaizokudan*
TitleUnicode:Ahoy!! 我ら宝鐘海賊団☆
Artist:Houshou Marine
ArtistUnicode:宝鐘マリン
Creator:Amateurre
Version:Shukkou!
Source:
Tags:japanese pop jpop j-pop electronic full version ver. vtuber virtual youtuber ホロライブ hololive fantasy ホロライブファンタジー third generation 3rd gen 兎田ぺこら usada pekora 潤羽るしあ uruha rushia 不知火フレア shiranui flare 白銀ノエル shirogane noel pirate iosys arm maron まろん original 三輪紫乃 miwa shino shibayan しばやん some hero cynplytholowazy cynp-zy -gn junior
BeatmapID:2568969
BeatmapSetID:1235807

[Difficulty]
HPDrainRate:5
CircleSize:4
OverallDifficulty:8.8
ApproachRate:9.4
SliderMultiplier:1.8
SliderTickRate:1

[Events]
//Background and Video events
0,0,"ahoy2.jpg",0,0
//Break Periods
//Storyboard Layer 0 (Background)
//Storyboard Layer 1 (Fail)
//Storyboard Layer 2 (Pass)
//Storyboard Layer 3 (Foreground)
//Storyboard Layer 4 (Overlay)
//Storyboard Sound Samples

[TimingPoints]
529,352.941176470588,4,2,2,70,1,0
529,-133.333333333333,4,2,2,70,0,0
881,-100,4,2,2,70,0,0
1235,352.941176470588,4,2,1,70,1,0
1235,-66.6666666666667,4,2,1,70,0,0
1940,-100,4,2,1,70,0,0
5823,-66.6666666666667,4,2,1,70,0,0
6882,-83.3333333333333,4,2,1,70,0,0
7587,-66.6666666666667,4,2,1,70,0,0
8293,-83.3333333333333,4,2,1,70,0,0
8999,-66.6666666666667,4,2,1,70,0,0
9705,-83.3333333333333,4,2,1,70,0,0
13940,-333.333333333333,4,2,1,70,0,0
15352,-333.333333333333,4,2,1,70,0,0
16764,-114.942528735632,4,2,1,70,0,0
18176,-83.3333333333333,4,2,1,70,0,0
18882,-76.9230769230769,4,2,1,70,0,0
19234,-62.5,4,2,1,70,0,0
19587,-62.5,4,2,1,75,0,0
28058,-83.3333333333333,4,2,1,75,0,0
30882,-83.3333333333333,4,2,1,65,0,0
40764,-66.6666666666667,4,2,1,65,0,0
42176,-83.3333333333333,4,2,1,65,0,0
52058,-100,4,2,1,60,0,0
57705,-200,4,2,1,50,0,0
61940,-200,4,2,1,65,0,0
62646,-133.333333333333,4,2,1,65,0,0
64764,-133.333333333333,4,2,1,70,0,0
65646,-83.3333333333333,4,2,1,70,0,0
66176,-62.5,4,2,1,80,0,0
68999,-71.4285714285714,4,2,1,80,0,0
69352,-62.5,4,2,1,80,0,0
70323,-71.4285714285714,4,2,1,80,0,0
70764,-62.5,4,2,1,80,0,0
80293,-66.6666666666667,4,2,1,80,0,0
80646,-62.5,4,2,1,80,0,0
81705,-71.4285714285714,4,2,1,80,0,0
82058,-62.5,4,2,1,80,0,0
83646,-71.4285714285714,4,2,1,80,0,0
85940,-62.5,4,2,1,80,0,0
86293,-71.4285714285714,4,2,1,80,0,0
91587,-62.5,4,2,1,75,0,0
100058,-83.3333333333333,4,2,1,75,0,0
102882,-83.3333333333333,4,2,1,65,0,0
124058,-100,4,2,1,60,0,0
129705,-200,4,2,1,50,0,0
133940,-200,4,2,1,65,0,0
134734,-133.333333333333,4,2,1,65,0,0
136764,-133.333333333333,4,2,1,70,0,0
137823,-83.3333333333333,4,2,1,70,0,0
138176,-62.5,4,2,1,80,0,0
138705,-55.5555555555556,4,2,1,80,0,0
139058,-62.5,4,2,1,80,0,0
146646,-50,4,2,1,80,0,0
146999,-62.5,4,2,1,80,0,0
147352,-50,4,2,1,80,0,0
147705,-62.5,4,2,1,80,0,0
151411,-71.4285714285714,4,2,1,80,0,0
152293,-62.5,4,2,1,80,0,0
153705,-71.4285714285714,4,2,1,80,0,0
155117,-62.5,4,2,1,80,0,0
155646,-71.4285714285714,4,2,1,80,0,0
157940,-62.5,4,2,1,80,0,0
158293,-71.4285714285714,4,2,1,80,0,0
159352,-62.5,4,2,1,80,0,0
159882,-71.4285714285714,4,2,1,80,0,0
163587,-83.3333333333333,4,2,1,65,0,0
174882,-66.6666666666667,4,2,1,75,0,0
182999,-55.5555555555556,4,2,1,75,0,0
183352,-66.6666666666667,4,2,1,75,0,0
208764,-76.9230769230769,4,2,1,70,0,0
231352,-333.333333333333,4,2,1,60,0,0
241234,-200,4,2,1,60,0,0
253940,-100,4,2,1,65,0,0
255352,-76.9230769230769,4,2,1,70,0,0
260823,-76.9230769230769,4,2,1,70,0,0
260999,-76.9230769230769,4,2,1,70,0,0
262058,-83.3333333333333,4,2,1,70,0,0
262411,-62.5,4,2,1,80,0,0
264352,-71.4285714285714,4,2,1,80,0,0
264705,-62.5,4,2,1,80,0,0
266646,-55.5555555555556,4,2,1,80,0,0
266999,-62.5,4,2,1,80,0,0
277940,-71.4285714285714,4,2,1,80,0,0
278293,-62.5,4,2,1,80,0,0
279882,-71.4285714285714,4,2,1,80,0,0
282176,-71.4285714285714,4,2,1,80,0,0
282529,-71.4285714285714,4,2,1,80,0,0
287823,-71.4285714285714,4,2,1,75,0,0
294176,-66.6666666666667,4,2,1,75,0,0
294882,-71.4285714285714,4,2,1,75,0,0

[Colours]
Combo1 : 251,234,30
Combo2 : 238,89,101
Combo3 : 248,192,3
Combo4 : 250,5,91

[HitObjects]
112,180,529,6,0,L|108:142,4,27.0000010299683,0|0|0|0|0,1:2|3:2|3:2|3:2|3:2,0:0:0:0:
41,212,882,2,0,B|120:193|105:256|184:236,1,135,4|0,1:2|0:2,0:0:0:0:
247,262,1235,6,0,L|241:178,1,67.5000025749208,6|2,3:2|0:2,0:0:0:0:
322,101,1411,1,2,0:2:0:0:
320,78,1499,1,2,0:2:0:0:
318,56,1587,1,2,0:2:0:0:
198,92,1764,1,2,0:2:0:0:
326,224,1940,6,0,L|411:218,1,45,6|0,3:2|0:2,0:0:0:0:
475,117,2117,1,2,0:2:0:0:
481,209,2293,1,2,0:2:0:0:
487,301,2470,1,2,0:2:0:0:
475,117,2646,6,0,L|390:111,1,45,6|2,3:2|0:2,0:0:0:0:
318,56,2823,1,2,0:2:0:0:
295,54,2911,1,2,0:2:0:0:
273,52,2999,1,2,0:2:0:0:
149,161,3176,1,2,0:2:0:0:
153,21,3352,6,0,L|153:86,1,45,6|0,3:2|0:2,0:0:0:0:
241,167,3529,1,2,0:2:0:0:
149,161,3705,1,2,0:2:0:0:
57,155,3882,1,2,0:2:0:0:
241,167,4058,6,0,L|241:232,1,45,6|2,3:2|0:2,0:0:0:0:
236,336,4234,1,2,0:2:0:0:
234,359,4322,1,2,0:2:0:0:
232,381,4410,1,2,0:2:0:0:
309,275,4587,1,2,0:2:0:0:
173,267,4764,6,0,L|88:261,1,45,6|2,3:2|0:2,0:0:0:0:
24,160,4941,1,2,0:2:0:0:
18,252,5117,1,2,0:2:0:0:
12,344,5294,1,2,0:2:0:0:
24,160,5470,5,2,0:2:0:0:
24,160,5823,6,0,B|90:152|137:127|137:127|153:170|190:194,1,202.500007724762,4|0,3:2|0:2,0:0:0:0:
360,90,6176,6,0,B|310:29|228:61|228:61|253:77|259:107,1,202.500007724762,4|0,3:2|0:2,0:0:0:0:
401,206,6529,6,0,B|441:179|441:179|273:199,1,202.500007724762,4|0,3:2|0:2,0:0:0:0:
187,192,6882,6,0,B|168:160|168:160|182:128,1,71.9999978027344,6|2,3:2|0:2,0:0:0:0:
288,198,7117,1,2,0:2:0:0:
169,278,7234,2,0,L|38:251,2,71.9999978027344,2|2|2,0:2|0:2|0:2,0:0:0:0:
258,378,7587,6,0,B|354:390|295:263|422:299,1,180.000006866455,2|0,3:1|0:2,0:0:0:0:
512,206,7940,6,0,B|416:218|475:91|348:127,1,180.000006866455,2|0,0:1|0:2,0:0:0:0:
273,100,8293,6,0,B|256:68|256:68|268:26,1,71.9999978027344,6|2,3:2|0:2,0:0:0:0:
371,121,8529,1,2,0:2:0:0:
288,198,8646,2,0,L|197:182,1,71.9999978027344,2|2,0:2|0:2,0:0:0:0:
114,161,8882,1,2,0:2:0:0:
86,282,8999,6,0,B|99:331|158:319|158:319|189:267|148:238,1,180.000006866455,2|0,3:1|0:2,0:0:0:0:
42,124,9352,6,0,B|-7:111|-26:167|-26:167|3:220|48:199,1,180.000006866455,2|0,0:1|0:2,0:0:0:0:
136,79,9705,6,0,B|216:64|198:119|276:100,1,143.999995605469,6|0,3:2|0:2,0:0:0:0:
285,107,10058,2,0,P|300:72|293:31,1,71.9999978027344,2|0,0:1|0:2,0:0:0:0:
203,138,10293,1,2,0:2:0:0:
318,187,10411,6,0,B|425:168|425:168|382:205,1,143.999995605469,6|0,3:2|0:2,0:0:0:0:
296,174,10764,2,0,P|281:139|288:98,1,71.9999978027344,2|0,0:1|0:2,0:0:0:0:
398,191,10999,1,2,0:2:0:0:
266,265,11117,6,0,B|220:252|220:252|192:267|192:267|103:244,1,143.999995605469,6|0,3:2|0:2,0:0:0:0:
55,289,11470,2,0,P|40:321|43:356,1,71.9999978027344,2|0,0:1|0:2,0:0:0:0:
129,250,11705,1,2,0:2:0:0:
37,173,11823,6,0,B|9:149|9:149|134:165,1,143.999995605469,6|0,3:2|0:2,0:0:0:0:
190,114,12176,2,0,P|205:79|198:38,1,71.9999978027344,2|0,0:1|0:2,0:0:0:0:
115,162,12411,1,2,0:2:0:0:
210,205,12529,6,0,L|309:183,1,71.9999978027344,6|0,3:2|0:2,0:0:0:0:
429,226,12764,1,0,0:2:0:0:
205,286,12882,6,0,L|304:264,1,71.9999978027344,2|0,0:2|0:2,0:0:0:0:
361,164,13117,1,0,0:2:0:0:
202,370,13234,6,0,L|301:348,1,71.9999978027344,4|0,3:2|0:2,0:0:0:0:
285,103,13470,1,0,0:2:0:0:
280,189,13587,5,2,0:2:0:0:
275,270,13705,1,0,0:2:0:0:
272,354,13823,1,0,0:2:0:0:
429,226,13940,6,0,B|484:182|481:113|448:89|387:88|391:148,1,215.999993408203,4|0,3:2|0:2,0:0:0:0:
25,32,16587,5,0,3:2:0:0:
25,32,16676,1,0,3:2:0:0:
25,32,16764,2,2,B|71:44|124:25|124:25|85:106|141:190|207:188|262:171|329:129|298:32|222:11|194:88,1,508.950004271278,4|0,3:2|0:2,0:0:0:0:
116,217,17999,5,0,1:2:0:0:
116,217,18087,1,0,1:2:0:0:
116,217,18176,2,0,P|107:270|142:326,1,107.999996704102,0|0,1:2|3:2,0:0:0:0:
263,293,18440,1,0,3:2:0:0:
263,293,18529,2,0,P|272:240|237:184,1,107.999996704102,0|0,1:2|3:2,0:0:0:0:
191,254,18793,5,0,3:2:0:0:
191,254,18882,2,0,B|278:229|261:326|374:282,1,175.499991966248,0|0,3:2|0:2,0:0:0:0:
485,172,19234,6,0,B|338:200|338:200|371:183|387:145,1,216,2|0,1:1|0:2,0:0:0:0:
383,153,19587,6,0,P|399:171|403:241,1,72,6|0,3:2|0:2,0:0:0:0:
290,356,19764,2,0,P|273:337|269:267,1,72,2|0,0:2|0:2,0:0:0:0:
167,166,19940,2,0,B|109:157|109:157|85:174|85:174|29:167,1,144,2|2,1:2|0:2,0:0:0:0:
57,96,20205,5,2,0:2:0:0:
57,96,20293,2,0,L|42:13,1,72,2|0,3:2|0:2,0:0:0:0:
243,100,20470,2,0,L|255:170,1,72,2|0,0:2|0:2,0:0:0:0:
66,292,20646,2,0,P|117:248|195:257,1,144,2|2,1:2|0:2,0:0:0:0:
262,292,20911,5,2,0:2:0:0:
262,292,20999,2,0,P|295:302|354:283,1,72,2|0,3:2|0:2,0:0:0:0:
456,139,21176,2,0,P|423:129|364:148,1,72,2|0,0:2|0:2,0:0:0:0:
428,319,21352,2,0,B|416:214|416:214|411:251|385:275,1,144,2|2,1:2|0:2,0:0:0:0:
286,376,21617,5,2,0:2:0:0:
286,376,21705,2,0,L|189:387,1,72,2|0,3:2|0:2,0:0:0:0:
39,229,21882,2,0,L|110:220,1,72,2|0,0:2|0:2,0:0:0:0:
294,126,22058,5,2,1:2:0:0:
272,109,22146,1,2,0:2:0:0:
244,100,22234,1,2,0:2:0:0:
216,102,22322,1,2,0:2:0:0:
190,113,22411,6,0,L|180:36,1,72,2|0,3:2|0:2,0:0:0:0:
21,19,22587,2,0,L|30:90,1,72,2|0,0:2|0:2,0:0:0:0:
111,220,22764,2,0,P|165:173|246:197,1,144,2|2,1:2|0:2,0:0:0:0:
300,244,23029,5,2,0:2:0:0:
300,244,23117,2,0,L|297:340,1,72,2|0,3:2|0:2,0:0:0:0:
442,369,23293,2,0,L|439:297,1,72,2|0,0:2|0:2,0:0:0:0:
512,183,23470,2,0,B|424:167|459:237|364:214,1,144,2|2,1:2|0:2,0:0:0:0:
313,160,23734,1,2,0:2:0:0:
313,160,23823,5,6,3:2:0:0:
290,132,23911,1,2,0:2:0:0:
283,97,23999,1,2,0:2:0:0:
293,62,24087,1,2,0:2:0:0:
413,45,24176,5,2,1:2:0:0:
435,72,24264,1,2,0:2:0:0:
442,107,24352,1,2,0:2:0:0:
432,142,24440,1,2,0:2:0:0:
363,103,24529,5,2,3:2:0:0:
231,184,24705,6,0,L|159:175,1,72,2|0,1:1|0:2,0:0:0:0:
68,49,24882,5,2,3:1:0:0:
93,23,24970,1,2,3:2:0:0:
127,12,25058,1,2,3:2:0:0:
163,15,25146,1,2,3:2:0:0:
193,33,25234,6,0,B|206:65|206:65|193:115,1,72,6|0,3:2|0:2,0:0:0:0:
86,213,25411,2,0,B|73:181|73:181|86:131,1,72,2|0,0:2|0:2,0:0:0:0:
231,184,25587,2,0,B|319:168|284:238|379:215,1,144,2|2,1:2|0:2,0:0:0:0:
429,127,25852,5,0,0:2:0:0:
429,127,25940,2,0,L|347:139,1,72,2|0,3:2|0:2,0:0:0:0:
180,273,26117,2,0,L|252:263,1,72,2|0,0:2|0:2,0:0:0:0:
486,336,26293,2,0,B|511:310|511:310|365:329,1,144,2|2,1:2|0:2,0:0:0:0:
333,360,26558,5,2,0:2:0:0:
333,360,26646,2,0,P|322:318|335:281,1,72,2|0,3:2|0:2,0:0:0:0:
448,156,26823,2,0,P|459:198|446:235,1,72,2|0,3:2|0:2,0:0:0:0:
329,291,26999,1,2,1:2:0:0:
177,131,27176,5,2,3:2:0:0:
212,128,27264,1,2,3:2:0:0:
247,136,27352,1,2,3:2:0:0:
275,159,27440,1,0,3:2:0:0:
302,182,27528,1,0,3:2:0:0:
336,192,27617,1,0,3:2:0:0:
372,190,27705,2,0,B|384:153|384:153|369:112,1,72,0|0,1:2|0:2,0:0:0:0:
201,208,27882,2,0,B|189:245|189:245|204:286,1,72,2|0,3:2|0:2,0:0:0:0:
247,344,28058,5,2,0:2:0:0:
247,344,28146,1,2,0:2:0:0:
55,384,28323,2,0,L|61:267,1,107.999996704102,2|0,0:2|0:2,0:0:0:0:
68,200,28587,1,2,0:2:0:0:
68,200,28676,1,2,0:2:0:0:
154,274,28852,1,2,0:2:0:0:
250,126,29029,5,2,0:2:0:0:
250,126,29117,1,2,0:2:0:0:
250,126,29205,1,2,0:2:0:0:
250,126,29293,1,2,0:2:0:0:
410,170,29470,5,2,0:2:0:0:
408,189,29558,1,2,0:2:0:0:
407,209,29646,1,2,0:2:0:0:
405,228,29734,1,2,0:2:0:0:
404,248,29822,1,2,0:2:0:0:
402,268,29911,1,2,0:2:0:0:
401,287,29999,1,2,0:2:0:0:
340,339,30087,6,0,B|278:329|278:329|249:342|249:342|174:331,1,161.999995056153,2|0,3:2|3:2,0:0:0:0:
179,343,30411,5,0,3:2:0:0:
177,355,30470,5,0,3:2:0:0:
175,367,30529,6,0,L|46:350,1,107.999996704102,2|0,3:2|0:2,0:0:0:0:
22,227,30793,5,2,3:2:0:0:
22,227,30882,2,0,P|83:267|134:251,1,107.999996704102,6|0,3:2|0:2,0:0:0:0:
105,79,31234,2,0,L|90:195,1,107.999996704102,2|0,1:1|0:2,0:0:0:0:
192,264,31499,1,0,3:2:0:0:
202,253,31587,2,0,L|215:145,1,107.999996704102,2|0,3:1|0:2,0:0:0:0:
323,13,31940,2,0,P|349:75|317:125,1,107.999996704102,2|0,1:2|0:2,0:0:0:0:
299,224,32293,6,0,B|365:217|365:217|397:234|397:234|489:221,1,161.999995056153,2|0,3:2|0:2,0:0:0:0:
455,225,32646,1,2,1:2:0:0:
388,353,32823,2,0,B|365:323|365:323|381:248,1,107.999996704102,2|0,0:2|3:2,0:0:0:0:
512,138,33176,2,0,L|396:152,1,107.999996704102,2|0,0:2|1:2,0:0:0:0:
261,69,33529,1,2,0:2:0:0:
197,228,33705,5,2,3:2:0:0:
127,182,33882,2,0,P|180:147|235:159,1,107.999996704102,2|2,0:2|1:2,0:0:0:0:
264,279,34234,2,0,P|211:314|156:302,1,107.999996704102,2|0,0:2|3:2,0:0:0:0:
127,182,34587,1,2,0:2:0:0:
264,279,34764,1,2,1:2:0:0:
101,354,34940,1,2,0:2:0:0:
162,273,35117,5,2,3:2:0:0:
243,362,35293,2,0,L|302:367,2,53.9999983520508,0|0|0,0:2|0:2|1:2,0:0:0:0:
72,264,35646,2,0,L|13:269,2,53.9999983520508,0|0|0,0:2|0:2|3:2,0:0:0:0:
221,174,35999,1,0,0:2:0:0:
221,174,36087,1,0,0:2:0:0:
221,174,36176,2,0,L|338:184,1,107.999996704102,2|0,1:2|0:2,0:0:0:0:
488,150,36440,5,2,3:2:0:0:
488,150,36529,2,0,P|427:110|376:126,1,107.999996704102,6|0,3:2|0:2,0:0:0:0:
407,309,36882,2,0,L|421:202,1,107.999996704102,2|0,1:1|0:2,0:0:0:0:
336,48,37147,1,0,3:2:0:0:
326,59,37235,2,0,L|313:167,1,107.999996704102,2|0,3:1|0:2,0:0:0:0:
407,309,37587,2,0,P|341:260|285:283,1,107.999996704102,2|0,1:2|0:2,0:0:0:0:
200,344,37940,6,0,B|102:311|102:311|79:329|32:332,1,161.999995056153,2|0,3:2|0:2,0:0:0:0:
47,330,38293,1,2,1:2:0:0:
190,251,38470,2,0,P|207:220|195:144,1,107.999996704102,2|0,0:2|3:2,0:0:0:0:
52,139,38823,2,0,P|35:170|47:246,1,107.999996704102,2|0,0:2|1:2,0:0:0:0:
200,344,39176,1,2,0:2:0:0:
291,212,39352,5,2,3:2:0:0:
124,193,39529,1,2,0:2:0:0:
203,257,39705,1,2,1:2:0:0:
209,138,39882,2,0,L|217:82,2,53.9999983520508,2|0|0,0:2|0:2|3:2,0:0:0:0:
291,212,40234,1,2,0:2:0:0:
291,212,40323,1,0,0:2:0:0:
291,212,40411,2,0,L|356:207,1,53.9999983520508,2|0,1:2|0:2,0:0:0:0:
396,278,40587,2,0,L|461:273,1,53.9999983520508,2|0,0:2|0:2,0:0:0:0:
512,132,40764,6,0,B|469:135|433:110|433:110|415:136|391:148,1,135.000005149842,6|0,3:2|0:2,0:0:0:0:
284,73,41029,6,0,B|258:50|258:50|375:74,1,135.000005149842,6|0,3:2|0:2,0:0:0:0:
344,207,41293,6,0,P|322:170|323:122,1,67.5000025749208,6|0,3:2|0:2,0:0:0:0:
436,73,41470,2,0,P|475:127|460:196,1,135.000005149842,6|0,3:2|0:2,0:0:0:0:
396,278,41734,1,0,3:2:0:0:
382,293,41823,2,0,P|347:283|315:284,1,67.5000025749208,2|0,3:2|3:2,0:0:0:0:
253,228,41999,2,0,P|222:245|200:269,1,67.5000025749208,2|0,3:2|3:2,0:0:0:0:
125,355,42176,6,0,B|86:315|86:315|117:187,1,161.999995056153,6|0,3:2|0:2,0:0:0:0:
33,103,42529,5,0,1:2:0:0:
46,105,42617,1,0,0:2:0:0:
59,107,42705,1,0,0:2:0:0:
72,110,42793,1,0,0:2:0:0:
86,112,42882,2,0,L|99:47,1,53.9999983520508,2|0,3:2|0:2,0:0:0:0:
167,133,43058,2,0,L|180:68,1,53.9999983520508,2|0,0:2|0:2,0:0:0:0:
283,22,43234,6,0,L|296:87,1,53.9999983520508,2|0,1:2|0:2,0:0:0:0:
364,1,43410,2,0,L|377:66,1,53.9999983520508,2|0,0:2|0:2,0:0:0:0:
477,152,43587,5,2,3:2:0:0:
462,141,43675,1,0,0:2:0:0:
445,135,43763,1,0,0:2:0:0:
427,132,43851,1,0,0:2:0:0:
409,134,43939,1,0,1:2:0:0:
392,140,44028,1,0,0:2:0:0:
377,149,44117,2,0,L|385:222,1,53.9999983520508,2|0,0:2|0:2,0:0:0:0:
394,288,44293,2,0,L|400:356,3,53.9999983520508,0|0|0|0,3:2|0:2|0:2|0:2,0:0:0:0:
313,243,44646,6,0,L|244:234,1,53.9999983520508,2|0,1:2|0:2,0:0:0:0:
458,232,44823,2,0,L|511:225,1,53.9999983520508,2|0,0:2|0:2,0:0:0:0:
313,322,44999,6,0,B|253:316|253:316|227:334|227:334|150:327,1,161.999995056153,2|0,3:2|0:2,0:0:0:0:
39,257,45352,5,0,1:2:0:0:
51,254,45440,1,0,0:2:0:0:
64,252,45528,1,0,0:2:0:0:
78,251,45616,1,0,0:2:0:0:
92,249,45705,2,0,P|102:227|96:185,1,53.9999983520508,2|0,3:2|0:2,0:0:0:0:
179,166,45882,2,0,P|170:143|136:117,1,53.9999983520508,2|0,0:2|0:2,0:0:0:0:
64,115,46058,6,0,L|-17:103,1,53.9999983520508,2|0,1:2|0:2,0:0:0:0:
178,249,46234,2,0,L|256:231,1,53.9999983520508,2|0,0:2|0:2,0:0:0:0:
380,101,46411,5,2,3:2:0:0:
365,90,46499,1,0,0:2:0:0:
348,84,46587,1,0,0:2:0:0:
330,81,46675,1,0,0:2:0:0:
312,83,46763,1,0,1:2:0:0:
295,89,46852,1,0,0:2:0:0:
280,98,46941,2,0,L|288:171,1,53.9999983520508,2|0,0:2|0:2,0:0:0:0:
186,267,47117,6,0,L|230:236,1,53.9999983520508,2|0,3:2|0:2,0:0:0:0:
417,242,47293,1,0,3:2:0:0:
417,242,47382,1,0,3:2:0:0:
417,242,47470,2,0,L|368:221,1,53.9999983520508,2|0,1:2|0:2,0:0:0:0:
197,153,47646,5,2,3:2:0:0:
197,153,47734,1,2,3:2:0:0:
197,153,47823,1,6,3:2:0:0:
309,323,47999,1,2,0:2:0:0:
395,136,48176,1,2,1:2:0:0:
186,267,48352,6,2,B|126:262|126:262|92:280|92:280|14:275,1,161.999995056153,6|0,3:2|0:2,0:0:0:0:
29,276,48705,2,0,L|37:207,1,53.9999983520508,2|0,3:2|0:2,0:0:0:0:
45,134,48882,1,2,1:2:0:0:
137,353,49058,6,0,P|194:307|282:328,1,161.999995056153,2|0,3:2|0:2,0:0:0:0:
397,369,49411,1,0,3:2:0:0:
410,374,49499,1,0,3:2:0:0:
421,378,49587,2,0,B|426:311|426:311|444:291|444:291|449:197,1,161.999995056153,4|0,3:2|0:2,0:0:0:0:
399,100,49940,6,0,L|392:186,1,53.9999983520508,6|0,3:2|0:2,0:0:0:0:
512,150,50117,1,2,3:2:0:0:
512,150,50205,1,0,3:2:0:0:
512,150,50293,1,2,1:2:0:0:
288,119,50470,2,0,B|205:106|226:181|128:161,1,161.999995056153,6|0,3:2|0:2,0:0:0:0:
56,145,50823,5,0,3:2:0:0:
55,158,50911,1,0,3:2:0:0:
54,170,50999,1,0,1:2:0:0:
218,197,51176,1,0,3:2:0:0:
169,10,51352,5,0,1:2:0:0:
154,85,51529,1,8,0:3:0:0:
139,163,51705,1,4,0:3:0:0:
124,241,51882,1,0,3:2:0:0:
107,320,52058,5,6,0:2:0:0:
46,206,52234,1,2,0:2:0:0:
46,206,52411,2,0,P|99:241|150:229,1,90,2|0,0:2|0:2,0:0:0:0:
235,184,52764,1,2,0:2:0:0:
313,261,52940,2,0,L|304:350,1,90,2|2,0:2|0:2,0:0:0:0:
187,384,53293,6,0,P|192:332|222:305,1,90,2|2,0:2|0:2,0:0:0:0:
400,308,53646,2,0,B|438:261|438:261|409:144,2,180,2|2|2,0:2|0:2|0:2,0:0:0:0:
409,144,54529,1,2,0:2:0:0:
510,191,54705,1,2,0:2:0:0:
319,145,54882,6,0,P|356:73|461:77,1,180,2|0,0:2|0:2,0:0:0:0:
460,261,55411,2,0,P|423:235|360:248,1,90,0|0,0:2|0:2,0:0:0:0:
311,313,55764,1,2,0:2:0:0:
460,261,55940,1,2,0:2:0:0:
282,138,56117,6,0,L|300:235,1,90,2|0,0:2|0:2,0:0:0:0:
230,362,56470,2,0,L|214:274,1,90,2|0,2:3|0:2,0:0:0:0:
144,144,56823,1,2,0:3:0:0:
15,236,56999,2,0,B|91:204|91:204|117:224|148:223,1,135,2|0,0:3|0:2,0:0:0:0:
215,180,57352,2,0,P|225:137|199:76,1,90,2|0,0:3|0:2,0:0:0:0:
144,48,57705,6,0,L|98:46,2,45,2|0|0,0:2|0:2|0:2,0:0:0:0:
212,93,58234,1,2,0:2:0:0:
219,15,58587,1,0,0:2:0:0:
56,138,58940,5,2,0:2:0:0:
132,124,59293,1,0,0:2:0:0:
291,145,59646,5,2,0:2:0:0:
219,15,59823,1,2,0:2:0:0:
308,58,60176,1,0,0:2:0:0:
58,278,60529,6,0,L|48:214,2,45,2|0|0,0:2|0:2|0:2,0:0:0:0:
47,358,61058,1,2,0:2:0:0:
121,333,61411,1,0,0:2:0:0:
35,161,61764,1,2,0:2:0:0:
196,302,61940,5,2,0:2:0:0:
196,302,62029,2,0,L|236:297,1,22.5,2|0,0:2|0:2,0:0:0:0:
292,328,62205,2,0,L|332:323,1,22.5,2|0,0:2|0:2,0:0:0:0:
387,353,62382,2,0,L|427:348,1,22.5,2|0,0:2|0:2,0:0:0:0:
474,289,62558,5,2,0:2:0:0:
474,289,62646,1,2,0:2:0:0:
474,289,62734,2,0,L|481:236,1,33.7500012874604,2|0,0:2|0:2,0:0:0:0:
371,253,62911,2,0,L|378:200,1,33.7500012874604,2|0,0:2|0:2,0:0:0:0:
271,218,63087,2,0,L|278:165,1,33.7500012874604,2|0,0:2|0:2,0:0:0:0:
261,106,63264,5,2,0:2:0:0:
261,106,63352,2,0,L|187:121,1,45.0000017166138,2|2,0:0|0:0,0:0:0:0:
51,78,63587,1,2,0:2:0:0:
123,25,63705,5,2,0:2:0:0:
131,112,63823,1,2,0:2:0:0:
136,202,63940,1,2,0:2:0:0:
145,297,64058,5,2,3:3:0:0:
145,297,64764,5,0,3:2:0:0:
177,289,64852,1,0,0:2:0:0:
210,297,64940,1,0,0:2:0:0:
236,317,65028,1,0,0:2:0:0:
302,361,65117,5,0,3:2:0:0:
335,358,65205,1,0,0:2:0:0:
368,356,65293,1,0,0:2:0:0:
403,355,65381,1,0,0:2:0:0:
480,374,65470,5,0,3:2:0:0:
503,343,65558,1,0,0:2:0:0:
512,305,65646,1,2,0:2:0:0:
504,268,65734,1,0,3:2:0:0:
426,230,65823,6,0,L|364:237,1,53.9999983520508,2|0,3:2|0:2,0:0:0:0:
303,176,65999,2,0,L|241:183,1,53.9999983520508,2|0,0:2|0:2,0:0:0:0:
73,127,66176,6,0,B|226:109|226:109|192:116|175:154,1,216,4|0,3:2|0:2,0:0:0:0:
122,263,66529,2,0,B|106:237|106:237|115:195,1,72,2|0,1:2|0:2,0:0:0:0:
291,43,66705,2,0,B|321:87|321:87|303:175,1,144,2|2,0:2|3:2,0:0:0:0:
45,310,67058,6,0,B|79:288|79:288|145:305|145:305|161:344,1,144,2|2,0:2|1:2,0:0:0:0:
228,366,67323,1,0,0:0:0:0:
266,302,67411,2,0,B|297:281|297:281|284:313,2,72,2|0|0,0:2|0:2|3:2,0:0:0:0:
13,236,67764,6,0,L|-2:158,1,72,2|0,0:2|0:2,0:0:0:0:
168,200,67940,2,0,L|183:122,1,72,2|0,1:2|0:2,0:0:0:0:
24,87,68117,2,0,B|62:78|81:25|81:25|68:92|90:153,1,216,2|0,0:2|0:2,0:0:0:0:
89,151,68470,5,2,0:2:0:0:
0,3,68646,1,2,1:2:0:0:
184,95,68823,1,2,0:2:0:0:
13,236,68999,6,0,B|63:228|63:228|96:201|96:201|138:218|138:218|206:208,1,188.999994232178,6|0,3:2|0:2,0:0:0:0:
343,203,69352,6,0,B|389:165|354:106|354:106|286:88|264:148,1,216,2|0,1:2|0:2,0:0:0:0:
179,298,69705,6,0,B|162:270|131:264|131:264|225:227|277:279,1,216,2|0,3:2|0:2,0:0:0:0:
413,328,70058,6,0,B|461:309|461:309|437:181,1,144,2|0,1:2|0:2,0:0:0:0:
512,150,70323,5,0,0:2:0:0:
512,150,70411,2,0,B|410:134|454:236|330:199,1,188.999994232178,2|0,3:2|0:2,0:0:0:0:
330,203,70764,2,0,B|312:166|312:166|331:121,1,72,2|0,1:2|0:2,0:0:0:0:
390,2,70940,6,0,B|400:64|400:64|410:74|410:74|424:151,1,144,2|0,0:2|3:2,0:0:0:0:
368,291,71293,5,2,0:2:0:0:
368,291,71382,1,0,3:2:0:0:
368,291,71470,2,0,L|287:278,1,72,2|0,1:2|0:2,0:0:0:0:
109,363,71646,1,2,3:2:0:0:
214,231,71823,6,0,B|192:271|192:271|224:404,1,144,4|0,3:2|0:2,0:0:0:0:
216,367,72087,1,0,3:2:0:0:
216,367,72176,1,2,1:2:0:0:
307,195,72352,6,0,B|252:169|239:120|239:120|202:161|138:156,1,216,6|0,3:2|0:2,0:0:0:0:
61,193,72705,2,0,L|56:121,1,72,2|0,3:2|0:2,0:0:0:0:
237,28,72882,2,0,L|242:100,1,72,2|0,1:2|0:2,0:0:0:0:
121,275,73058,5,2,3:2:0:0:
121,275,73146,1,0,3:2:0:0:
121,275,73234,2,0,B|194:251|180:316|273:291,1,144,6|0,3:2|0:2,0:0:0:0:
258,294,73499,1,0,3:2:0:0:
258,294,73587,1,2,1:2:0:0:
486,329,73764,6,0,B|422:343|360:297|360:297|358:346|328:369,1,216,6|0,3:2|0:2,0:0:0:0:
446,248,74117,1,2,3:2:0:0:
454,231,74205,1,0,3:2:0:0:
453,209,74293,1,2,3:2:0:0:
290,148,74470,1,2,3:2:0:0:
407,0,74646,6,0,B|395:65|395:65|372:92|372:92|382:134|382:134|368:219,1,216,6|0,3:2|0:2,0:0:0:0:
188,199,74999,6,0,P|185:124|291:156,1,216,2|0,1:2|0:2,0:0:0:0:
368,289,75352,6,0,B|321:288|278:231|278:231|252:280|189:296,1,216,6|0,3:2|0:2,0:0:0:0:
64,327,75705,6,0,B|94:343|116:379|116:379|99:222,1,216,2|0,1:2|0:2,0:0:0:0:
64,327,76058,5,6,3:2:0:0:
214,297,76234,1,0,3:2:0:0:
233,299,76322,1,0,3:2:0:0:
253,302,76410,1,2,3:2:0:0:
25,159,76587,1,2,3:2:0:0:
182,109,76764,5,0,1:0:0:0:
192,131,76852,1,0,3:0:0:0:
195,159,76940,1,0,3:0:0:0:
189,183,77028,1,0,3:0:0:0:
113,154,77117,5,0,1:0:0:0:
182,109,77205,1,0,1:0:0:0:
265,128,77293,1,0,1:0:0:0:
339,169,77382,1,0,1:0:0:0:
422,145,77470,6,0,B|468:107|433:48|433:48|365:30|343:90,1,216,6|0,3:2|0:2,0:0:0:0:
425,222,77823,2,0,L|504:212,1,72,2|0,1:2|0:2,0:0:0:0:
286,243,77999,2,0,B|239:211|239:211|277:88,1,144,2|0,0:2|3:2,0:0:0:0:
425,222,78352,6,0,B|441:254|441:254|431:289,1,72,2|0,0:2|0:2,0:0:0:0:
259,320,78529,2,0,B|243:288|243:288|252:252,1,72,2|0,1:2|0:2,0:0:0:0:
330,171,78705,2,0,L|354:348,1,144,2|0,0:2|3:2,0:0:0:0:
106,223,79058,5,2,0:2:0:0:
106,223,79146,1,0,0:2:0:0:
106,223,79234,1,2,1:2:0:0:
275,110,79411,2,0,B|298:87|328:90|328:90|250:35|181:95,1,216,2|0,0:2|0:2,0:0:0:0:
184,93,79764,5,2,0:2:0:0:
356,22,79940,1,2,1:2:0:0:
254,188,80117,1,2,0:2:0:0:
123,25,80293,6,0,B|80:80|80:80|108:237,1,202.500007724762,6|0,3:2|0:2,0:0:0:0:
26,269,80646,6,0,B|-20:231|15:172|15:172|83:154|103:210,1,216,2|0,1:2|0:2,0:0:0:0:
157,339,80999,6,0,B|204:336|231:273|231:273|237:341|285:364,1,216,2|0,3:2|0:2,0:0:0:0:
405,353,81352,6,0,B|459:333|459:333|433:232,1,144,2|0,1:2|0:2,0:0:0:0:
282,116,81617,5,0,0:2:0:0:
282,116,81705,2,0,B|344:125|344:125|375:159|375:159|458:172,1,188.999994232178,2|0,3:2|0:2,0:0:0:0:
471,163,82058,2,0,P|479:136|449:76,1,72,2|0,1:2|0:2,0:0:0:0:
273,201,82234,1,2,0:2:0:0:
372,45,82411,1,0,3:2:0:0:
476,252,82587,5,0,3:2:0:0:
476,252,82676,1,0,3:2:0:0:
476,252,82764,2,0,L|404:241,1,72,0|0,1:2|0:2,0:0:0:0:
279,297,82940,5,0,3:2:0:0:
261,294,83028,1,0,3:2:0:0:
243,291,83117,2,0,B|137:276|137:276|171:311,1,144,4|0,3:2|0:2,0:0:0:0:
210,363,83382,1,0,3:2:0:0:
210,363,83470,1,0,1:2:0:0:
339,146,83646,6,0,B|283:105|213:148|227:165|178:231|89:179,1,251.999992309571,6|2,3:2|3:2,0:0:0:0:
121,35,84176,2,0,B|149:23|172:-7|172:-7|145:132,1,188.999994232178,2|0,1:2|0:2,0:0:0:0:
148,251,84529,6,0,P|86:210|30:222,1,125.999996154785,6|0,3:2|0:2,0:0:0:0:
79,295,84793,1,0,3:2:0:0:
79,295,84882,1,0,1:2:0:0:
240,190,85058,6,0,B|304:202|304:202|332:240|332:240|415:255,1,188.999994232178,4|0,3:2|0:2,0:0:0:0:
426,246,85411,2,0,P|441:223|426:164,1,62.9999980773926,0|0,3:2|0:2,0:0:0:0:
366,45,85587,1,0,1:3:0:0:
366,65,85675,1,0,1:3:0:0:
367,85,85764,2,0,L|365:159,1,62.9999980773926,0|0,3:3|3:3,0:0:0:0:
174,254,85940,6,0,B|212:263|231:316|231:316|218:249|240:188,1,216,4|0,3:2|0:2,0:0:0:0:
288,93,86293,2,0,P|228:103|157:109,1,125.999996154785,0|0,1:2|0:2,0:0:0:0:
19,223,86558,1,0,0:2:0:0:
19,223,86646,2,0,P|63:177|141:192,1,125.999996154785,2|0,3:2|0:2,0:0:0:0:
219,341,86911,1,0,0:2:0:0:
219,341,86999,2,0,B|245:315|257:273|257:273|293:316|353:321,1,188.999994232178,2|0,1:2|0:2,0:0:0:0:
496,169,87352,6,0,B|446:152|394:180|428:223|383:252|325:228,1,188.999994232178,6|0,3:2|0:2,0:0:0:0:
335,231,87705,1,0,1:2:0:0:
473,271,87882,2,0,B|504:275|504:275|486:248,2,62.9999980773926,2|0|0,0:2|0:2|3:2,0:0:0:0:
338,153,88234,5,0,0:2:0:0:
330,136,88322,1,0,0:2:0:0:
331,114,88410,1,0,1:2:0:0:
471,48,88588,5,0,3:2:0:0:
479,65,88676,1,0,3:2:0:0:
478,87,88764,1,4,3:2:0:0:
315,230,88940,1,0,3:2:0:0:
283,38,89117,1,0,3:2:0:0:
433,180,89293,1,0,3:2:0:0:
236,278,89470,6,0,L|226:193,1,62.9999980773926,0|0,3:2|0:2,0:0:0:0:
171,98,89646,2,0,L|161:183,1,62.9999980773926,2|0,3:2|0:2,0:0:0:0:
155,308,89822,6,0,L|145:223,1,62.9999980773926,2|0,3:2|0:2,0:0:0:0:
86,84,89999,2,0,L|76:169,1,62.9999980773926,2|0,3:2|0:2,0:0:0:0:
38,320,90176,5,0,3:2:0:0:
73,298,90264,1,0,3:2:0:0:
115,294,90352,1,0,3:2:0:0:
154,307,90440,1,0,3:2:0:0:
228,351,90529,5,0,3:2:0:0:
269,346,90617,1,0,3:2:0:0:
311,341,90705,1,0,3:2:0:0:
353,336,90793,1,0,3:2:0:0:
424,300,90882,6,0,L|468:302,4,31.4999990386963,2|2|2|2|2,3:2|3:2|3:2|3:2|3:2,0:0:0:0:
353,248,91146,1,2,3:2:0:0:
433,219,91234,2,0,L|477:221,4,31.4999990386963,2|2|2|2|2,3:2|3:2|3:2|3:2|3:2,0:0:0:0:
365,162,91499,5,0,3:2:0:0:
365,162,91587,2,0,P|329:158|298:177,1,72,6|0,3:2|0:2,0:0:0:0:
207,289,91764,2,0,P|242:292|273:274,1,72,2|0,0:2|0:2,0:0:0:0:
229,48,91940,2,0,B|200:90|200:90|219:200,1,144,2|2,1:2|0:2,0:0:0:0:
299,175,92204,5,2,0:2:0:0:
299,175,92293,2,0,L|286:104,1,72,2|0,3:2|0:2,0:0:0:0:
112,17,92470,2,0,L|120:88,1,72,2|0,0:2|0:2,0:0:0:0:
215,181,92646,2,0,B|153:190|153:190|135:210|135:210|60:224,1,144,2|2,1:2|0:2,0:0:0:0:
17,268,92911,5,2,0:2:0:0:
17,268,92999,2,0,P|3:219|24:174,1,72,2|0,3:2|0:2,0:0:0:0:
205,112,93176,2,0,P|219:161|198:206,1,72,2|0,0:2|0:2,0:0:0:0:
81,220,93352,2,0,B|163:216|120:272|224:278,1,144,0|2,1:2|0:2,0:0:0:0:
289,320,93617,5,2,0:2:0:0:
289,320,93705,2,0,L|280:220,1,72,2|0,3:2|0:2,0:0:0:0:
385,91,93882,2,0,L|394:191,1,72,2|0,0:2|0:2,0:0:0:0:
463,335,94058,5,2,1:2:0:0:
440,317,94146,1,2,0:2:0:0:
413,309,94234,1,2,0:2:0:0:
384,310,94322,1,2,0:2:0:0:
358,322,94411,2,0,B|324:331|324:331|288:319,1,72,2|0,3:2|0:2,0:0:0:0:
247,170,94587,2,0,B|281:161|281:161|316:172,1,72,2|0,0:2|0:2,0:0:0:0:
462,233,94764,2,0,B|494:184|494:184|445:55,1,144,2|2,1:2|0:2,0:0:0:0:
384,62,95029,5,2,0:2:0:0:
384,62,95117,2,0,L|299:55,1,72,2|0,3:2|0:2,0:0:0:0:
247,170,95293,2,0,L|162:163,1,72,2|0,0:2|0:2,0:0:0:0:
84,36,95470,2,0,B|77:95|77:95|89:116|89:116|78:138|80:175,1,144,0|0,1:2|0:2,0:0:0:0:
53,278,95734,1,2,0:2:0:0:
53,278,95823,5,6,3:2:0:0:
81,255,95911,1,2,0:2:0:0:
116,248,95999,1,2,0:2:0:0:
151,258,96087,1,2,0:2:0:0:
225,299,96176,5,2,1:2:0:0:
260,309,96264,1,2,0:2:0:0:
295,302,96352,1,2,0:2:0:0:
322,280,96440,1,2,0:2:0:0:
261,229,96529,5,2,3:2:0:0:
365,351,96705,6,0,L|448:361,1,72,2|0,1:1|0:2,0:0:0:0:
500,188,96882,5,2,3:1:0:0:
470,170,96970,1,2,3:2:0:0:
434,167,97058,1,2,3:2:0:0:
400,178,97146,1,2,3:2:0:0:
375,204,97234,2,0,L|365:125,1,72,6|0,3:2|0:2,0:0:0:0:
501,28,97411,2,0,L|511:107,1,72,2|0,0:2|0:2,0:0:0:0:
443,253,97587,2,0,B|381:243|381:243|367:250|367:250|287:234,1,144,2|2,1:2|0:2,0:0:0:0:
227,269,97852,5,2,0:2:0:0:
226,268,97940,2,0,P|218:232|231:197,1,72,2|0,3:2|0:2,0:0:0:0:
370,64,98117,2,0,P|377:99|364:134,1,72,2|0,0:2|0:2,0:0:0:0:
228,123,98293,2,0,B|146:119|186:187|85:173,1,144,2|0,1:2|0:2,0:0:0:0:
29,86,98558,5,2,0:2:0:0:
29,86,98646,2,0,L|107:92,1,72,2|0,3:2|0:2,0:0:0:0:
229,199,98823,2,0,L|307:205,1,72,2|0,3:2|0:2,0:0:0:0:
437,102,98999,1,2,1:2:0:0:
512,315,99176,5,2,3:2:0:0:
484,292,99264,1,2,3:2:0:0:
452,274,99352,1,2,3:2:0:0:
418,264,99440,1,2,3:2:0:0:
382,260,99528,1,2,3:2:0:0:
346,264,99617,1,2,3:2:0:0:
312,275,99705,2,0,B|292:245|292:245|298:190,1,72,2|0,1:2|0:2,0:0:0:0:
437,102,99882,2,0,L|425:193,1,72,0|0,3:2|0:2,0:0:0:0:
435,357,100058,6,0,P|401:344|366:346,1,71.9999978027344,2|0,0:3|0:2,0:0:0:0:
284,373,100293,1,2,0:3:0:0:
225,298,100411,6,0,L|213:202,1,71.9999978027344,2|0,0:3|0:2,0:0:0:0:
205,150,100646,1,2,0:3:0:0:
122,170,100764,6,0,L|130:241,1,71.9999978027344,2|0,0:3|0:2,0:0:0:0:
71,376,100999,1,2,0:3:0:0:
15,324,101117,6,0,P|55:300|112:312,1,71.9999978027344,2|0,0:3|0:2,0:0:0:0:
150,344,101352,1,2,0:3:0:0:
15,324,101470,5,2,3:3:0:0:
97,225,101587,1,2,0:3:0:0:
150,344,101705,2,0,L|249:333,1,71.9999978027344,2|0,3:3|0:2,0:0:0:0:
347,193,101940,5,2,3:3:0:0:
203,247,102058,1,2,3:3:0:0:
322,350,102176,2,0,P|357:326|441:339,1,107.999996704102,10|0,3:3|0:2,0:0:0:0:
433,331,102411,5,0,3:2:0:0:
444,333,102470,5,0,3:2:0:0:
456,335,102529,6,0,B|481:301|481:301|460:210,1,107.999996704102,2|0,3:2|0:2,0:0:0:0:
512,119,102793,5,2,3:2:0:0:
512,119,102882,2,0,P|451:159|400:143,1,107.999996704102,6|0,3:2|0:2,0:0:0:0:
286,46,103234,2,0,L|393:59,1,107.999996704102,2|0,1:1|0:2,0:0:0:0:
360,213,103499,1,0,3:2:0:0:
350,222,103587,2,0,L|242:209,1,107.999996704102,2|0,3:1|0:2,0:0:0:0:
128,57,103940,1,2,1:2:0:0:
263,130,104117,1,2,0:2:0:0:
150,234,104293,6,0,P|148:178|186:129,1,107.999996704102,2|0,3:2|0:2,0:0:0:0:
286,46,104646,1,2,1:2:0:0:
175,136,104823,2,0,L|47:150,1,107.999996704102,2|0,0:2|3:2,0:0:0:0:
0,324,105176,2,0,L|107:312,1,107.999996704102,2|0,0:2|1:2,0:0:0:0:
268,295,105529,1,2,0:2:0:0:
178,234,105705,5,2,3:2:0:0:
253,383,105882,1,2,0:2:0:0:
357,249,106058,1,2,1:2:0:0:
438,382,106234,2,0,B|479:338|479:338|444:219,1,161.999995056153,2|0,0:2|0:2,0:0:0:0:
450,240,106587,1,2,0:2:0:0:
307,327,106764,1,2,1:2:0:0:
314,161,106940,1,2,0:2:0:0:
229,275,107117,6,0,P|182:270|143:210,1,107.999996704102,2|0,3:3|0:2,0:0:0:0:
148,129,107382,6,0,P|167:172|134:235,1,107.999996704102,2|0,0:3|0:2,0:0:0:0:
6,224,107646,6,0,P|33:185|105:182,1,107.999996704102,2|0,0:3|3:2,0:0:0:0:
163,302,107911,6,0,P|110:296|78:255,1,107.999996704102,2|0,0:3|0:2,0:0:0:0:
148,129,108176,2,0,B|170:93|170:93|157:10,1,107.999996704102,2|0,1:2|0:2,0:0:0:0:
0,39,108440,5,2,3:2:0:0:
0,39,108529,2,0,P|61:79|112:63,1,107.999996704102,6|0,3:2|0:2,0:0:0:0:
219,164,108882,2,0,L|207:292,1,107.999996704102,2|0,1:1|0:2,0:0:0:0:
348,361,109146,1,0,3:2:0:0:
358,350,109234,2,0,L|371:242,1,107.999996704102,2|0,3:1|0:2,0:0:0:0:
364,86,109587,1,2,1:2:0:0:
219,164,109764,1,2,0:2:0:0:
445,206,109940,6,0,B|375:203|375:203|351:225|351:225|258:226,1,161.999995056153,2|0,3:2|0:2,0:0:0:0:
291,226,110293,1,2,1:2:0:0:
437,129,110470,2,0,P|450:76|430:29,1,107.999996704102,2|0,0:2|3:2,0:0:0:0:
291,46,110823,2,0,P|277:98|298:146,1,107.999996704102,2|0,0:2|1:2,0:0:0:0:
451,213,111176,1,2,0:2:0:0:
278,321,111352,5,2,3:2:0:0:
371,182,111529,1,2,0:2:0:0:
437,335,111705,1,2,1:2:0:0:
276,231,111882,2,0,B|189:220|227:294|121:273,1,161.999995056153,2|0,0:2|0:2,0:0:0:0:
128,274,112234,1,2,3:2:0:0:
174,127,112411,1,2,1:2:0:0:
276,231,112587,1,2,0:2:0:0:
75,339,112764,6,0,P|50:291|56:239,1,107.999996704102,6|0,3:2|0:2,0:0:0:0:
187,214,113029,2,0,P|211:261|205:313,1,107.999996704102,6|0,3:2|0:2,0:0:0:0:
128,274,113293,1,6,3:2:0:0:
155,373,113470,1,6,3:2:0:0:
155,373,113558,1,0,3:2:0:0:
155,373,113646,1,0,3:2:0:0:
106,175,113823,1,2,1:2:0:0:
262,252,113999,5,0,3:2:0:0:
262,252,114087,1,0,3:2:0:0:
262,252,114176,2,0,B|350:240|328:300|422:287,1,161.999995056153,6|0,3:2|0:2,0:0:0:0:
465,198,114529,5,0,1:2:0:0:
452,200,114617,1,0,0:2:0:0:
439,202,114705,1,0,0:2:0:0:
426,205,114793,1,0,0:2:0:0:
412,207,114882,2,0,L|399:142,1,53.9999983520508,2|0,3:2|0:2,0:0:0:0:
334,225,115058,2,0,L|321:160,1,53.9999983520508,2|0,0:2|0:2,0:0:0:0:
359,39,115234,6,0,P|356:66|342:89,1,53.9999983520508,2|0,1:2|0:2,0:0:0:0:
279,11,115411,2,0,P|265:33|263:60,1,53.9999983520508,2|0,0:2|0:2,0:0:0:0:
239,156,115587,5,2,3:2:0:0:
224,145,115675,1,0,0:2:0:0:
207,139,115763,1,0,0:2:0:0:
189,136,115851,1,0,0:2:0:0:
171,138,115939,1,0,1:2:0:0:
154,144,116028,1,0,0:2:0:0:
139,153,116117,2,0,L|127:84,1,53.9999983520508,2|0,0:2|0:2,0:0:0:0:
53,170,116293,2,0,L|43:116,3,53.9999983520508,0|0|0|0,3:2|0:2|0:2|0:2,0:0:0:0:
39,256,116646,6,0,L|112:239,1,53.9999983520508,2|0,1:2|0:2,0:0:0:0:
146,301,116823,2,0,L|219:284,1,53.9999983520508,2|0,0:2|0:2,0:0:0:0:
272,355,116999,6,0,B|233:315|233:315|264:187,1,161.999995056153,2|0,3:2|0:2,0:0:0:0:
233,113,117352,5,0,1:2:0:0:
246,115,117440,1,0,0:2:0:0:
259,117,117528,1,0,0:2:0:0:
272,120,117616,1,0,0:2:0:0:
286,122,117705,2,0,L|299:57,1,53.9999983520508,2|0,3:2|0:2,0:0:0:0:
363,138,117882,2,0,L|376:73,1,53.9999983520508,2|0,0:2|0:2,0:0:0:0:
436,1,118058,6,0,L|449:66,1,53.9999983520508,2|0,1:2|0:2,0:0:0:0:
363,138,118234,2,0,L|376:203,1,53.9999983520508,2|0,0:2|0:2,0:0:0:0:
465,325,118411,5,2,3:2:0:0:
450,314,118499,1,0,0:2:0:0:
433,308,118587,1,0,0:2:0:0:
415,305,118675,1,0,0:2:0:0:
397,307,118763,1,0,1:2:0:0:
380,313,118852,1,0,0:2:0:0:
365,322,118941,2,0,L|353:253,1,53.9999983520508,2|0,0:2|0:2,0:0:0:0:
263,153,119117,6,0,P|254:178|257:205,1,53.9999983520508,0|0,3:2|0:2,0:0:0:0:
204,332,119293,1,0,3:2:0:0:
204,332,119382,1,0,3:2:0:0:
204,332,119470,2,0,P|206:305|197:280,1,53.9999983520508,0|0,1:2|0:2,0:0:0:0:
121,193,119646,5,0,3:2:0:0:
121,193,119734,1,0,3:2:0:0:
121,193,119823,1,6,3:2:0:0:
286,283,119999,1,2,0:2:0:0:
112,383,120175,1,2,1:2:0:0:
242,188,120352,6,0,B|344:159|344:159|365:180|396:190,1,161.999995056153,6|0,3:2|0:2,0:0:0:0:
402,176,120705,2,0,P|411:150|412:123,1,53.9999983520508,2|0,3:2|0:2,0:0:0:0:
356,54,120882,1,2,1:2:0:0:
363,262,121058,6,0,P|418:207|495:223,1,161.999995056153,2|0,3:2|0:2,0:0:0:0:
448,318,121411,1,0,3:2:0:0:
453,331,121499,1,0,3:2:0:0:
457,342,121587,2,0,B|390:347|390:347|370:365|370:365|276:370,1,161.999995056153,4|0,3:2|0:2,0:0:0:0:
218,328,121940,6,0,B|218:327|205:305|213:274,1,53.9999983520508,6|0,3:2|0:2,0:0:0:0:
291,173,122117,1,2,3:2:0:0:
292,190,122205,1,0,3:2:0:0:
294,208,122293,1,2,1:2:0:0:
179,194,122470,2,0,B|91:185|125:261|32:249,1,161.999995056153,6|0,3:2|0:2,0:0:0:0:
36,249,122823,1,0,3:2:0:0:
179,194,122999,1,0,1:2:0:0:
102,320,123176,1,0,3:2:0:0:
94,137,123352,5,0,1:2:0:0:
176,108,123529,1,8,0:3:0:0:
256,150,123705,1,4,0:3:0:0:
340,171,123882,1,0,3:2:0:0:
416,115,124058,5,6,0:2:0:0:
361,252,124234,2,0,P|335:202|347:157,1,90,2|2,0:2|0:2,0:0:0:0:
457,256,124587,1,2,0:2:0:0:
457,256,124764,1,2,0:2:0:0:
388,344,124940,2,0,L|276:326,1,90,2|2,0:2|0:2,0:0:0:0:
185,309,125293,1,0,0:2:0:0:
88,217,125470,6,0,P|82:187|111:125,1,90,2|2,0:2|0:2,0:0:0:0:
199,224,125823,2,0,P|205:254|176:316,1,90,2|2,0:2|0:2,0:0:0:0:
6,367,126176,2,0,B|58:319|110:336|110:336|128:379|176:383,1,180,2|2,0:2|0:2,0:0:0:0:
291,301,126705,1,2,0:2:0:0:
244,235,126882,6,0,P|210:313|267:378,1,180,2|0,0:2|0:2,0:0:0:0:
409,247,127411,2,0,P|342:234|322:207,1,90,0|0,0:2|0:2,0:0:0:0:
336,84,127764,1,2,0:2:0:0:
393,170,127940,1,2,0:2:0:0:
259,157,128117,6,0,L|246:41,1,90,2|0,0:2|0:2,0:0:0:0:
129,12,128470,2,0,L|139:101,1,90,2|0,0:3|0:2,0:0:0:0:
90,254,128823,1,2,0:3:0:0:
22,192,128999,2,0,B|54:189|84:161|84:161|113:186|152:178,1,135,2|0,0:3|0:2,0:0:0:0:
205,239,129352,2,0,P|216:281|201:323,1,90,2|0,0:3|0:2,0:0:0:0:
124,358,129705,6,0,L|76:350,2,45,2|0|0,0:2|0:2|0:2,0:0:0:0:
201,323,130234,1,2,0:2:0:0:
130,277,130587,1,0,0:2:0:0:
268,367,130940,5,2,0:2:0:0:
339,321,131293,1,0,0:2:0:0:
502,263,131646,5,2,0:2:0:0:
336,231,131822,1,2,0:2:0:0:
416,281,132176,1,0,0:2:0:0:
456,64,132529,6,0,L|464:16,2,45,2|0|0,0:2|0:2|0:2,0:0:0:0:
436,141,133058,1,2,0:2:0:0:
512,118,133411,1,0,0:2:0:0:
377,23,133764,1,2,0:2:0:0:
281,181,133940,5,2,0:2:0:0:
281,181,134029,2,0,L|241:176,1,22.5,2|0,0:2|0:2,0:0:0:0:
185,207,134205,2,0,L|145:202,1,22.5,2|0,0:2|0:2,0:0:0:0:
90,232,134382,2,0,L|50:227,1,22.5,2|0,0:2|0:2,0:0:0:0:
23,152,134558,5,2,0:2:0:0:
23,152,134646,1,2,0:2:0:0:
23,152,134734,2,0,L|30:99,1,33.7500012874604,2|0,0:2|0:2,0:0:0:0:
145,24,134911,2,0,L|140:57,1,33.7500012874604,2|0,0:2|0:2,0:0:0:0:
180,240,135087,2,0,L|187:187,1,33.7500012874604,2|0,0:2|0:2,0:0:0:0:
370,55,135264,5,2,0:2:0:0:
370,55,135352,2,0,L|375:122,1,45.0000017166138,2|2,0:0|0:0,0:0:0:0:
274,173,135587,1,2,0:2:0:0:
201,128,135705,5,2,0:2:0:0:
287,95,135823,1,2,0:2:0:0:
370,55,135940,1,2,0:2:0:0:
449,22,136058,5,2,3:3:0:0:
449,22,136764,5,0,3:2:0:0:
450,55,136852,1,0,0:2:0:0:
452,89,136940,1,0,0:2:0:0:
454,123,137028,1,0,0:2:0:0:
499,196,137117,5,0,3:2:0:0:
463,207,137205,1,0,0:2:0:0:
425,202,137293,1,0,0:2:0:0:
393,180,137381,1,0,0:2:0:0:
333,129,137470,5,0,3:2:0:0:
297,117,137558,1,0,0:2:0:0:
259,122,137646,1,2,0:2:0:0:
227,144,137734,1,0,3:2:0:0:
198,215,137823,6,0,L|206:289,1,53.9999983520508,2|0,3:2|0:2,0:0:0:0:
128,85,137999,2,0,L|122:31,1,53.9999983520508,2|0,0:2|0:2,0:0:0:0:
0,226,138176,6,0,B|81:233|81:233|112:261|112:261|262:273,1,216,4|0,3:2|0:2,0:0:0:0:
273,306,138529,2,0,B|290:273|290:273|276:232,1,72,2|0,1:2|0:2,0:0:0:0:
58,149,138705,2,0,L|41:319,1,161.999995056153,2|0,0:2|3:2,0:0:0:0:
303,126,139058,6,0,B|333:135|377:122|377:122|339:137|315:168,1,144,2|2,0:2|1:2,0:0:0:0:
229,165,139323,1,0,0:0:0:0:
169,99,139411,2,0,B|156:67|156:67|187:88,2,72,2|0|0,0:2|0:2|3:2,0:0:0:0:
409,271,139764,6,0,L|417:179,1,72,2|0,0:2|0:2,0:0:0:0:
238,368,139940,2,0,L|230:276,1,72,2|0,1:2|0:2,0:0:0:0:
323,156,140117,2,0,B|324:231|324:231|309:262|309:262|322:305|322:305|320:384,1,216,2|0,0:2|0:2,0:0:0:0:
320,366,140470,5,2,0:2:0:0:
244,194,140646,1,2,1:2:0:0:
409,271,140823,1,2,0:2:0:0:
152,343,140999,6,0,B|85:321|85:321|123:161,1,216,6|0,3:2|0:2,0:0:0:0:
26,9,141352,6,0,B|133:12|90:113|206:112,1,216,2|0,1:2|0:2,0:0:0:0:
366,76,141705,6,0,B|383:48|414:42|414:42|320:5|268:57,1,216,2|0,3:2|0:2,0:0:0:0:
118,179,142058,6,0,B|187:189|187:189|197:201|197:201|287:211,1,144,2|0,1:2|0:2,0:0:0:0:
486,177,142323,5,0,0:2:0:0:
486,177,142411,2,0,B|448:168|429:115|429:115|442:182|420:243,1,216,2|0,3:2|0:2,0:0:0:0:
504,335,142764,2,0,P|498:297|497:256,1,72,2|0,1:2|0:2,0:0:0:0:
352,102,142940,2,0,P|355:169|342:250,1,144,2|0,0:2|3:2,0:0:0:0:
148,349,143293,5,2,0:2:0:0:
148,349,143382,1,0,3:2:0:0:
148,349,143470,2,0,L|52:355,1,72,2|0,1:2|0:2,0:0:0:0:
255,207,143646,1,2,3:2:0:0:
64,268,143823,6,0,B|173:255|173:255|188:274|210:282,1,144,4|0,3:2|0:2,0:0:0:0:
198,277,144087,1,0,3:2:0:0:
198,277,144176,1,2,1:2:0:0:
63,94,144352,6,0,B|101:87|123:35|123:35|106:101|125:163,1,216,6|0,3:2|0:2,0:0:0:0:
43,246,144705,2,0,P|46:213|41:174,1,72,2|0,3:2|0:2,0:0:0:0:
198,56,144882,2,0,P|194:92|198:128,1,72,2|0,1:2|0:2,0:0:0:0:
302,288,145058,5,2,3:2:0:0:
302,288,145146,1,0,3:2:0:0:
302,288,145234,2,0,B|375:264|361:329|454:304,1,144,6|0,3:2|0:2,0:0:0:0:
439,307,145499,1,0,3:2:0:0:
439,307,145587,1,2,1:2:0:0:
300,149,145764,6,0,B|311:94|296:43|296:43|321:84|372:120,1,216,6|0,3:2|0:2,0:0:0:0:
247,217,146117,1,2,3:2:0:0:
225,218,146205,1,0,3:2:0:0:
208,210,146293,1,2,3:2:0:0:
299,22,146470,1,2,3:2:0:0:
469,220,146646,6,0,B|503:186|503:186|309:209,1,180,6|0,3:2|0:2,0:0:0:0:
226,139,146911,5,0,3:2:0:0:
226,139,146999,2,0,B|212:105|212:105|224:65,1,72,2|0,1:2|0:2,0:0:0:0:
372,201,147176,2,0,B|386:235|386:235|374:275,1,72,0|0,3:2|0:2,0:0:0:0:
68,341,147352,6,0,B|102:332|120:298|120:298|147:346|209:358,1,180,6|0,3:2|0:2,0:0:0:0:
299,246,147617,1,0,3:2:0:0:
299,246,147705,2,0,L|201:260,1,72,2|0,1:2|0:2,0:0:0:0:
42,84,147882,1,0,3:2:0:0:
28,87,147970,1,0,3:2:0:0:
14,91,148058,5,6,3:2:0:0:
22,135,148146,1,0,3:2:0:0:
47,177,148234,1,0,3:2:0:0:
40,221,148322,1,0,3:2:0:0:
48,265,148410,1,2,3:2:0:0:
222,71,148587,1,2,3:2:0:0:
47,177,148764,5,0,1:3:0:0:
124,150,148852,1,0,1:3:0:0:
199,187,148940,1,0,3:3:0:0:
202,271,149028,1,0,3:3:0:0:
129,307,149117,2,0,L|122:205,1,72,0|0,1:3|0:3,0:0:0:0:
429,357,149293,5,0,3:3:0:0:
431,329,149382,1,0,3:3:0:0:
433,299,149470,2,0,B|442:145|442:145|426:179|409:198,1,216,6|0,3:2|0:2,0:0:0:0:
291,268,149823,2,0,B|325:281|325:281|359:271,1,72,2|0,1:2|0:2,0:0:0:0:
506,98,149999,2,0,B|455:95|455:95|433:114|433:114|365:109,1,144,2|0,0:2|3:2,0:0:0:0:
190,186,150352,5,2,0:2:0:0:
186,168,150440,1,0,0:2:0:0:
186,150,150528,1,2,1:2:0:0:
311,1,150705,2,0,B|361:61|361:61|328:208,1,216,2|0,0:2|0:2,0:0:0:0:
381,317,151058,6,0,L|404:211,1,72,2|0,0:2|0:2,0:0:0:0:
278,80,151234,2,0,L|265:153,1,72,2|0,1:2|0:2,0:0:0:0:
214,334,151411,2,0,B|112:350|156:248|32:285,1,188.999994232178,2|0,0:2|0:2,0:0:0:0:
44,281,151764,5,2,0:2:0:0:
251,243,151940,1,2,1:2:0:0:
71,367,152117,1,2,0:2:0:0:
7,121,152293,6,0,B|40:93|40:93|131:113|131:113|141:160|180:174,1,216,6|0,3:2|0:2,0:0:0:0:
318,97,152646,6,0,B|364:56|364:56|216:101,1,216,2|0,1:2|0:2,0:0:0:0:
177,259,152999,6,0,B|197:315|265:297|265:297|300:238|254:200,1,216,2|0,3:2|0:2,0:0:0:0:
115,28,153352,6,0,B|72:50|72:50|102:158,1,144,2|0,1:2|0:2,0:0:0:0:
0,291,153617,5,0,0:2:0:0:
0,291,153705,2,0,B|102:275|58:377|182:340,1,188.999994232178,2|0,3:2|0:2,0:0:0:0:
187,352,154058,2,0,P|202:326|198:275,1,62.9999980773926,2|0,1:2|0:2,0:0:0:0:
10,371,154234,1,2,0:2:0:0:
113,173,154411,1,0,3:2:0:0:
286,324,154587,5,0,3:2:0:0:
286,324,154676,1,0,3:2:0:0:
286,324,154764,2,0,L|358:313,1,62.9999980773926,0|0,1:2|0:2,0:0:0:0:
502,183,154940,5,0,3:2:0:0:
483,188,155028,1,0,3:2:0:0:
465,192,155117,2,0,B|360:215|360:215|404:236,1,144,4|0,3:2|0:2,0:0:0:0:
468,274,155382,1,0,3:2:0:0:
468,274,155470,1,0,1:2:0:0:
322,42,155646,6,0,B|319:-12|319:-12|404:33|404:33|367:146,1,251.999992309571,6|2,3:2|0:2,0:0:0:0:
281,233,156176,2,0,B|177:214|217:314|103:292,1,188.999994232178,2|0,1:2|0:2,0:0:0:0:
23,167,156529,6,0,P|67:207|136:211,1,125.999996154785,6|0,3:2|0:2,0:0:0:0:
104,133,156793,1,0,3:2:0:0:
104,133,156882,1,0,1:2:0:0:
257,314,157058,6,0,B|321:326|321:326|349:364|349:364|432:379,1,188.999994232178,4|0,3:2|0:2,0:0:0:0:
443,370,157411,2,0,P|458:347|443:288,1,62.9999980773926,0|0,3:2|0:2,0:0:0:0:
320,210,157588,1,0,1:3:0:0:
318,226,157676,1,0,1:3:0:0:
320,241,157764,2,0,L|403:238,1,62.9999980773926,4|4,0:3|0:3,0:0:0:0:
483,114,157940,6,0,B|506:94|526:87|526:87|438:70|470:161|354:140,1,216,4|0,3:2|0:2,0:0:0:0:
259,9,158293,2,0,L|275:140,1,125.999996154785,0|0,1:2|0:2,0:0:0:0:
485,282,158558,1,0,0:2:0:0:
485,282,158646,2,0,P|443:237|382:237,1,125.999996154785,2|0,3:2|0:2,0:0:0:0:
260,336,158911,1,0,0:2:0:0:
260,336,158999,2,0,B|220:340|188:305|188:305|171:380|96:385,1,188.999994232178,2|0,1:2|0:2,0:0:0:0:
258,249,159352,6,0,B|245:88|245:88|258:122|285:143,1,216,6|0,0:2|0:2,0:0:0:0:
274,133,159705,1,0,1:2:0:0:
172,185,159882,2,0,B|141:180|141:180|165:159,2,62.9999980773926,2|0|0,0:2|0:2|3:2,0:0:0:0:
325,66,160234,1,0,3:2:0:0:
151,4,160411,1,0,1:2:0:0:
315,150,160587,5,0,3:2:0:0:
337,151,160675,1,0,3:2:0:0:
354,143,160763,1,4,3:2:0:0:
227,258,160939,1,0,3:2:0:0:
325,66,161117,1,0,3:2:0:0:
416,254,161292,1,0,3:2:0:0:
181,107,161469,6,0,L|266:97,1,62.9999980773926,0|0,3:2|0:2,0:0:0:0:
438,170,161645,2,0,L|353:180,1,62.9999980773926,2|0,3:2|0:2,0:0:0:0:
146,188,161823,6,0,L|231:178,1,62.9999980773926,2|0,3:2|0:2,0:0:0:0:
387,58,161998,2,0,L|302:68,1,62.9999980773926,2|0,3:2|0:2,0:0:0:0:
97,34,162176,5,0,3:2:0:0:
84,63,162264,1,0,3:2:0:0:
83,95,162352,1,0,3:2:0:0:
94,124,162440,1,0,3:2:0:0:
146,188,162529,5,0,3:2:0:0:
157,217,162617,1,0,3:2:0:0:
156,249,162705,1,0,3:2:0:0:
143,278,162793,1,0,3:2:0:0:
76,324,162882,6,0,L|22:334,4,31.4999990386963,2|2|2|2|2,3:2|3:2|3:2|3:2|3:2,0:0:0:0:
145,284,163146,1,2,3:2:0:0:
70,243,163234,2,0,L|39:248,4,31.4999990386963,2|2|2|2|2,3:2|3:2|3:2|3:2|3:2,0:0:0:0:
146,188,163499,1,0,3:2:0:0:
146,188,163587,6,0,B|217:172|203:244|277:221,1,143.999995605469,6|2,0:3|0:3,0:0:0:0:
348,171,163940,2,0,B|360:138|360:138|343:98,2,71.9999978027344,2|2|2,0:3|0:3|0:3,0:0:0:0:
277,220,164293,2,0,B|287:370,1,143.999995605469,2|2,0:3|0:3,0:0:0:0:
356,262,164646,2,0,B|389:250|389:250|423:265,2,71.9999978027344,2|2|2,0:3|0:3|0:3,0:0:0:0:
248,301,164999,6,0,B|171:294|202:233|121:232,1,143.999995605469,2|2,0:3|0:3,0:0:0:0:
11,289,165352,2,0,L|17:362,2,71.9999978027344,2|2|2,0:3|0:3|0:3,0:0:0:0:
61,217,165705,2,0,P|92:234|130:231,1,71.9999978027344,2|0,0:3|0:3,0:0:0:0:
220,170,165940,1,2,0:3:0:0:
220,170,166058,5,4,0:3:0:0:
195,88,166176,1,4,0:3:0:0:
165,10,166293,1,4,0:3:0:0:
296,138,166411,6,0,B|405:132|405:132|364:162,1,143.999995605469,6|2,0:3|0:3,0:0:0:0:
220,170,166764,2,0,B|204:136|204:136|222:98,2,71.9999978027344,2|2|2,0:3|0:3|0:3,0:0:0:0:
312,210,167117,2,0,L|320:305,1,71.9999978027344,2|0,0:3|0:3,0:0:0:0:
459,338,167352,1,2,0:3:0:0:
452,254,167470,2,0,L|445:182,2,71.9999978027344,2|2|2,0:3|0:3|0:3,0:0:0:0:
383,306,167823,6,0,P|343:301|315:278,1,71.9999978027344,6|2,0:3|0:3,0:0:0:0:
375,226,168058,1,2,0:3:0:0:
269,342,168176,6,0,P|244:310|241:274,1,71.9999978027344,6|2,0:3|0:3,0:0:0:0:
318,282,168411,1,2,0:3:0:0:
162,286,168529,6,0,P|166:246|189:218,1,71.9999978027344,6|0,0:3|0:3,0:0:0:0:
260,203,168764,1,2,0:3:0:0:
162,286,168882,5,6,0:3:0:0:
83,271,169000,1,2,0:3:0:0:
8,254,169117,1,2,0:3:0:0:
60,113,169234,6,0,B|136:92|116:172|218:135,1,143.999995605469,6|2,0:3|0:3,0:0:0:0:
254,89,169587,1,10,0:3:0:0:
252,65,169704,1,10,0:3:0:0:
250,42,169822,1,10,0:3:0:0:
330,138,169940,6,0,B|336:209|336:209|325:227|325:227|332:322,1,143.999995605469,10|2,0:3|0:3,0:0:0:0:
409,363,170293,1,10,0:3:0:0:
407,339,170410,1,10,0:3:0:0:
405,316,170528,1,10,0:3:0:0:
328,278,170646,6,0,B|256:258|276:338|176:306,1,143.999995605469,6|2,0:3|0:3,0:0:0:0:
72,196,170999,2,0,B|144:175|124:255|225:227,1,143.999995605469,6|2,0:3|0:3,0:0:0:0:
209,80,171352,2,0,B|178:52|178:52|192:158,1,143.999995605469,14|10,0:3|0:3,0:0:0:0:
204,231,171705,5,10,0:3:0:0:
280,212,171822,1,10,0:3:0:0:
357,190,171940,1,10,0:3:0:0:
489,92,172058,6,0,P|401:78|360:122,1,143.999995605469,6|2,0:3|0:3,0:0:0:0:
439,205,172411,1,10,0:3:0:0:
437,181,172528,1,10,0:3:0:0:
435,158,172646,1,10,0:3:0:0:
285,46,172764,6,0,B|256:82|256:82|287:212,1,143.999995605469,6|2,0:3|0:3,0:0:0:0:
208,278,173117,1,10,0:3:0:0:
206,254,173234,1,10,0:3:0:0:
204,231,173352,1,10,0:3:0:0:
72,148,173470,6,0,L|-16:135,2,71.9999978027344,0|0|0,3:2|3:2|3:2,0:0:0:0:
184,68,173823,2,0,B|255:57,2,71.9999978027344,0|0|0,3:2|3:2|3:2,0:0:0:0:
165,156,174176,5,0,3:2:0:0:
167,180,174293,1,0,3:2:0:0:
169,203,174411,1,0,3:2:0:0:
122,275,174529,5,0,3:2:0:0:
120,289,174646,1,0,3:2:0:0:
119,302,174764,1,0,3:2:0:0:
206,350,174882,6,0,B|298:354|257:253|358:268,1,180.000006866455,6|2,3:2|0:2,0:0:0:0:
488,353,175234,2,0,L|341:328,1,90.0000034332277,2|2,1:2|0:2,0:0:0:0:
284,193,175470,1,2,0:2:0:0:
417,101,175587,6,0,B|463:151|463:151|437:273,1,180.000006866455,2|2,3:2|0:2,0:0:0:0:
294,384,175940,2,0,P|274:343|282:297,1,90.0000034332277,2|2,1:2|0:2,0:0:0:0:
374,180,176176,1,2,0:2:0:0:
191,144,176293,6,0,B|122:153|122:153|92:192|92:192|-2:210,1,180.000006866455,2|2,3:2|0:2,0:0:0:0:
172,312,176646,2,0,P|193:276|186:220,1,90.0000034332277,2|2,1:2|0:2,0:0:0:0:
47,115,176882,1,2,0:2:0:0:
4,291,176999,6,0,B|94:246|88:350|181:308,1,180.000006866455,2|2,3:2|0:2,0:0:0:0:
135,147,177352,5,2,1:2:0:0:
88,258,177470,1,2,0:2:0:0:
41,369,177587,1,2,0:2:0:0:
254,303,177705,6,0,B|285:292|308:273|308:273|339:279|440:306,1,180.000006866455,2|2,3:2|0:2,0:0:0:0:
493,343,178058,2,0,P|460:373|417:384,1,90.0000034332277,2|2,1:2|0:2,0:0:0:0:
239,218,178293,1,2,0:2:0:0:
341,103,178411,6,0,B|375:64|375:64|351:222,1,180.000006866455,2|2,3:2|0:2,0:0:0:0:
254,303,178764,2,0,P|234:259|240:217,1,90.0000034332277,2|2,1:2|0:2,0:0:0:0:
415,135,178999,1,2,0:2:0:0:
269,39,179117,6,0,L|251:154,1,90.0000034332277,2|2,3:2|0:2,0:0:0:0:
239,218,179352,1,2,0:2:0:0:
156,16,179470,2,0,L|138:131,1,90.0000034332277,2|2,1:2|0:2,0:0:0:0:
122,205,179705,1,2,0:2:0:0:
41,6,179823,6,0,B|9:207,1,180.000006866455,2|2,3:2|0:2,0:0:0:0:
181,327,180176,5,2,1:2:0:0:
122,205,180294,1,2,3:2:0:0:
59,88,180411,1,2,3:2:0:0:
8,320,180529,6,0,B|72:315|72:315|100:334|100:334|198:326,1,180.000006866455,6|2,3:2|0:2,0:0:0:0:
313,231,180882,6,0,P|285:198|242:188,1,90.0000034332277,2|2,1:2|0:2,0:0:0:0:
146,225,181117,1,2,0:2:0:0:
261,351,181234,6,0,P|264:307|241:270,1,90.0000034332277,2|2,3:2|0:2,0:0:0:0:
79,273,181470,1,2,0:2:0:0:
261,351,181587,6,0,B|357:363|298:236|425:272,1,180.000006866455,2|0,1:2|0:2,0:0:0:0:
512,145,181940,6,0,B|473:106|473:106|487:258,1,180.000006866455,2|2,3:2|0:2,0:0:0:0:
426,346,182293,2,0,P|401:313|418:239,1,90.0000034332277,2|2,1:2|0:2,0:0:0:0:
512,145,182529,1,2,0:2:0:0:
401,59,182646,6,0,B|305:47|364:174|237:138,1,180.000006866455,2|0,3:2|0:2,0:0:0:0:
151,72,182999,2,0,B|134:44|103:38|103:38|197:1|249:53,1,216,2|0,1:2|0:2,0:0:0:0:
368,195,183352,6,0,B|311:196|266:162|266:162|257:211|221:237,1,180.000006866455,2|2,3:2|0:2,0:0:0:0:
96,173,183705,2,0,P|157:155|206:172,1,90.0000034332277,2|2,1:2|0:2,0:0:0:0:
305,270,183940,1,2,0:2:0:0:
167,384,184058,6,0,B|121:366|121:366|154:228,1,180.000006866455,2|2,3:2|0:2,0:0:0:0:
268,76,184411,5,2,1:2:0:0:
284,170,184529,1,2,0:2:0:0:
306,262,184646,1,2,0:2:0:0:
453,212,184764,6,0,L|359:194,1,90.0000034332277,6|2,1:2|0:2,0:0:0:0:
151,238,184999,1,2,3:2:0:0:
449,130,185117,6,0,L|355:112,1,90.0000034332277,6|2,1:2|0:2,0:0:0:0:
219,294,185352,1,2,3:2:0:0:
444,47,185470,6,0,L|350:29,1,90.0000034332277,6|2,1:2|0:2,0:0:0:0:
306,262,185705,5,2,3:2:0:0:
364,195,185823,5,4,1:2:0:0:
219,294,185940,1,0,1:2:0:0:
354,377,186058,1,0,1:2:0:0:
497,314,186176,6,0,B|444:303|399:275|399:275|392:321|363:338,1,180.000006866455,6|2,3:2|0:2,0:0:0:0:
219,294,186529,2,0,P|213:250|237:213,1,90.0000034332277,2|2,1:2|0:2,0:0:0:0:
364,195,186764,1,2,0:2:0:0:
219,294,186882,6,0,B|123:306|182:179|41:216,1,180.000006866455,2|2,3:2|0:2,0:0:0:0:
0,321,187234,2,0,P|60:308|92:263,1,90.0000034332277,2|2,1:2|0:2,0:0:0:0:
173,154,187470,1,2,0:2:0:0:
63,43,187587,6,0,B|41:163|41:163|78:212,1,180.000006866455,2|2,3:2|0:2,0:0:0:0:
259,158,187940,2,0,P|216:144|173:155,1,90.0000034332277,2|2,1:2|0:2,0:0:0:0:
79,289,188176,1,2,0:2:0:0:
225,338,188293,6,0,L|217:232,1,90.0000034332277,2|0,3:2|0:2,0:0:0:0:
304,118,188529,1,2,0:3:0:0:
353,148,188646,5,2,1:3:0:0:
259,158,188764,1,2,0:3:0:0:
299,65,188882,1,2,0:3:0:0:
499,203,188999,6,0,B|407:161|413:265|315:224,1,180.000006866455,2|2,3:2|0:2,0:0:0:0:
444,358,189352,2,0,P|463:317|460:273,1,90.0000034332277,2|2,1:2|0:2,0:0:0:0:
353,148,189587,1,2,0:2:0:0:
195,270,189705,6,0,B|302:288|302:288|342:264|330:227,1,180.000006866455,2|2,3:2|0:2,0:0:0:0:
230,104,190058,2,0,L|244:216,1,90.0000034332277,2|2,1:2|0:2,0:0:0:0:
172,358,190293,1,2,0:2:0:0:
67,185,190411,6,0,B|145:179|145:179|173:198|173:198|271:190,1,180.000006866455,2|2,3:2|0:3,0:0:0:0:
302,66,190764,2,0,P|258:26|219:25,1,90.0000034332277,2|2,1:3|0:3,0:0:0:0:
154,64,190999,1,2,0:3:0:0:
371,111,191117,6,0,P|383:52|365:18,1,90.0000034332277,2|2,3:3|0:3,0:0:0:0:
230,104,191352,1,2,0:3:0:0:
335,185,191470,5,2,1:3:0:0:
417,181,191587,1,0,0:2:0:0:
500,176,191705,1,2,0:3:0:0:
317,276,191823,6,0,B|219:279|273:159|139:198,1,180.000006866455,6|2,3:2|0:2,0:0:0:0:
98,308,192176,2,0,P|154:291|186:240,1,90.0000034332277,0|2,1:2|0:2,0:0:0:0:
220,115,192411,1,2,0:2:0:0:
39,111,192529,6,0,P|94:188|198:175,1,180.000006866455,0|2,3:2|0:2,0:0:0:0:
306,84,192882,2,0,B|326:45|326:45|315:-7,1,90.0000034332277,2|2,1:2|0:2,0:0:0:0:
220,115,193117,1,2,0:2:0:0:
310,172,193234,6,0,B|388:166|388:166|416:185|416:185|514:177,1,180.000006866455,2|2,3:2|0:2,0:0:0:0:
361,329,193587,2,0,P|346:300|353:236,1,90.0000034332277,2|2,1:2|0:2,0:0:0:0:
445,103,193823,1,2,0:2:0:0:
512,270,193940,6,0,B|364:286,1,90.0000034332277,2|0,3:2|0:2,0:0:0:0:
296,224,194176,1,2,0:3:0:0:
349,244,194293,5,2,1:3:0:0:
259,271,194411,1,2,0:3:0:0:
280,172,194529,1,2,0:3:0:0:
361,329,194646,6,0,B|319:340|283:301|283:301|232:284|169:343,1,180.000006866455,0|0,3:2|0:2,0:0:0:0:
54,337,194999,5,6,1:2:0:0:
121,292,195117,1,2,3:2:0:0:
129,371,195234,1,2,3:2:0:0:
22,202,195352,6,0,B|119:168|89:258|187:238,1,180.000006866455,2|2,3:2|0:2,0:0:0:0:
244,125,195705,5,6,1:2:0:0:
173,78,195823,1,0,3:2:0:0:
166,161,195940,1,0,3:2:0:0:
318,94,196058,6,0,P|291:56|249:42,1,90.0000034332277,2|0,3:2|1:2,0:0:0:0:
166,161,196293,1,0,1:2:0:0:
268,258,196411,6,0,L|405:242,1,90.0000034332277,2|2,3:2|1:2,0:0:0:0:
495,174,196646,1,2,1:2:0:0:
440,276,196764,5,2,3:2:0:0:
411,172,196882,2,0,L|405:115,2,45.0000017166138,0|0|0,1:2|1:2|1:2,0:0:0:0:
357,247,197117,5,0,1:2:0:0:
350,67,197234,1,0,3:2:0:0:
495,174,197352,1,0,3:2:0:0:
268,258,197470,6,0,B|198:253|198:253|163:277|163:277|71:274,1,180.000006866455,6|2,3:2|0:2,0:0:0:0:
110,125,197823,2,0,B|141:156|141:156|135:205,1,90.0000034332277,2|2,1:2|0:2,0:0:0:0:
16,318,198058,1,2,0:2:0:0:
57,189,198176,5,2,3:2:0:0:
95,274,198293,1,2,0:2:0:0:
133,359,198411,1,2,0:2:0:0:
268,258,198529,6,0,B|278:139|278:139|263:165|233:178,1,180.000006866455,2|2,1:2|0:2,0:0:0:0:
95,274,198882,2,0,P|147:254|207:270,1,90.0000034332277,2|0,3:2|0:2,0:0:0:0:
260,340,199117,1,2,0:2:0:0:
356,268,199234,5,2,1:2:0:0:
367,176,199352,1,2,0:2:0:0:
377,83,199469,1,2,0:2:0:0:
511,261,199587,6,0,B|413:264|467:144|333:183,1,180.000006866455,2|0,3:2|0:2,0:0:0:0:
151,150,199940,6,0,B|249:153|195:33|329:72,1,180.000006866455,2|2,1:2|0:2,0:0:0:0:
356,268,200293,6,0,L|161:242,1,180.000006866455,2|2,3:2|0:2,0:0:0:0:
58,159,200646,5,2,1:2:0:0:
151,150,200764,1,2,0:2:0:0:
244,140,200881,1,2,0:2:0:0:
99,23,200999,6,0,B|64:12|40:52|40:52|58:159,1,180.000006866455,0|2,3:2|0:2,0:0:0:0:
177,244,201352,2,0,L|266:233,1,90.0000034332277,2|2,1:2|0:2,0:0:0:0:
151,150,201587,1,2,0:2:0:0:
109,294,201705,6,0,P|143:321|193:324,1,90.0000034332277,2|2,3:2|0:2,0:0:0:0:
346,227,201940,1,2,0:2:0:0:
249,50,202058,6,0,L|243:148,1,90.0000034332277,2|2,1:2|0:2,0:0:0:0:
292,325,202293,1,2,0:2:0:0:
511,191,202411,6,0,B|414:157|444:247|346:227,1,180.000006866455,2|2,3:2|0:2,0:0:0:0:
306,101,202764,5,2,1:2:0:0:
383,69,202881,1,0,3:2:0:0:
373,154,202999,1,0,3:2:0:0:
237,237,203117,6,0,B|242:167|242:167|218:132|218:132|221:40,1,180.000006866455,4|2,3:2|0:2,0:0:0:0:
79,203,203470,2,0,P|127:210|166:188,1,90.0000034332277,2|2,1:2|0:2,0:0:0:0:
306,101,203705,1,2,0:2:0:0:
220,64,203823,5,2,3:2:0:0:
229,157,203941,1,2,0:2:0:0:
239,250,204058,1,2,0:2:0:0:
161,309,204176,6,0,B|102:320|102:320|77:194,1,180.000006866455,0|0,1:2|0:2,0:0:0:0:
15,31,204529,6,0,B|113:28|59:148|193:109,1,180.000006866455,2|2,3:2|0:2,0:0:0:0:
0,195,204882,2,0,B|-9:151|-9:151|14:108,1,90.0000034332277,2|2,1:2|0:2,0:0:0:0:
111,33,205117,1,2,0:2:0:0:
239,112,205234,5,0,3:2:0:0:
332,103,205352,1,0,3:2:0:0:
425,93,205469,1,2,3:2:0:0:
512,81,205587,6,0,B|478:40|478:40|491:230,1,180.000006866455,2|2,1:2|0:2,0:0:0:0:
342,251,205940,6,0,B|440:254|386:134|520:173,1,180.000006866455,6|0,3:2|0:2,0:0:0:0:
482,337,206293,5,2,1:2:0:0:
389,328,206411,1,2,3:2:0:0:
296,318,206528,1,2,3:2:0:0:
201,371,206646,6,0,B|241:383|265:347|265:347|248:233,1,180.000006866455,6|0,3:2|0:2,0:0:0:0:
96,277,206999,2,0,P|146:297|200:284,1,90.0000034332277,0|2,1:2|3:2,0:0:0:0:
312,180,207234,1,2,3:2:0:0:
209,65,207352,6,0,L|229:227,1,90.0000034332277,6|0,1:2|3:2,0:0:0:0:
296,318,207587,1,2,3:2:0:0:
131,74,207705,6,0,L|151:236,1,90.0000034332277,6|0,1:2|3:2,0:0:0:0:
354,257,207940,1,2,3:2:0:0:
220,154,208058,5,4,3:2:0:0:
96,277,208176,2,0,L|50:269,2,45.0000017166138,2|0|0,1:2|1:2|1:2,0:0:0:0:
210,343,208411,6,0,B|308:346|254:226|388:265,1,180.000006866455,0|0,3:2|0:2,0:0:0:0:
482,210,208764,6,0,P|421:266|332:241,1,155.999992858887,6|0,3:2|0:2,0:0:0:0:
379,102,209117,2,0,B|414:67|414:67|399:201,1,155.999992858887,0|0,1:2|0:2,0:0:0:0:
347,332,209470,6,0,B|259:334|300:238|188:262,1,155.999992858887,2|0,3:2|0:2,0:0:0:0:
150,369,209823,2,0,P|188:364|215:334,1,77.9999964294435,2|0,1:2|0:2,0:0:0:0:
299,222,210058,5,0,0:2:0:0:
236,179,210176,2,0,B|141:168|178:244|74:226,1,155.999992858887,2|0,3:2|0:2,0:0:0:0:
17,147,210529,2,0,B|-15:121|-15:121|108:149,1,155.999992858887,0|0,1:2|0:2,0:0:0:0:
219,258,210882,6,0,P|284:250|311:189,1,77.9999964294435,2|0,3:2|0:2,0:0:0:0:
276,337,211117,1,2,0:2:0:0:
348,302,211234,2,0,P|373:241|334:187,1,77.9999964294435,2|0,1:2|0:2,0:0:0:0:
451,251,211470,1,2,0:2:0:0:
440,178,211588,6,0,B|345:167|382:243|278:225,1,155.999992858887,2|0,3:2|0:2,0:0:0:0:
155,100,211940,2,0,B|250:89|213:165|317:147,1,155.999992858887,0|0,1:2|0:2,0:0:0:0:
411,101,212293,6,0,P|340:41|279:96,1,155.999992858887,0|0,3:2|0:2,0:0:0:0:
143,113,212646,2,0,B|87:101|87:101|109:-35,1,155.999992858887,2|0,1:2|0:2,0:0:0:0:
215,72,212999,6,0,P|229:120|217:153,1,77.9999964294435,2|0,3:2|0:2,0:0:0:0:
127,278,213234,1,0,3:2:0:0:
106,199,213352,2,0,B|201:188|164:264|268:246,1,155.999992858887,2|0,1:2|3:2,0:0:0:0:
379,154,213705,6,0,P|329:160|304:185,1,77.9999964294435,2|0,3:2|0:2,0:0:0:0:
288,255,213970,1,0,3:2:0:0:
343,319,214058,2,0,B|363:354|363:354|367:228,1,155.999992858887,2|0,1:2|3:2,0:0:0:0:
435,103,214411,6,0,B|374:116|374:116|356:141|356:141|270:155,1,155.999992858887,4|0,3:2|0:2,0:0:0:0:
169,100,214764,2,0,P|223:49|299:66,1,155.999992858887,0|0,1:2|0:2,0:0:0:0:
294,152,215117,5,0,3:2:0:0:
237,205,215234,2,0,P|203:187|164:185,1,77.9999964294435,0|0,0:2|0:2,0:0:0:0:
70,280,215470,2,0,B|96:242|96:242|63:137,1,155.999992858887,0|0,1:2|0:2,0:0:0:0:
24,22,215823,6,0,P|56:53|101:57,1,77.9999964294435,2|0,3:2|0:2,0:0:0:0:
148,0,216058,1,0,0:2:0:0:
218,45,216176,2,0,B|201:98|201:98|176:117|176:117|158:209,1,155.999992858887,2|0,1:2|0:2,0:0:0:0:
0,254,216529,6,0,P|31:276|69:279,1,77.9999964294435,2|0,3:2|0:2,0:0:0:0:
172,262,216763,1,0,0:2:0:0:
256,313,216882,2,0,B|344:315|303:219|415:243,1,155.999992858887,2|0,1:2|0:2,0:0:0:0:
481,271,217234,6,0,P|498:246|487:179,1,77.9999964294435,0|0,3:2|0:2,0:0:0:0:
389,142,217470,1,0,0:2:0:0:
471,53,217587,2,0,B|485:94|485:94|458:152,2,77.9999964294435,4|0|0,1:2|1:2|1:2,0:0:0:0:
389,142,217940,6,0,P|352:116|286:124,1,77.9999964294435,0|0,3:2|0:2,0:0:0:0:
226,178,218176,1,0,0:2:0:0:
315,273,218293,2,0,L|321:195,2,77.9999964294435,4|0|0,1:2|1:2|1:2,0:0:0:0:
228,301,218646,6,0,L|108:279,1,77.9999964294435,0|0,1:2|3:2,0:0:0:0:
315,273,218882,1,0,3:2:0:0:
190,374,218999,6,0,L|70:352,1,77.9999964294435,0|0,1:2|3:2,0:0:0:0:
242,217,219234,1,0,3:2:0:0:
297,362,219352,5,0,3:2:0:0:
391,248,219470,2,0,L|466:234,2,38.9999982147218,0|0|0,1:2|1:2|1:2,0:0:0:0:
331,200,219705,5,0,3:2:0:0:
315,273,219823,1,0,3:2:0:0:
375,324,219940,1,0,3:2:0:0:
512,163,220058,6,0,B|425:170|476:256|366:248,1,155.999992858887,6|0,3:2|0:2,0:0:0:0:
348,91,220411,2,0,B|385:60|385:60|379:184,1,155.999992858887,0|0,1:2|0:2,0:0:0:0:
315,273,220764,6,0,P|259:222|184:246,1,155.999992858887,2|0,3:2|0:2,0:0:0:0:
235,383,221117,2,0,L|244:284,1,77.9999964294435,2|0,1:2|0:2,0:0:0:0:
182,142,221382,5,0,0:2:0:0:
109,187,221470,2,0,L|101:264,1,77.9999964294435,2|0,3:2|0:2,0:0:0:0:
84,369,221705,5,0,0:2:0:0:
8,337,221823,2,0,L|15:259,1,77.9999964294435,0|0,1:2|0:2,0:0:0:0:
88,68,222058,5,2,0:2:0:0:
29,135,222176,2,0,B|76:159|76:159|196:128,1,155.999992858887,2|2,3:2|0:2,0:0:0:0:
274,25,222529,2,0,B|243:-2|243:-2|257:132,1,155.999992858887,2|2,1:2|0:2,0:0:0:0:
348,238,222882,6,0,L|332:68,1,155.999992858887,2|0,3:2|0:2,0:0:0:0:
466,1,223234,2,0,L|480:156,1,155.999992858887,0|0,1:2|0:2,0:0:0:0:
474,271,223587,6,0,P|417:219|342:243,1,155.999992858887,0|0,3:2|0:2,0:0:0:0:
251,344,223940,2,0,P|305:336|338:291,1,77.9999964294435,2|0,1:2|0:2,0:0:0:0:
336,137,224176,5,0,0:2:0:0:
271,185,224293,2,0,B|206:194|206:194|189:215|189:215|77:232,1,155.999992858887,2|0,3:2|0:2,0:0:0:0:
12,104,224646,2,0,P|111:104|141:158,1,155.999992858887,2|2,1:2|0:2,0:0:0:0:
78,302,224999,2,0,B|39:274|39:274|65:149,1,155.999992858887,2|0,3:2|0:2,0:0:0:0:
126,67,225352,2,0,L|143:175,1,77.9999964294435,2|0,1:2|0:2,0:0:0:0:
141,360,225587,5,0,0:2:0:0:
197,299,225704,2,0,B|262:290|262:290|279:269|279:269|391:252,1,155.999992858887,4|2,3:2|0:2,0:0:0:0:
473,292,226058,2,0,P|381:301|334:222,1,155.999992858887,0|2,1:2|0:2,0:0:0:0:
353,89,226411,5,0,3:2:0:0:
425,142,226529,2,0,L|417:248,1,77.9999964294435,2|2,0:2|0:2,0:0:0:0:
334,169,226764,2,0,B|330:55|330:55|339:80|357:92,1,155.999992858887,2|0,1:2|0:2,0:0:0:0:
236,211,227117,6,0,P|173:191|123:236,1,77.9999964294435,6|0,3:2|0:2,0:0:0:0:
204,113,227352,1,0,0:2:0:0:
119,132,227469,2,0,P|84:187|114:247,1,77.9999964294435,0|0,1:2|0:2,0:0:0:0:
0,311,227705,1,0,0:2:0:0:
0,226,227823,2,0,B|70:210|60:287|147:274,1,155.999992858887,2|0,3:2|0:2,0:0:0:0:
96,384,228176,2,0,P|77:351|97:285,1,77.9999964294435,2|0,3:2|0:2,0:0:0:0:
199,201,228411,5,0,3:2:0:0:
199,201,228529,2,0,B|238:191|258:179|258:179|351:218,1,155.999992858887,4|0,3:2|0:2,0:0:0:0:
268,304,228882,1,0,1:3:0:0:
267,285,229000,1,0,1:3:0:0:
267,266,229117,1,0,1:3:0:0:
370,140,229234,6,0,L|380:319,1,155.999992858887,4|0,3:2|0:2,0:0:0:0:
477,340,229587,1,8,1:3:0:0:
476,321,229705,1,8,1:3:0:0:
476,302,229822,1,8,1:3:0:0:
502,211,229940,6,0,L|397:222,1,77.9999964294435,4|0,1:2|3:2,0:0:0:0:
344,227,230176,1,0,3:2:0:0:
417,141,230293,6,0,L|426:246,1,77.9999964294435,4|0,1:2|3:2,0:0:0:0:
378,295,230528,1,0,3:2:0:0:
262,189,230646,5,0,3:2:0:0:
196,300,230764,2,0,L|193:338,2,38.9999982147218,0|0|0,1:2|1:2|1:2,0:0:0:0:
267,266,230999,5,0,3:2:0:0:
194,223,231117,1,0,3:2:0:0:
121,180,231234,1,0,3:2:0:0:
48,137,231352,5,2,2:2:0:0:
3,206,231705,2,0,L|10:259,2,53.9999983520508,0|0|0,0:2|0:2|0:2,0:0:0:0:
181,75,232764,5,2,0:2:0:0:
256,108,233117,2,0,L|309:100,2,53.9999983520508,0|0|0,0:2|0:2|0:2,0:0:0:0:
155,214,234176,5,2,0:2:0:0:
236,249,234529,2,0,L|243:302,2,53.9999983520508,0|0|0,0:2|0:2|0:2,0:0:0:0:
335,176,235587,5,2,0:2:0:0:
413,213,235940,1,0,0:2:0:0:
335,176,236293,2,0,L|331:138,2,26.9999991760254,2|2|2,0:2|0:2|0:2,0:0:0:0:
464,10,236999,5,2,0:2:0:0:
410,75,237352,2,0,L|416:128,1,53.9999983520508,0|0,0:2|0:2,0:0:0:0:
416,128,238058,1,2,0:2:0:0:
262,22,238411,5,2,0:2:0:0:
262,22,238940,2,0,L|264:46,2,13.4999995880127,2|2|2,0:2|0:2|0:2,0:0:0:0:
280,143,239470,1,2,0:2:0:0:
78,66,239823,5,2,0:2:0:0:
153,102,240176,2,0,L|217:94,2,53.9999983520508,0|0|2,0:2|0:2|0:2,0:0:0:0:
34,231,241234,6,0,B|5:157|109:130|167:194|98:330,1,270,2|0,0:2|0:2,0:0:0:0:
104,316,242646,5,4,3:2:0:0:
256,192,242734,12,6,245470,3:2:0:0:
467,343,245999,5,8,0:3:0:0:
467,343,246087,1,8,0:3:0:0:
467,343,246176,1,8,0:3:0:0:
378,184,246882,5,8,0:3:0:0:
258,309,247411,5,8,0:3:0:0:
258,309,247499,1,8,0:3:0:0:
258,309,247588,1,8,0:3:0:0:
335,268,247764,1,8,0:3:0:0:
260,223,247940,5,8,0:3:0:0:
260,223,248028,1,8,0:3:0:0:
260,223,248117,1,8,0:3:0:0:
260,223,248205,1,8,0:3:0:0:
260,223,248293,1,0,3:2:0:0:
173,95,248823,5,8,0:3:0:0:
173,95,248911,1,8,0:3:0:0:
173,95,249000,1,8,0:3:0:0:
0,230,249705,5,8,0:3:0:0:
173,95,250234,5,8,0:3:0:0:
173,95,250322,1,8,0:3:0:0:
173,95,250411,1,8,0:3:0:0:
111,150,250587,1,8,0:3:0:0:
205,184,250763,5,8,0:3:0:0:
205,184,250851,1,8,0:3:0:0:
205,184,250940,1,8,0:3:0:0:
205,184,251028,1,8,0:3:0:0:
205,184,251116,1,4,3:2:0:0:
33,352,251646,5,8,0:3:0:0:
33,352,251734,1,8,0:3:0:0:
33,352,251823,1,8,0:3:0:0:
258,255,252529,5,8,0:3:0:0:
56,230,253058,5,8,0:3:0:0:
56,230,253146,1,8,0:3:0:0:
56,230,253235,1,8,0:3:0:0:
118,275,253411,1,8,0:3:0:0:
193,338,253587,5,8,0:3:0:0:
193,338,253675,1,8,0:3:0:0:
193,338,253764,1,8,0:3:0:0:
193,338,253852,1,8,0:3:0:0:
193,338,253940,2,0,B|275:330|275:330|294:351|324:357,1,135,4|8,3:2|0:3,0:0:0:0:
416,317,254293,2,0,L|422:267,3,45,8|8|8|8,0:3|0:3|0:3|0:3,0:0:0:0:
339,276,254646,6,0,B|331:221|331:221|340:197|340:197|331:125,1,135,8|0,0:3|0:2,0:0:0:0:
362,65,254999,2,2,B|396:53|415:25|415:25|397:56|400:95,1,135,2|2,0:1|0:2,0:1:0:0:
333,143,255352,6,0,L|208:127,1,116.999994644165,4|0,3:2|0:2,0:0:0:0:
137,122,255617,1,0,0:2:0:0:
137,122,255705,1,0,3:2:0:0:
244,214,255882,1,0,0:2:0:0:
180,39,256058,5,0,3:2:0:0:
56,203,256234,1,0,0:2:0:0:
244,214,256411,1,0,3:2:0:0:
67,65,256587,1,0,0:2:0:0:
20,293,256764,6,0,L|107:279,1,58.4999973220826,0|0,3:2|0:2,0:0:0:0:
296,281,256940,2,0,L|238:290,1,58.4999973220826,0|0,3:2|0:2,0:0:0:0:
13,367,257117,6,0,L|100:353,1,58.4999973220826,0|0,3:2|0:2,0:0:0:0:
301,204,257294,2,0,L|243:213,1,58.4999973220826,0|0,3:2|0:2,0:0:0:0:
47,145,257470,6,0,L|60:232,1,58.4999973220826,0|0,3:2|0:2,0:0:0:0:
168,379,257646,2,0,L|159:321,1,58.4999973220826,0|0,3:2|0:2,0:0:0:0:
170,71,257823,6,0,L|183:158,1,58.4999973220826,0|0,3:2|0:2,0:0:0:0:
304,338,257999,2,0,L|295:280,1,58.4999973220826,0|0,3:2|0:2,0:0:0:0:
431,51,258176,5,0,3:2:0:0:
441,78,258264,1,0,3:2:0:0:
441,107,258352,1,0,3:2:0:0:
431,134,258440,1,0,3:2:0:0:
354,170,258529,5,0,3:2:0:0:
327,166,258617,1,0,3:2:0:0:
300,162,258705,1,0,3:2:0:0:
273,158,258793,1,0,3:2:0:0:
192,188,258882,5,0,3:2:0:0:
180,219,258970,1,0,3:2:0:0:
180,253,259058,1,0,3:2:0:0:
192,285,259146,1,0,3:2:0:0:
270,320,259234,5,0,3:2:0:0:
302,291,259322,1,0,3:2:0:0:
344,279,259410,1,0,3:2:0:0:
387,286,259498,1,0,3:2:0:0:
459,327,259586,5,4,3:2:0:0:
256,192,259676,12,0,260823,0:2:0:0:
9,205,260999,5,0,3:2:0:0:
41,183,261087,1,0,0:2:0:0:
79,178,261175,1,0,0:2:0:0:
115,189,261263,1,0,0:2:0:0:
185,234,261352,5,0,3:2:0:0:
219,232,261440,1,0,0:2:0:0:
253,230,261528,1,0,0:2:0:0:
286,229,261616,1,0,0:2:0:0:
345,174,261705,5,0,3:2:0:0:
357,138,261793,1,0,0:2:0:0:
352,100,261881,1,2,0:2:0:0:
330,68,261969,1,0,3:2:0:0:
250,51,262058,6,0,L|258:131,1,53.9999983520508,2|0,1:2|0:2,0:0:0:0:
224,285,262234,2,0,L|216:205,1,53.9999983520508,2|0,0:2|0:2,0:0:0:0:
91,71,262411,6,0,B|83:45|83:45|169:84|169:84|130:201,1,216,4|0,3:2|0:2,0:0:0:0:
57,296,262764,2,0,P|86:269|116:260,1,72,2|0,1:2|0:2,0:0:0:0:
348,337,262940,2,0,B|294:342|294:342|275:361|275:361|212:368,1,144,2|0,0:2|3:2,0:0:0:0:
12,181,263293,6,0,P|90:147|143:179,1,144,2|2,0:2|1:2,0:0:0:0:
117,260,263558,1,0,0:0:0:0:
53,311,263646,2,0,B|21:324|21:324|42:293,2,72,2|0|0,0:2|0:2|3:2,0:0:0:0:
142,101,263999,6,0,L|138:174,1,72,2|0,0:2|0:2,0:0:0:0:
267,311,264175,2,0,L|275:219,1,72,2|0,1:2|0:2,0:0:0:0:
390,98,264352,2,0,B|289:85|324:171|220:162,1,188.999994232178,2|0,0:2|0:2,0:0:0:0:
222,162,264705,5,2,0:2:0:0:
376,215,264881,1,2,1:2:0:0:
287,36,265058,1,2,0:2:0:0:
20,184,265234,6,0,B|60:158|60:158|143:183|143:183|154:232|199:247,1,216,6|0,3:2|0:2,0:0:0:0:
362,232,265587,6,0,B|255:235|298:336|182:335,1,216,2|0,1:2|0:2,0:0:0:0:
20,184,265940,6,0,B|-26:146|9:87|9:87|77:69|99:129,1,216,2|0,3:2|0:2,0:0:0:0:
185,335,266293,6,0,B|238:348|238:348|269:258,1,144,2|0,1:2|0:2,0:0:0:0:
380,143,266558,5,0,0:2:0:0:
380,143,266646,2,0,B|423:146|443:105|440:70|369:3|258:114,1,242.999992584229,2|0,3:2|0:2,0:0:0:0:
192,168,266999,2,0,L|182:73,1,72,2|0,1:2|0:2,0:0:0:0:
390,0,267175,2,0,L|380:148,1,144,2|0,0:2|3:2,0:0:0:0:
511,266,267528,5,2,0:2:0:0:
511,266,267617,1,0,3:2:0:0:
511,266,267705,2,0,L|415:272,1,72,2|0,1:2|0:2,0:0:0:0:
264,362,267881,1,2,3:2:0:0:
369,219,268058,6,0,B|342:261|342:261|364:353,1,144,4|0,3:2|0:2,0:0:0:0:
364,353,268322,1,0,3:2:0:0:
364,353,268411,1,2,1:2:0:0:
264,230,268587,6,0,B|194:225|194:225|149:305|149:305|65:299,1,216,6|0,3:2|0:2,0:0:0:0:
240,384,268940,2,0,L|248:313,1,72,2|0,3:2|0:2,0:0:0:0:
103,216,269117,2,0,L|93:145,1,72,2|0,1:2|0:2,0:0:0:0:
212,13,269293,5,2,3:2:0:0:
212,13,269381,1,0,3:2:0:0:
212,13,269469,2,0,B|188:86|253:72|228:165,1,144,6|0,3:2|0:2,0:0:0:0:
231,150,269734,1,0,3:2:0:0:
231,150,269822,1,2,1:2:0:0:
470,84,269999,6,0,B|482:62|523:49|523:49|373:71,1,216,6|0,3:2|0:2,0:0:0:0:
296,67,270352,1,2,3:2:0:0:
295,89,270440,1,0,3:2:0:0:
303,106,270528,1,2,3:2:0:0:
484,178,270705,1,2,3:2:0:0:
337,286,270882,6,0,B|322:286|297:252|297:252|210:273,1,144,6|0,3:2|0:2,0:0:0:0:
106,262,271146,5,0,3:2:0:0:
106,262,271234,2,0,P|90:226|101:181,1,72,2|0,1:2|0:2,0:0:0:0:
205,57,271411,2,0,P|221:93|210:138,1,72,0|0,3:2|0:2,0:0:0:0:
0,99,271587,6,0,B|60:95|60:95|89:110|89:110|158:101,1,144,6|0,3:2|0:2,0:0:0:0:
264,189,271852,1,0,3:2:0:0:
264,189,271940,2,0,L|340:179,1,72,2|0,1:2|0:2,0:0:0:0:
474,77,272117,1,0,3:2:0:0:
468,63,272205,1,0,3:2:0:0:
457,43,272293,5,6,3:2:0:0:
418,24,272381,1,0,3:2:0:0:
375,26,272469,1,0,3:2:0:0:
338,47,272557,1,0,3:2:0:0:
320,86,272645,1,2,3:2:0:0:
447,211,272823,1,2,3:2:0:0:
316,311,273000,5,0,1:3:0:0:
241,302,273088,1,0,1:3:0:0:
165,288,273176,1,0,3:3:0:0:
88,279,273264,1,0,3:3:0:0:
18,316,273353,2,0,P|8:280|16:245,1,72,8|0,1:3|0:3,0:0:0:0:
152,40,273529,5,0,3:3:0:0:
154,68,273618,1,0,3:3:0:0:
156,98,273706,2,0,B|169:252|169:252|155:216|115:199,1,216,6|0,3:2|0:2,0:0:0:0:
4,145,274058,2,0,L|83:137,1,72,2|0,1:2|0:2,0:0:0:0:
235,62,274234,2,0,B|239:107|239:107|254:132|254:132|244:162|244:162|249:215,1,144,2|0,0:2|3:2,0:0:0:0:
419,367,274587,6,0,B|438:336|438:336|431:301,1,72,2|0,0:2|0:2,0:0:0:0:
250,340,274764,2,0,B|242:304|242:304|260:272,1,72,2|0,1:2|0:2,0:0:0:0:
363,167,274940,2,0,L|340:344,1,144,2|0,0:2|3:2,0:0:0:0:
269,103,275293,5,2,0:2:0:0:
269,103,275381,1,0,0:2:0:0:
269,103,275469,1,2,1:2:0:0:
472,188,275646,2,0,B|520:156|520:156|335:168,1,216,2|0,0:2|0:2,0:0:0:0:
362,166,275999,5,2,0:2:0:0:
505,66,276175,1,2,1:2:0:0:
411,247,276352,1,2,0:2:0:0:
301,25,276529,6,0,B|241:-9|188:43|188:43|186:103|129:109,1,216,6|0,3:2|0:2,0:0:0:0:
12,204,276882,6,0,B|129:192|78:321|228:296,1,216,2|0,1:2|0:2,0:0:0:0:
364,169,277234,6,0,B|237:148|237:148|181:162|189:221,1,216,2|0,3:2|0:2,0:0:0:0:
252,365,277587,6,0,B|296:350|296:350|271:243,1,144,2|0,1:2|0:2,0:0:0:0:
209,122,277852,5,0,0:2:0:0:
209,122,277940,2,0,B|147:131|147:131|116:165|116:165|33:178,1,188.999994232178,2|0,3:2|0:2,0:0:0:0:
20,169,278294,2,0,P|12:142|42:82,1,72,2|0,1:2|0:2,0:0:0:0:
188,210,278469,1,2,0:2:0:0:
9,256,278646,1,0,3:2:0:0:
105,36,278823,5,0,3:2:0:0:
105,36,278912,1,0,3:2:0:0:
105,36,279000,2,0,L|116:108,1,72,0|0,1:2|0:2,0:0:0:0:
279,244,279176,5,0,3:2:0:0:
274,225,279264,1,0,3:2:0:0:
270,207,279353,2,0,B|247:102|247:102|226:146,1,144,4|0,3:2|0:2,0:0:0:0:
188,210,279618,1,0,3:2:0:0:
188,210,279706,1,0,1:2:0:0:
505,268,279882,6,0,B|460:233|460:233|362:261|362:261|349:319|295:327,1,251.999992309571,6|2,3:2|3:2,0:0:0:0:
111,342,280411,2,0,B|96:213|96:213|102:250|146:292,1,188.999994232178,2|0,1:2|0:2,0:0:0:0:
301,325,280764,6,0,P|256:285|184:303,1,125.999996154785,6|0,3:2|0:2,0:0:0:0:
231,368,281029,1,0,3:2:0:0:
231,368,281117,1,0,1:2:0:0:
77,132,281293,6,0,B|141:144|141:144|169:182|169:182|252:197,1,188.999994232178,4|0,3:2|0:2,0:0:0:0:
263,188,281646,2,0,P|278:165|263:106,1,62.9999980773926,0|0,3:2|0:2,0:0:0:0:
166,26,281823,1,0,1:3:0:0:
166,46,281911,1,0,1:3:0:0:
165,66,282000,2,0,L|167:140,1,62.9999980773926,0|0,3:3|3:3,0:0:0:0:
54,277,282176,6,0,B|88:268|106:234|106:234|133:282|205:299,1,188.999994232178,4|0,3:2|0:2,0:0:0:0:
301,325,282529,2,0,B|356:315|356:315|373:324|373:324|436:311,1,125.999996154785,0|0,1:2|0:2,0:0:0:0:
507,156,282793,1,0,0:2:0:0:
507,156,282882,2,0,P|433:158|394:200,1,125.999996154785,2|0,3:2|0:2,0:0:0:0:
301,325,283146,1,0,0:2:0:0:
301,325,283234,2,0,B|338:280|338:280|303:145,1,188.999994232178,2|0,1:2|0:2,0:0:0:0:
341,53,283587,6,0,B|291:36|239:64|273:107|227:127|154:110,1,188.999994232178,6|0,3:2|0:2,0:0:0:0:
176,113,283940,1,0,1:2:0:0:
305,153,284117,2,0,B|336:157|336:157|318:130,2,62.9999980773926,2|0|0,0:2|0:2|3:2,0:0:0:0:
196,0,284469,5,0,0:2:0:0:
188,17,284557,1,0,0:2:0:0:
189,39,284645,1,0,1:2:0:0:
414,192,284823,5,0,3:2:0:0:
422,175,284911,1,0,3:2:0:0:
421,153,284999,1,4,3:2:0:0:
224,233,285176,1,0,3:2:0:0:
424,345,285353,1,0,3:2:0:0:
335,158,285529,1,0,3:2:0:0:
193,370,285705,6,0,L|181:281,1,62.9999980773926,0|0,3:2|0:2,0:0:0:0:
252,95,285882,2,0,L|264:184,1,62.9999980773926,2|0,3:2|0:2,0:0:0:0:
102,329,286057,6,0,L|90:240,1,62.9999980773926,2|0,3:2|0:2,0:0:0:0:
154,42,286234,2,0,L|166:131,1,62.9999980773926,2|0,3:2|0:2,0:0:0:0:
52,196,286411,5,0,3:2:0:0:
81,186,286499,1,0,3:2:0:0:
113,188,286587,1,0,3:2:0:0:
141,201,286675,1,0,3:2:0:0:
224,233,286764,5,0,3:2:0:0:
253,243,286852,1,0,3:2:0:0:
285,241,286940,1,0,3:2:0:0:
313,228,287028,1,0,3:2:0:0:
369,164,287117,6,8,L|421:157,4,31.4999990386963,2|2|2|2|2,3:2|3:2|3:2|3:2|3:2,0:0:0:0:
313,228,287382,1,2,3:2:0:0:
394,241,287470,2,0,L|425:236,4,31.4999990386963,2|2|2|2|2,3:2|3:2|3:2|3:2|3:2,0:0:0:0:
348,311,287734,1,2,0:2:0:0:
348,311,287823,5,6,3:2:0:0:
348,311,289058,5,0,3:2:0:0:
266,346,289411,5,0,3:2:0:0:
346,223,289587,1,0,3:2:0:0:
346,223,290646,5,4,3:2:0:0:
434,367,290823,1,0,3:2:0:0:
257,254,290999,1,0,3:2:0:0:
433,159,291176,1,0,3:2:0:0:
340,363,291352,6,0,L|326:293,1,62.9999980773926,0|0,3:2|0:2,0:0:0:0:
433,159,291529,2,0,L|445:220,1,62.9999980773926,0|0,3:2|0:2,0:0:0:0:
254,335,291705,6,0,L|240:265,1,62.9999980773926,0|0,3:2|0:2,0:0:0:0:
346,72,291882,2,0,L|358:133,1,62.9999980773926,0|0,3:2|0:2,0:0:0:0:
308,224,292058,5,0,3:2:0:0:
277,196,292146,1,0,3:2:0:0:
236,188,292234,1,0,3:2:0:0:
197,203,292322,1,0,3:2:0:0:
118,244,292411,5,0,3:2:0:0:
90,212,292499,1,0,3:2:0:0:
80,172,292587,1,0,3:2:0:0:
91,132,292675,1,0,3:2:0:0:
138,69,292764,6,0,L|130:24,16,31.4999990386963,0|0|0|0|0|0|0|0|0|0|0|0|0|0|0|0|0,3:2|3:2|3:2|3:2|3:2|3:2|3:2|3:2|3:2|3:2|3:2|3:2|3:2|3:2|3:2|3:2|3:2,0:0:0:0:
138,69,293823,5,2,0:3:0:0:
227,63,293940,1,2,0:3:0:0:
308,52,294058,1,2,0:3:0:0:
417,62,294176,6,0,B|400:46|399:10|399:10|369:174,1,180.000006866455,6|0,3:2|0:2,0:0:0:0:
491,228,294529,5,2,0:3:0:0:
405,208,294646,1,2,0:3:0:0:
319,188,294764,1,2,0:3:0:0:
236,221,294882,6,0,B|176:234|176:234|154:267|154:267|66:282,1,167.999994873047,6|0,3:2|0:2,0:0:0:0:
137,116,295234,5,2,0:3:0:0:
157,202,295351,1,2,0:3:0:0:
177,288,295469,1,2,0:3:0:0:
251,343,295587,6,0,P|318:298|403:319,1,167.999994873047,6|0,3:2|0:2,0:0:0:0:
459,370,295940,5,2,3:3:0:0:
321,268,296058,1,2,3:3:0:0:
475,199,296176,1,2,3:3:0:0:
420,283,296293,5,6,3:2:0:0:
256,192,296382,12,6,297705,0:3:0:0:
256,192,297793,12,0,300529,0:2:0:0:
