osu file format v14

[General]
AudioFilename: audio.mp3
AudioLeadIn: 0
PreviewTime: 38900
Countdown: 1
SampleSet: Normal
StackLeniency: 0.3
Mode: 0
LetterboxInBreaks: 0
WidescreenStoryboard: 0

[Editor]
Bookmarks: 31520,37053,37059,51829,63829,64060,64290,66598,69367,76752,81309,83905,95443,96135,102823,115485,119407,120100,132561,144100,158905,173670,191901,195824,208747,223516,240593,246824
DistanceSpacing: 1
BeatDivisor: 4
GridSize: 4
TimelineZoom: 3.199999

[Metadata]
Title:Paradogma
TitleUnicode:Paradogma
Artist:Hour Of Penance
ArtistUnicode:Hour Of Penance
Creator:_Nico_
Version:Feeding the Ignorance with Lies
Source:
Tags:technical deathmetal brutal deathmetal extreme paradogma 2010 streams deathstreams rsi
BeatmapID:1569163
BeatmapSetID:744189

[Difficulty]
HPDrainRate:6
CircleSize:4
OverallDifficulty:10
ApproachRate:10
SliderMultiplier:2
SliderTickRate:1

[Events]
//Background and Video events
0,0,"dogmadogmaparadogma.jpg",0,0
//Break Periods
//Storyboard Layer 0 (Background)
//Storyboard Layer 1 (Fail)
//Storyboard Layer 2 (Pass)
//Storyboard Layer 3 (Foreground)
//Storyboard Sound Samples

[TimingPoints]
37054,230.769230769231,4,1,1,50,1,0
37054,-100,4,1,1,50,0,0
38900,-100,4,1,1,50,0,1
39823,-100,4,1,1,50,0,1
39880,-100,4,1,1,50,0,1
40053,-100,4,1,1,50,0,1
40111,-100,4,1,1,50,0,1
40515,-100,4,1,1,50,0,1
40573,-100,4,1,1,50,0,1
41669,-100,4,1,1,50,0,1
41727,-100,4,1,1,50,0,1
42592,-100,4,1,1,50,0,1
43977,-153.846153846154,4,1,1,50,0,1
44207,-100,4,1,1,50,0,1
45361,-133.333333333333,4,1,1,50,0,1
46284,-100,4,1,1,50,0,1
47207,-100,4,1,1,50,0,1
47265,-100,4,1,1,50,0,1
47438,-100,4,1,1,50,0,1
47496,-100,4,1,1,50,0,1
48130,-100,4,1,1,50,0,0
49054,-100,4,1,1,50,0,0
49169,-100,4,1,1,50,0,0
49284,-100,4,1,1,50,0,0
49400,-100,4,1,1,50,0,0
49515,-100,4,1,1,50,0,0
49630,-100,4,1,1,50,0,0
49746,-114.942528735632,4,1,1,50,0,0
49977,-100,4,1,1,50,0,0
51823,-100,4,1,1,50,0,0
53669,-100,4,1,1,50,0,0
57361,-100,4,1,1,50,0,0
59207,-100,4,1,1,50,0,0
63823,-133.333333333333,4,1,1,50,0,0
64284,-100,4,1,1,50,0,0
66592,-100,4,1,1,50,0,0
69361,-100,4,1,1,50,0,0
70515,-100,4,1,1,50,0,0
73977,-100,4,1,1,50,0,0
77669,-100,4,1,1,50,0,1
79054,-100,4,1,1,50,0,0
81361,-100,4,1,1,50,0,0
83900,-100,4,1,1,50,0,0
87823,-100,4,1,1,50,0,0
90823,-100,4,1,1,50,0,0
92669,-100,4,1,1,50,0,0
95438,-100,4,1,1,50,0,0
96130,-100,4,1,1,50,0,1
96188,-100,4,1,1,50,0,1
97054,-100,4,1,1,50,0,1
97111,-100,4,1,1,50,0,1
98900,-100,4,1,1,50,0,1
98957,-100,4,1,1,50,0,1
99823,-100,4,1,1,50,0,1
99880,-100,4,1,1,50,0,1
100746,-100,4,1,1,50,0,1
100804,-100,4,1,1,50,0,1
103284,-66.6666666666667,4,1,1,50,0,1
103515,-100,4,1,1,50,0,1
104438,-100,4,1,1,50,0,1
106746,-100,4,1,1,50,0,1
108130,-100,4,1,1,50,0,1
109977,-100,4,1,1,50,0,1
110900,-100,4,1,1,50,0,0
111823,222.222222222222,4,1,1,50,1,0
112711,230.769230769231,4,1,1,50,1,0
113634,-100,4,1,1,50,0,0
114557,-133.333333333333,4,1,1,50,0,0
117326,240,4,1,1,50,1,0
118286,230.769230769231,4,1,1,50,1,0
118286,-100,4,1,1,50,0,1
119439,-100,4,1,1,50,0,1
120132,-100,4,1,1,50,0,1
125670,-100,4,1,1,50,0,0
125901,-100,4,1,1,50,0,1
127978,-60.6060606060606,4,1,1,50,0,0
128209,-60.6060606060606,4,1,1,50,0,0
128901,-153.846153846154,4,1,1,50,0,0
129363,-153.846153846154,4,1,1,50,0,0
132593,-153.846153846154,4,1,1,50,0,0
136747,-153.846153846154,4,1,1,50,0,1
140670,-100,4,1,1,50,0,1
141362,-153.846153846154,4,1,1,50,0,1
142286,-100,4,1,1,50,0,0
144132,-100,4,1,1,50,0,0
157978,-133.333333333333,4,1,1,50,0,0
158901,-100,4,1,1,50,0,1
159824,-100,4,1,1,50,0,1
160286,-100,4,1,1,50,0,1
169978,-100,4,1,1,50,0,0
173671,-100,4,1,1,50,0,0
177362,-100,4,1,1,50,0,0
185670,-133.333333333333,4,1,1,50,0,0
186362,-100,4,1,1,50,0,0
191901,-100,4,1,1,50,0,0
195824,-100,4,1,1,50,0,0
199055,-200,4,1,1,50,0,0
199516,-100,4,1,1,50,0,0
203209,-100,4,1,1,50,0,0
208747,-100,4,1,1,50,0,0
217978,-100,4,1,1,50,0,1
218901,-100,4,1,1,50,0,1
218959,-100,4,1,1,50,0,1
223516,-100,4,1,1,50,0,1
231825,-100,4,1,1,50,0,1
232748,-100,4,1,1,50,0,1
240132,-200,4,1,1,50,0,1
240593,-100,4,1,1,50,0,1
247516,-100,4,1,1,50,0,0

[HitObjects]
256,192,31515,12,6,36938,0:0:0:0:
252,36,37053,5,6,0:0:0:0:
252,36,37284,5,8,0:0:0:0:
196,56,37342,1,8,0:0:0:0:
172,112,37400,1,8,0:0:0:0:
196,168,37457,1,8,0:0:0:0:
248,196,37515,1,8,0:0:0:0:
300,224,37573,1,8,0:0:0:0:
312,280,37630,1,8,0:0:0:0:
280,332,37688,1,8,0:0:0:0:
224,344,37746,1,12,0:0:0:0:
224,344,37977,5,12,0:0:0:0:
196,348,38034,1,8,0:0:0:0:
164,348,38092,1,8,0:0:0:0:
134,348,38150,1,8,0:0:0:0:
104,348,38207,2,2,L|48:348,3,50,14|2|2|2,0:0|0:0|0:0|0:0,0:0:0:0:
32,252,38438,5,12,0:0:0:0:
79,247,38495,1,8,0:0:0:0:
103,206,38553,1,8,0:0:0:0:
83,162,38611,1,8,0:0:0:0:
36,152,38669,2,2,L|36:96,3,50,14|2|2|2,0:0|0:0|0:0|0:0,0:0:0:0:
136,36,38900,5,14,0:0:0:0:
148,64,38957,1,2,0:0:0:0:
172,80,39015,1,2,0:0:0:0:
200,84,39073,1,2,0:0:0:0:
232,76,39130,1,2,0:0:0:0:
256,60,39188,1,2,0:0:0:0:
284,52,39246,1,2,0:0:0:0:
312,52,39303,1,2,0:0:0:0:
340,64,39361,5,2,0:0:0:0:
360,92,39419,1,2,0:0:0:0:
360,128,39477,1,2,0:0:0:0:
348,160,39534,1,2,0:0:0:0:
320,180,39592,1,2,0:0:0:0:
287,189,39650,1,2,0:0:0:0:
252,186,39707,1,2,0:0:0:0:
225,164,39765,1,2,0:0:0:0:
224,127,39823,5,10,0:0:0:0:
256,147,39880,1,2,0:0:0:0:
292,167,39938,1,2,0:0:0:0:
328,187,39996,1,2,0:0:0:0:
360,207,40053,2,2,L|404:231,3,50,4|2|2|2,0:0|0:0|0:0|0:0,0:0:0:0:
480,144,40284,5,2,0:0:0:0:
467,159,40341,1,2,0:0:0:0:
449,166,40399,1,2,0:0:0:0:
429,165,40457,1,2,0:0:0:0:
413,156,40515,2,2,P|400:117|409:99,3,50,6|2|2|2,0:0|0:0|0:0|0:0,0:0:0:0:
320,32,40746,5,0,0:0:0:0:
280,40,40803,1,0,0:0:0:0:
252,68,40861,1,0,0:0:0:0:
240,108,40919,1,0,0:0:0:0:
248,148,40977,1,0,0:0:0:0:
276,176,41034,1,0,0:0:0:0:
316,188,41092,1,0,0:0:0:0:
356,188,41150,1,0,0:0:0:0:
396,196,41207,1,0,0:0:0:0:
428,220,41264,1,0,0:0:0:0:
436,260,41322,1,0,0:0:0:0:
428,300,41380,1,0,0:0:0:0:
396,328,41438,5,2,0:0:0:0:
380,316,41496,1,2,0:0:0:0:
372,300,41553,1,2,0:0:0:0:
368,280,41611,1,2,0:0:0:0:
376,260,41669,6,2,P|404:240|428:236,3,50,10|2|2|2,0:0|0:0|0:0|0:0,0:0:0:0:
284,248,41900,5,10,0:0:0:0:
268,248,41957,1,2,0:0:0:0:
252,248,42015,1,10,0:0:0:0:
236,248,42073,1,2,0:0:0:0:
232,220,42130,5,10,0:0:0:0:
224,220,42188,1,2,0:0:0:0:
216,220,42246,1,2,0:0:0:0:
208,220,42304,1,2,0:0:0:0:
204,248,42361,5,10,0:0:0:0:
204,240,42592,5,8,0:0:0:0:
240,328,42707,1,8,0:0:0:0:
212,240,42823,5,8,0:0:0:0:
300,292,42938,1,8,0:0:0:0:
208,236,43054,6,8,B|176:244|176:244|148:220|148:220|116:220,1,100
240,336,43284,2,8,B|208:344|208:344|180:320|180:320|148:320,1,100
304,288,43515,5,8,0:0:0:0:
420,288,43630,1,8,0:0:0:0:
504,240,43746,5,8,0:0:0:0:
204,264,43861,1,8,0:0:0:0:
504,236,43977,6,0,P|464:188|472:148,1,97.4999955368044,8|0,0:0|0:0,0:0:0:0:
484,60,44207,1,8,0:0:0:0:
476,60,44265,1,8,0:0:0:0:
468,60,44323,1,8,0:0:0:0:
460,60,44380,1,8,0:0:0:0:
456,42,44438,5,8,0:0:0:0:
456,41,44669,5,8,0:0:0:0:
428,92,44727,1,8,0:0:0:0:
368,104,44783,1,8,0:0:0:0:
316,76,44841,1,8,0:0:0:0:
256,64,44899,1,8,0:0:0:0:
200,84,44956,1,8,0:0:0:0:
160,128,45014,1,8,0:0:0:0:
148,188,45072,1,8,0:0:0:0:
168,244,45130,5,4,0:0:0:0:
180,236,45188,1,0,0:0:0:0:
188,224,45246,1,0,0:0:0:0:
192,208,45304,1,0,0:0:0:0:
192,192,45361,2,0,L|184:152,3,37.5000014305115,8|0|0|0,0:0|0:0|0:0|0:0,0:0:0:0:
32,140,45592,5,4,0:0:0:0:
36,140,45649,1,0,0:0:0:0:
40,140,45707,1,0,0:0:0:0:
44,140,45765,1,0,0:0:0:0:
48,140,45823,2,0,P|68:124|80:104,3,37.5000014305115,8|0|0|0,0:0|0:0|0:0|0:0,0:0:0:0:
172,246,46054,5,4,0:0:0:0:
170,250,46112,1,0,0:0:0:0:
169,254,46169,1,0,0:0:0:0:
168,258,46227,1,0,0:0:0:0:
166,261,46284,5,14,0:0:0:0:
195,256,46342,1,2,0:0:0:0:
220,242,46400,1,2,0:0:0:0:
234,215,46458,1,2,0:0:0:0:
237,187,46515,1,2,0:0:0:0:
227,158,46573,1,2,0:0:0:0:
205,136,46631,1,2,0:0:0:0:
179,125,46688,1,2,0:0:0:0:
148,124,46746,5,2,0:0:0:0:
116,138,46804,1,2,0:0:0:0:
96,163,46862,1,2,0:0:0:0:
88,194,46919,1,2,0:0:0:0:
99,226,46977,1,2,0:0:0:0:
110,258,47035,1,2,0:0:0:0:
102,288,47092,1,2,0:0:0:0:
87,317,47150,1,2,0:0:0:0:
54,333,47207,5,10,0:0:0:0:
45,301,47265,1,2,0:0:0:0:
51,270,47323,1,2,0:0:0:0:
70,245,47381,1,2,0:0:0:0:
99,234,47438,5,6,0:0:0:0:
131,237,47496,1,2,0:0:0:0:
162,224,47554,1,2,0:0:0:0:
182,198,47611,1,2,0:0:0:0:
192,170,47669,5,2,0:0:0:0:
173,170,47726,1,2,0:0:0:0:
155,180,47784,1,2,0:0:0:0:
143,196,47842,1,2,0:0:0:0:
141,215,47899,1,2,0:0:0:0:
148,233,47957,1,2,0:0:0:0:
163,248,48015,1,2,0:0:0:0:
181,252,48072,1,2,0:0:0:0:
202,244,48131,5,10,0:0:0:0:
202,214,48361,5,10,0:0:0:0:
204,242,48419,1,10,0:0:0:0:
193,269,48477,1,10,0:0:0:0:
171,291,48534,1,10,0:0:0:0:
126,295,48592,1,10,0:0:0:0:
89,272,48650,1,10,0:0:0:0:
88,228,48708,1,10,0:0:0:0:
116,190,48765,1,10,0:0:0:0:
156,190,48823,5,10,0:0:0:0:
142,184,48881,1,10,0:0:0:0:
130,188,48938,1,10,0:0:0:0:
122,200,48996,1,10,0:0:0:0:
118,216,49054,5,6,0:0:0:0:
247,199,49169,1,6,0:0:0:0:
128,233,49284,5,6,0:0:0:0:
237,121,49400,1,6,0:0:0:0:
146,243,49515,5,6,0:0:0:0:
268,85,49631,1,6,0:0:0:0:
164,250,49746,6,6,B|163:215|163:215|194:178|194:178|194:116,1,130.5000010952
200,40,49977,1,14,0:0:0:0:
208,40,50034,1,10,0:0:0:0:
216,40,50092,1,10,0:0:0:0:
224,40,50150,1,10,0:0:0:0:
232,40,50207,1,10,0:0:0:0:
120,40,50323,5,14,0:0:0:0:
112,40,50380,1,10,0:0:0:0:
104,40,50438,1,10,0:0:0:0:
96,40,50496,1,10,0:0:0:0:
88,40,50554,1,10,0:0:0:0:
264,44,50727,5,4,0:0:0:0:
268,44,50958,1,4,0:0:0:0:
272,44,51188,1,4,0:0:0:0:
276,44,51361,5,14,0:0:0:0:
300,60,51419,1,10,0:0:0:0:
312,88,51477,1,10,0:0:0:0:
304,116,51534,1,10,0:0:0:0:
288,144,51592,2,10,P|328:160|344:140,3,50
424,84,51823,5,6,0:0:0:0:
408,108,51880,1,2,0:0:0:0:
400,136,51938,1,2,0:0:0:0:
404,164,51996,1,2,0:0:0:0:
416,192,52054,1,2,0:0:0:0:
424,220,52111,1,2,0:0:0:0:
424,252,52169,1,2,0:0:0:0:
416,280,52227,1,2,0:0:0:0:
396,304,52284,1,2,0:0:0:0:
368,312,52342,1,2,0:0:0:0:
340,308,52400,1,2,0:0:0:0:
316,292,52457,1,2,0:0:0:0:
300,268,52515,1,2,0:0:0:0:
272,260,52573,1,2,0:0:0:0:
244,272,52630,1,2,0:0:0:0:
224,292,52688,1,2,0:0:0:0:
224,324,52746,6,2,L|200:260,3,50,6|2|2|2,0:0|0:0|0:0|0:0,0:0:0:0:
136,316,52977,2,2,L|108:256,3,50,6|2|2|2,0:0|0:0|0:0|0:0,0:0:0:0:
168,212,53207,6,2,L|144:148,3,50,6|2|2|2,0:0|0:0|0:0|0:0,0:0:0:0:
80,204,53438,2,2,L|52:144,3,50,6|2|2|2,0:0|0:0|0:0|0:0,0:0:0:0:
124,112,53669,5,6,0:0:0:0:
126,131,53726,1,2,0:0:0:0:
138,147,53784,1,2,0:0:0:0:
156,154,53842,1,2,0:0:0:0:
176,151,53899,1,2,0:0:0:0:
191,139,53957,1,2,0:0:0:0:
198,120,54015,1,2,0:0:0:0:
194,101,54072,1,2,0:0:0:0:
180,88,54130,5,6,0:0:0:0:
161,94,54187,1,2,0:0:0:0:
149,110,54245,1,2,0:0:0:0:
148,130,54303,1,2,0:0:0:0:
157,147,54360,1,2,0:0:0:0:
175,156,54418,1,2,0:0:0:0:
194,154,54476,1,2,0:0:0:0:
210,142,54533,1,2,0:0:0:0:
216,124,54592,6,2,P|212:100|192:76,3,50
352,140,54823,1,6,0:0:0:0:
352,140,55054,5,8,0:0:0:0:
320,168,55111,1,8,0:0:0:0:
312,212,55169,1,8,0:0:0:0:
336,248,55227,1,8,0:0:0:0:
372,272,55284,5,10,0:0:0:0:
372,288,55342,1,10,0:0:0:0:
372,304,55400,1,10,0:0:0:0:
372,320,55457,1,10,0:0:0:0:
388,344,55515,5,10,0:0:0:0:
388,344,55746,5,6,0:0:0:0:
364,328,55804,1,2,0:0:0:0:
336,320,55861,1,2,0:0:0:0:
304,320,55919,1,2,0:0:0:0:
276,328,55977,1,2,0:0:0:0:
248,340,56034,1,2,0:0:0:0:
220,344,56092,1,2,0:0:0:0:
192,340,56150,1,2,0:0:0:0:
168,324,56207,1,2,0:0:0:0:
156,296,56265,1,2,0:0:0:0:
160,268,56323,1,2,0:0:0:0:
176,244,56380,1,2,0:0:0:0:
204,236,56438,6,2,L|192:176,3,50,6|2|2|2,0:0|0:0|0:0|0:0,0:0:0:0:
364,172,56669,2,2,L|352:112,3,50,6|2|2|2,0:0|0:0|0:0|0:0,0:0:0:0:
284,204,56900,5,6,0:0:0:0:
444,140,57130,1,6,0:0:0:0:
284,204,57361,6,10,L|260:144,1,50,10|10,0:0|0:0,0:0:0:0:
440,136,57477,2,10,L|416:76,1,50,10|10,0:0|0:0,0:0:0:0:
416,256,57592,5,10,0:0:0:0:
416,260,57707,1,2,0:0:0:0:
416,264,57823,6,10,L|384:208,1,50
284,208,57938,2,10,L|320:260,1,50
368,320,58054,5,10,0:0:0:0:
368,324,58169,1,2,0:0:0:0:
368,320,58284,6,10,L|336:264,1,50
236,264,58399,2,10,L|272:316,1,50
320,376,58515,5,10,0:0:0:0:
320,356,58746,1,6,0:0:0:0:
320,336,58977,2,10,L|320:280,3,50
472,160,59207,5,6,0:0:0:0:
480,188,59264,1,2,0:0:0:0:
480,220,59322,1,2,0:0:0:0:
468,248,59380,1,2,0:0:0:0:
448,268,59438,1,2,0:0:0:0:
420,280,59495,1,2,0:0:0:0:
392,292,59553,1,2,0:0:0:0:
372,316,59611,1,2,0:0:0:0:
376,344,59668,5,6,0:0:0:0:
386,317,59726,1,2,0:0:0:0:
384,288,59784,1,2,0:0:0:0:
370,263,59841,1,2,0:0:0:0:
347,246,59899,1,2,0:0:0:0:
341,217,59957,1,2,0:0:0:0:
355,190,60014,1,2,0:0:0:0:
376,171,60072,1,2,0:0:0:0:
408,174,60130,6,2,L|345:145,3,50,6|2|2|2,0:0|0:0|0:0|0:0,0:0:0:0:
416,80,60361,2,2,L|358:47,3,50,6|2|2|2,0:0|0:0|0:0|0:0,0:0:0:0:
292,148,60591,6,2,L|229:119,3,50,6|2|2|2,0:0|0:0|0:0|0:0,0:0:0:0:
300,56,60822,2,2,L|252:32,3,50,6|2|2|2,0:0|0:0|0:0|0:0,0:0:0:0:
172,68,61053,5,6,0:0:0:0:
191,70,61110,1,2,0:0:0:0:
207,82,61168,1,2,0:0:0:0:
214,100,61226,1,2,0:0:0:0:
211,120,61283,1,2,0:0:0:0:
199,135,61341,1,2,0:0:0:0:
180,142,61399,1,2,0:0:0:0:
161,138,61456,1,2,0:0:0:0:
148,124,61514,5,6,0:0:0:0:
154,105,61573,1,2,0:0:0:0:
170,93,61630,1,2,0:0:0:0:
190,92,61688,1,2,0:0:0:0:
207,101,61746,1,2,0:0:0:0:
216,119,61804,1,2,0:0:0:0:
214,138,61860,1,2,0:0:0:0:
202,154,61919,1,2,0:0:0:0:
184,160,61977,6,2,P|160:156|136:136,3,50,14|2|2|2,0:0|0:0|0:0|0:0,0:0:0:0:
200,296,62207,1,14,0:0:0:0:
200,296,62438,5,10,0:0:0:0:
220,352,62495,1,10,0:0:0:0:
280,360,62553,1,10,0:0:0:0:
328,320,62611,1,10,0:0:0:0:
348,264,62668,5,10,0:0:0:0:
404,236,62726,1,2,0:0:0:0:
464,252,62784,1,2,0:0:0:0:
488,304,62841,1,2,0:0:0:0:
480,364,62900,5,6,0:0:0:0:
456,348,63015,1,0,0:0:0:0:
440,324,63130,1,0,0:0:0:0:
432,296,63245,1,0,0:0:0:0:
440,236,63361,1,0,0:0:0:0:
456,180,63476,1,0,0:0:0:0:
436,128,63591,5,2,0:0:0:0:
408,116,63649,1,2,0:0:0:0:
380,120,63707,1,2,0:0:0:0:
356,136,63764,1,2,0:0:0:0:
348,164,63823,6,2,L|272:144,1,75.0000028610231,10|2,0:0|0:0,0:0:0:0:
236,300,64054,2,0,L|160:284,1,75.0000028610231
304,232,64284,5,0,0:0:0:0:
204,380,64400,1,0,0:0:0:0:
308,224,64515,6,10,L|308:276,1,50
404,360,64630,2,10,L|404:296,1,50
356,112,64746,1,14,0:0:0:0:
356,116,64977,2,10,L|356:168,3,50
428,188,65265,5,10,0:0:0:0:
428,196,65323,6,10,L|484:164,2,50
372,144,65554,1,0,0:0:0:0:
372,140,65669,6,2,L|424:108,1,50,10|2,0:0|0:0,0:0:0:0:
420,16,65784,2,2,L|372:40,1,50,10|2,0:0|0:0,0:0:0:0:
240,88,65900,5,10,0:0:0:0:
260,88,66130,1,2,0:0:0:0:
280,88,66361,2,2,L|336:88,3,50
400,148,66592,5,6,0:0:0:0:
408,176,66650,1,2,0:0:0:0:
408,204,66707,1,2,0:0:0:0:
400,232,66765,1,2,0:0:0:0:
384,256,66823,1,2,0:0:0:0:
372,284,66880,1,2,0:0:0:0:
368,312,66938,1,2,0:0:0:0:
376,340,66996,1,2,0:0:0:0:
400,356,67054,5,6,0:0:0:0:
386,329,67111,1,2,0:0:0:0:
365,308,67169,1,2,0:0:0:0:
337,296,67227,1,2,0:0:0:0:
307,294,67284,1,2,0:0:0:0:
279,303,67342,1,2,0:0:0:0:
256,320,67400,1,2,0:0:0:0:
240,344,67457,1,2,0:0:0:0:
236,372,67515,6,2,L|220:320,3,50,10|2|2|2,0:0|0:0|0:0|0:0,0:0:0:0:
300,328,67746,2,2,L|276:264,3,50,10|2|2|2,0:0|0:0|0:0|0:0,0:0:0:0:
136,348,67977,5,10,0:0:0:0:
136,328,68034,1,2,0:0:0:0:
136,308,68092,1,2,0:0:0:0:
136,288,68150,1,2,0:0:0:0:
164,280,68207,5,10,0:0:0:0:
164,264,68265,1,2,0:0:0:0:
164,248,68323,1,2,0:0:0:0:
164,232,68380,1,2,0:0:0:0:
128,212,68438,2,2,L|116:160,3,50
96,56,68669,5,10,0:0:0:0:
102,63,68726,1,2,0:0:0:0:
109,70,68784,1,2,0:0:0:0:
117,76,68842,1,2,0:0:0:0:
126,81,68899,1,2,0:0:0:0:
135,85,68957,1,2,0:0:0:0:
145,87,69015,1,2,0:0:0:0:
155,88,69072,1,2,0:0:0:0:
164,88,69130,6,2,L|192:140,3,50,10|2|2|2,0:0|0:0|0:0|0:0,0:0:0:0:
228,212,69361,1,10,0:0:0:0:
228,212,69592,5,10,0:0:0:0:
244,176,69650,1,10,0:0:0:0:
280,160,69707,1,10,0:0:0:0:
320,164,69765,1,10,0:0:0:0:
360,164,69823,6,10,L|380:116,3,50
412,32,70054,1,6,0:0:0:0:
452,136,70284,1,6,0:0:0:0:
452,136,70515,6,2,L|492:92,3,50,10|2|2|2,0:0|0:0|0:0|0:0,0:0:0:0:
372,80,70746,2,2,L|420:24,3,50,10|2|2|2,0:0|0:0|0:0|0:0,0:0:0:0:
452,220,70977,2,2,L|492:184,3,50,10|2|2|2,0:0|0:0|0:0|0:0,0:0:0:0:
392,280,71207,5,10,0:0:0:0:
392,296,71265,1,2,0:0:0:0:
392,312,71323,1,2,0:0:0:0:
392,328,71380,1,2,0:0:0:0:
412,352,71438,5,10,0:0:0:0:
387,334,71495,1,2,0:0:0:0:
358,327,71553,1,2,0:0:0:0:
328,331,71611,1,2,0:0:0:0:
300,344,71669,5,10,0:0:0:0:
300,328,71727,1,2,0:0:0:0:
300,312,71784,1,2,0:0:0:0:
300,296,71842,1,2,0:0:0:0:
320,276,71900,5,10,0:0:0:0:
320,260,71957,1,2,0:0:0:0:
320,244,72015,1,2,0:0:0:0:
320,228,72073,1,2,0:0:0:0:
292,216,72130,5,10,0:0:0:0:
301,219,72187,1,2,0:0:0:0:
311,221,72245,1,2,0:0:0:0:
321,222,72303,1,2,0:0:0:0:
331,222,72360,1,2,0:0:0:0:
341,220,72418,1,2,0:0:0:0:
350,218,72476,1,2,0:0:0:0:
359,214,72533,1,2,0:0:0:0:
368,209,72591,1,2,0:0:0:0:
376,203,72649,1,2,0:0:0:0:
384,196,72706,1,2,0:0:0:0:
390,189,72764,1,2,0:0:0:0:
372,164,72823,6,2,L|356:104,3,50,14|2|2|2,0:0|0:0|0:0|0:0,0:0:0:0:
332,28,73054,1,6,0:0:0:0:
252,68,73284,5,14,0:0:0:0:
246,60,73342,1,10,0:0:0:0:
239,53,73399,1,10,0:0:0:0:
231,46,73457,1,10,0:0:0:0:
206,65,73516,6,2,L|146:81,3,50,14|2|2|2,0:0|0:0|0:0|0:0,0:0:0:0:
100,148,73746,2,2,P|136:160|168:156,3,50,14|2|2|2,0:0|0:0|0:0|0:0,0:0:0:0:
80,248,73977,5,14,0:0:0:0:
76,268,74092,1,2,0:0:0:0:
80,296,74207,1,2,0:0:0:0:
104,328,74323,1,2,0:0:0:0:
152,344,74438,1,2,0:0:0:0:
204,316,74553,1,2,0:0:0:0:
248,260,74669,1,2,0:0:0:0:
316,216,74784,1,2,0:0:0:0:
404,200,74900,5,10,0:0:0:0:
384,204,75015,1,2,0:0:0:0:
364,203,75130,1,2,0:0:0:0:
345,195,75245,1,2,0:0:0:0:
328,184,75361,2,2,P|332:132|360:96,3,100
260,88,75823,5,10,0:0:0:0:
240,84,75938,1,2,0:0:0:0:
220,85,76053,1,2,0:0:0:0:
201,93,76168,1,2,0:0:0:0:
184,104,76284,2,2,P|188:156|216:192,3,100
124,236,76746,6,2,P|152:304|176:336,1,100,10|2,0:0|0:0,0:0:0:0:
224,132,76977,2,2,P|284:164|332:168,1,100,10|2,0:0|0:0,0:0:0:0:
40,36,77207,5,10,0:0:0:0:
28,76,77265,1,10,0:0:0:0:
44,112,77323,1,10,0:0:0:0:
80,124,77380,1,10,0:0:0:0:
132,124,77438,1,10,0:0:0:0:
176,104,77496,1,10,0:0:0:0:
232,92,77554,1,10,0:0:0:0:
288,104,77611,1,10,0:0:0:0:
324,160,77669,5,6,0:0:0:0:
296,164,77727,1,2,0:0:0:0:
268,156,77784,1,2,0:0:0:0:
244,136,77842,1,2,0:0:0:0:
236,108,77900,1,2,0:0:0:0:
240,80,77957,1,2,0:0:0:0:
244,52,78015,1,2,0:0:0:0:
232,24,78073,1,2,0:0:0:0:
204,12,78130,1,6,0:0:0:0:
176,16,78188,1,2,0:0:0:0:
152,32,78246,1,2,0:0:0:0:
136,56,78304,1,2,0:0:0:0:
136,84,78361,1,2,0:0:0:0:
152,108,78419,1,2,0:0:0:0:
176,124,78477,1,2,0:0:0:0:
204,128,78534,1,2,0:0:0:0:
232,124,78592,5,10,0:0:0:0:
216,100,78650,1,2,0:0:0:0:
188,88,78707,1,2,0:0:0:0:
156,84,78765,1,2,0:0:0:0:
128,96,78823,5,6,0:0:0:0:
104,112,78880,1,2,0:0:0:0:
76,128,78938,1,2,0:0:0:0:
48,132,78996,1,2,0:0:0:0:
20,120,79054,6,2,L|20:176,3,50,6|2|2|2,0:0|0:0|0:0|0:0,0:0:0:0:
24,260,79284,1,6,0:0:0:0:
24,264,79515,1,6,0:0:0:0:
24,268,79630,1,0,0:0:0:0:
24,272,79688,1,10,0:0:0:0:
64,244,79746,1,10,0:0:0:0:
72,196,79803,1,10,0:0:0:0:
52,148,79861,1,10,0:0:0:0:
56,96,79919,1,10,0:0:0:0:
76,48,79976,5,10,0:0:0:0:
121,27,80034,1,10,0:0:0:0:
172,32,80092,1,10,0:0:0:0:
212,60,80150,1,10,0:0:0:0:
228,108,80207,5,14,0:0:0:0:
228,112,80438,1,4,0:0:0:0:
228,116,80669,1,4,0:0:0:0:
228,120,80900,6,10,L|287:125,3,50
204,240,81131,2,10,L|267:245,3,50
356,176,81361,5,6,0:0:0:0:
364,164,81419,1,2,0:0:0:0:
376,156,81477,1,2,0:0:0:0:
392,152,81534,1,2,0:0:0:0:
416,172,81592,5,6,0:0:0:0:
432,172,81650,1,2,0:0:0:0:
448,172,81707,1,2,0:0:0:0:
464,172,81765,1,2,0:0:0:0:
488,156,81823,5,6,0:0:0:0:
467,177,81880,1,2,0:0:0:0:
456,205,81938,1,2,0:0:0:0:
455,235,81996,1,2,0:0:0:0:
464,264,82054,6,2,L|504:232,3,50,6|2|2|2,0:0|0:0|0:0|0:0,0:0:0:0:
408,340,82284,2,2,L|360:384,3,50,6|2|2|2,0:0|0:0|0:0|0:0,0:0:0:0:
324,256,82515,5,6,0:0:0:0:
308,256,82573,1,2,0:0:0:0:
292,256,82630,1,2,0:0:0:0:
276,256,82688,1,2,0:0:0:0:
256,280,82746,5,6,0:0:0:0:
240,284,82804,1,2,0:0:0:0:
224,288,82861,1,2,0:0:0:0:
208,292,82919,1,2,0:0:0:0:
180,280,82977,2,2,L|136:224,3,50,6|2|2|2,0:0|0:0|0:0|0:0,0:0:0:0:
148,340,83207,5,6,0:0:0:0:
167,337,83264,1,2,0:0:0:0:
184,326,83322,1,2,0:0:0:0:
194,309,83380,1,2,0:0:0:0:
196,289,83437,1,2,0:0:0:0:
188,271,83495,1,2,0:0:0:0:
174,258,83553,1,2,0:0:0:0:
155,252,83610,1,2,0:0:0:0:
136,252,83669,5,6,0:0:0:0:
139,271,83726,1,2,0:0:0:0:
150,287,83784,1,2,0:0:0:0:
168,297,83842,1,2,0:0:0:0:
188,300,83899,5,6,0:0:0:0:
206,306,83957,1,2,0:0:0:0:
221,319,84015,1,2,0:0:0:0:
229,337,84072,1,2,0:0:0:0:
232,356,84130,5,6,0:0:0:0:
392,176,84361,1,10,0:0:0:0:
324,356,84592,5,10,0:0:0:0:
320,116,84708,1,10,0:0:0:0:
232,352,84823,6,2,L|232:296,3,50,6|2|2|2,0:0|0:0|0:0|0:0,0:0:0:0:
232,180,85054,1,14,0:0:0:0:
232,180,85284,5,14,0:0:0:0:
220,196,85342,1,2,0:0:0:0:
204,208,85400,1,2,0:0:0:0:
184,212,85457,1,2,0:0:0:0:
156,180,85515,5,14,0:0:0:0:
140,180,85573,1,2,0:0:0:0:
124,180,85630,1,2,0:0:0:0:
108,180,85688,1,2,0:0:0:0:
80,208,85746,5,14,0:0:0:0:
60,188,85804,1,2,0:0:0:0:
56,160,85861,1,2,0:0:0:0:
64,132,85919,1,2,0:0:0:0:
100,112,85977,6,2,P|112:76|112:52,3,50,14|2|2|2,0:0|0:0|0:0|0:0,0:0:0:0:
168,168,86207,2,2,P|184:200|184:228,3,50,14|2|2|2,0:0|0:0|0:0|0:0,0:0:0:0:
220,96,86438,5,14,0:0:0:0:
240,96,86496,1,2,0:0:0:0:
260,96,86554,1,2,0:0:0:0:
280,96,86611,1,2,0:0:0:0:
304,64,86669,5,14,0:0:0:0:
324,64,86727,1,2,0:0:0:0:
344,64,86784,1,2,0:0:0:0:
364,64,86842,1,2,0:0:0:0:
388,96,86900,2,2,L|436:84,3,50,14|2|2|2,0:0|0:0|0:0|0:0,0:0:0:0:
392,192,87130,5,2,0:0:0:0:
382,209,87187,1,2,0:0:0:0:
376,228,87245,1,2,0:0:0:0:
376,248,87303,1,2,0:0:0:0:
380,268,87360,1,2,0:0:0:0:
389,285,87418,1,2,0:0:0:0:
402,301,87476,1,2,0:0:0:0:
418,312,87533,1,2,0:0:0:0:
448,288,87592,6,2,L|488:256,3,50,6|2|2|2,0:0|0:0|0:0|0:0,0:0:0:0:
368,228,87823,1,10,0:0:0:0:
368,228,88054,5,14,0:0:0:0:
368,178,88111,1,10,0:0:0:0:
368,128,88169,1,10,0:0:0:0:
368,78,88227,1,10,0:0:0:0:
368,28,88284,6,2,B|324:68|324:68|424:68,1,150,10|2,0:0|0:0,0:0:0:0:
368,128,88515,2,2,B|412:168|412:168|320:168,1,150,10|2,0:0|0:0,0:0:0:0:
368,228,88746,5,14,0:0:0:0:
368,248,88804,1,2,0:0:0:0:
368,268,88861,1,2,0:0:0:0:
368,288,88919,1,2,0:0:0:0:
392,320,88977,5,6,0:0:0:0:
359,297,89034,1,2,0:0:0:0:
320,290,89092,1,2,0:0:0:0:
281,300,89150,1,2,0:0:0:0:
252,328,89207,6,2,L|216:288,3,50,6|2|2|2,0:0|0:0|0:0|0:0,0:0:0:0:
252,216,89438,2,2,L|204:168,3,50,6|2|2|2,0:0|0:0|0:0|0:0,0:0:0:0:
140,208,89669,5,6,0:0:0:0:
136,200,89727,1,2,0:0:0:0:
132,192,89785,1,2,0:0:0:0:
128,184,89842,1,2,0:0:0:0:
144,156,89900,5,6,0:0:0:0:
148,148,89958,1,2,0:0:0:0:
152,140,90015,1,2,0:0:0:0:
156,132,90073,1,2,0:0:0:0:
140,104,90130,5,6,0:0:0:0:
136,96,90188,1,2,0:0:0:0:
132,88,90246,1,2,0:0:0:0:
128,80,90304,1,2,0:0:0:0:
144,56,90361,5,14,0:0:0:0:
148,56,90592,1,6,0:0:0:0:
152,56,90823,5,14,0:0:0:0:
181,52,90880,1,2,0:0:0:0:
210,60,90938,1,2,0:0:0:0:
235,76,90996,1,2,0:0:0:0:
260,94,91053,5,2,0:0:0:0:
285,110,91111,1,2,0:0:0:0:
312,121,91169,1,2,0:0:0:0:
342,127,91226,1,2,0:0:0:0:
372,125,91284,5,2,0:0:0:0:
401,117,91342,1,2,0:0:0:0:
427,103,91399,1,2,0:0:0:0:
450,84,91457,1,2,0:0:0:0:
464,56,91515,5,14,0:0:0:0:
348,32,91746,2,10,L|348:92,3,50
344,204,91977,5,14,0:0:0:0:
460,168,92092,1,10,0:0:0:0:
348,208,92207,6,10,L|404:240,3,50,14|10|10|10,0:0|0:0|0:0|0:0,0:0:0:0:
500,284,92438,1,14,0:0:0:0:
364,360,92669,5,6,0:0:0:0:
348,348,92727,1,2,0:0:0:0:
336,332,92785,1,2,0:0:0:0:
332,312,92842,1,2,0:0:0:0:
364,284,92900,5,6,0:0:0:0:
364,268,92958,1,2,0:0:0:0:
364,252,93015,1,2,0:0:0:0:
364,236,93073,1,2,0:0:0:0:
336,208,93130,5,6,0:0:0:0:
336,192,93188,1,2,0:0:0:0:
336,176,93245,1,2,0:0:0:0:
336,160,93303,1,2,0:0:0:0:
360,128,93362,6,2,P|372:92|372:68,3,50,6|2|2|2,0:0|0:0|0:0|0:0,0:0:0:0:
428,184,93592,2,2,P|444:216|444:244,3,50,6|2|2|2,0:0|0:0|0:0|0:0,0:0:0:0:
364,236,93823,5,6,0:0:0:0:
344,236,93881,1,2,0:0:0:0:
324,236,93939,1,2,0:0:0:0:
304,236,93996,1,2,0:0:0:0:
280,204,94054,5,6,0:0:0:0:
260,204,94112,1,2,0:0:0:0:
240,204,94169,1,2,0:0:0:0:
220,204,94227,1,2,0:0:0:0:
196,236,94285,6,2,L|148:224,3,50,6|2|2|2,0:0|0:0|0:0|0:0,0:0:0:0:
248,164,94515,2,2,L|288:128,3,50,6|2|2|2,0:0|0:0|0:0|0:0,0:0:0:0:
176,84,94746,5,6,0:0:0:0:
176,104,94804,1,2,0:0:0:0:
176,124,94862,1,2,0:0:0:0:
176,144,94919,1,2,0:0:0:0:
208,168,94977,5,6,0:0:0:0:
208,180,95035,1,2,0:0:0:0:
208,192,95092,1,2,0:0:0:0:
208,204,95150,1,2,0:0:0:0:
188,228,95208,6,2,L|176:276,3,50,6|2|2|2,0:0|0:0|0:0|0:0,0:0:0:0:
292,288,95438,1,14,0:0:0:0:
336,268,95496,1,10,0:0:0:0:
360,224,95554,1,10,0:0:0:0:
348,176,95611,1,10,0:0:0:0:
304,152,95669,5,14,0:0:0:0:
308,152,95727,1,10,0:0:0:0:
312,152,95784,1,10,0:0:0:0:
316,152,95842,1,10,0:0:0:0:
320,152,95900,2,2,L|320:100,3,50,14|2|2|2,0:0|0:0|0:0|0:0,0:0:0:0:
240,192,96130,5,14,0:0:0:0:
236,195,96187,1,2,0:0:0:0:
232,198,96246,1,2,0:0:0:0:
228,201,96303,1,2,0:0:0:0:
224,202,96360,1,2,0:0:0:0:
220,203,96418,1,2,0:0:0:0:
216,203,96476,1,2,0:0:0:0:
212,202,96533,1,2,0:0:0:0:
208,201,96591,1,2,0:0:0:0:
204,199,96649,1,2,0:0:0:0:
200,197,96706,1,2,0:0:0:0:
196,195,96764,1,2,0:0:0:0:
192,193,96823,1,2,0:0:0:0:
188,191,96880,1,2,0:0:0:0:
184,190,96938,1,2,0:0:0:0:
180,190,96996,1,2,0:0:0:0:
176,188,97054,5,10,0:0:0:0:
172,186,97111,1,2,0:0:0:0:
168,183,97169,1,2,0:0:0:0:
164,180,97227,1,2,0:0:0:0:
160,177,97284,1,2,0:0:0:0:
156,175,97342,1,2,0:0:0:0:
152,174,97400,1,2,0:0:0:0:
148,173,97457,1,2,0:0:0:0:
144,172,97515,1,2,0:0:0:0:
140,172,97573,1,2,0:0:0:0:
136,172,97630,1,2,0:0:0:0:
132,172,97688,1,2,0:0:0:0:
128,173,97746,1,2,0:0:0:0:
124,174,97804,1,2,0:0:0:0:
120,175,97861,1,2,0:0:0:0:
116,175,97919,1,2,0:0:0:0:
112,176,97977,1,2,0:0:0:0:
108,176,98034,1,2,0:0:0:0:
104,176,98092,1,2,0:0:0:0:
100,176,98150,1,2,0:0:0:0:
96,174,98207,1,2,0:0:0:0:
92,172,98265,1,2,0:0:0:0:
88,169,98323,1,2,0:0:0:0:
84,165,98380,1,2,0:0:0:0:
80,161,98438,6,2,P|76:121|80:105,3,50
128,208,98669,5,6,0:0:0:0:
141,201,98726,1,2,0:0:0:0:
156,199,98784,1,2,0:0:0:0:
170,203,98842,1,2,0:0:0:0:
184,212,98900,5,10,0:0:0:0:
204,220,98957,1,2,0:0:0:0:
224,220,99015,1,2,0:0:0:0:
244,212,99073,1,2,0:0:0:0:
260,200,99130,5,6,0:0:0:0:
284,192,99188,1,2,0:0:0:0:
308,192,99246,1,2,0:0:0:0:
332,200,99304,1,2,0:0:0:0:
352,216,99361,2,2,P|364:240|368:272,7,50,6|2|2|2|2|2|2|2,0:0|0:0|0:0|0:0|0:0|0:0|0:0|0:0,0:0:0:0:
444,192,99823,5,14,0:0:0:0:
441,188,99880,1,2,0:0:0:0:
438,184,99939,1,2,0:0:0:0:
435,180,99996,1,2,0:0:0:0:
434,176,100053,1,2,0:0:0:0:
433,172,100111,1,2,0:0:0:0:
433,168,100169,1,2,0:0:0:0:
434,164,100226,1,2,0:0:0:0:
435,160,100284,1,2,0:0:0:0:
437,156,100342,1,2,0:0:0:0:
439,152,100399,1,2,0:0:0:0:
441,148,100457,1,2,0:0:0:0:
443,144,100516,1,2,0:0:0:0:
445,140,100573,1,2,0:0:0:0:
446,136,100631,1,2,0:0:0:0:
446,132,100689,1,2,0:0:0:0:
448,128,100747,5,10,0:0:0:0:
452,124,100804,1,2,0:0:0:0:
454,120,100862,1,2,0:0:0:0:
457,116,100920,1,2,0:0:0:0:
459,112,100977,1,2,0:0:0:0:
461,108,101035,1,2,0:0:0:0:
462,104,101093,1,2,0:0:0:0:
463,100,101150,1,2,0:0:0:0:
464,96,101208,1,2,0:0:0:0:
464,92,101266,1,2,0:0:0:0:
464,88,101323,1,2,0:0:0:0:
464,84,101381,1,2,0:0:0:0:
463,80,101439,1,2,0:0:0:0:
462,76,101497,1,2,0:0:0:0:
461,72,101554,1,2,0:0:0:0:
461,68,101612,1,2,0:0:0:0:
460,64,101670,1,2,0:0:0:0:
460,60,101727,1,2,0:0:0:0:
460,56,101785,1,2,0:0:0:0:
460,52,101843,1,2,0:0:0:0:
460,48,101900,6,2,P|497:33|514:33,3,50,6|2|2|2,0:0|0:0|0:0|0:0,0:0:0:0:
400,120,102130,2,2,P|376:112|348:116,3,50,6|2|2|2,0:0|0:0|0:0|0:0,0:0:0:0:
428,204,102361,5,6,0:0:0:0:
428,208,102419,1,2,0:0:0:0:
428,212,102477,1,2,0:0:0:0:
428,216,102534,1,2,0:0:0:0:
428,220,102592,5,10,0:0:0:0:
376,220,102650,1,10,0:0:0:0:
328,220,102707,1,10,0:0:0:0:
276,220,102765,1,10,0:0:0:0:
224,220,102823,1,10,0:0:0:0:
216,220,103054,5,10,0:0:0:0:
268,220,103112,1,10,0:0:0:0:
316,220,103169,1,10,0:0:0:0:
368,220,103227,1,10,0:0:0:0:
424,220,103284,2,2,B|392:260|392:260|288:260,1,150.000005722046,14|2,0:0|0:0,0:0:0:0:
216,220,103515,5,14,0:0:0:0:
172,200,103573,1,10,0:0:0:0:
148,156,103631,1,10,0:0:0:0:
160,108,103688,1,10,0:0:0:0:
204,84,103746,5,14,0:0:0:0:
200,84,103804,1,10,0:0:0:0:
196,84,103861,1,10,0:0:0:0:
192,84,103919,1,10,0:0:0:0:
188,84,103977,6,2,L|188:32,3,50,14|2|2|2,0:0|0:0|0:0|0:0,0:0:0:0:
288,76,104207,2,0,L|288:24,3,50,6|0|0|0,0:0|0:0|0:0|0:0,0:0:0:0:
356,128,104437,5,10,0:0:0:0:
360,127,104495,1,2,0:0:0:0:
364,127,104554,1,2,0:0:0:0:
368,128,104610,1,2,0:0:0:0:
372,129,104668,1,6,0:0:0:0:
376,131,104726,1,2,0:0:0:0:
380,133,104783,1,2,0:0:0:0:
384,135,104841,1,2,0:0:0:0:
388,137,104900,1,6,0:0:0:0:
392,139,104957,1,2,0:0:0:0:
396,140,105015,1,2,0:0:0:0:
400,140,105073,1,2,0:0:0:0:
404,142,105131,5,6,0:0:0:0:
408,146,105188,1,2,0:0:0:0:
412,148,105246,1,2,0:0:0:0:
416,151,105304,1,2,0:0:0:0:
420,153,105361,1,2,0:0:0:0:
424,155,105419,1,2,0:0:0:0:
428,156,105477,1,2,0:0:0:0:
432,157,105534,1,2,0:0:0:0:
436,158,105592,5,6,0:0:0:0:
440,158,105650,1,2,0:0:0:0:
444,158,105707,1,2,0:0:0:0:
448,158,105765,1,2,0:0:0:0:
452,157,105823,1,6,0:0:0:0:
456,156,105881,1,2,0:0:0:0:
460,155,105938,1,2,0:0:0:0:
464,155,105996,1,2,0:0:0:0:
468,154,106054,1,6,0:0:0:0:
472,154,106111,1,2,0:0:0:0:
476,154,106169,1,2,0:0:0:0:
480,154,106227,1,2,0:0:0:0:
484,154,106284,6,2,P|488:194|484:210,3,50,14|2|2|2,0:0|0:0|0:0|0:0,0:0:0:0:
420,306,106515,2,2,P|416:274|404:246,3,50,6|2|2|2,0:0|0:0|0:0|0:0,0:0:0:0:
356,148,106746,5,14,0:0:0:0:
336,104,106804,1,10,0:0:0:0:
292,80,106862,1,10,0:0:0:0:
244,92,106919,1,10,0:0:0:0:
220,136,106977,5,14,0:0:0:0:
220,132,107035,1,10,0:0:0:0:
220,128,107092,1,10,0:0:0:0:
220,124,107150,1,10,0:0:0:0:
220,120,107208,6,2,L|168:120,3,50,14|2|2|2,0:0|0:0|0:0|0:0,0:0:0:0:
88,156,107438,5,14,0:0:0:0:
91,160,107495,1,2,0:0:0:0:
94,164,107554,1,2,0:0:0:0:
97,168,107611,1,2,0:0:0:0:
98,172,107668,1,6,0:0:0:0:
99,176,107726,1,2,0:0:0:0:
99,180,107784,1,2,0:0:0:0:
98,184,107841,1,2,0:0:0:0:
97,188,107899,1,6,0:0:0:0:
95,192,107957,1,2,0:0:0:0:
93,196,108014,1,2,0:0:0:0:
91,200,108072,1,2,0:0:0:0:
89,204,108131,5,10,0:0:0:0:
87,208,108188,1,2,0:0:0:0:
86,212,108246,1,2,0:0:0:0:
86,216,108304,1,2,0:0:0:0:
84,220,108362,1,2,0:0:0:0:
80,224,108419,1,2,0:0:0:0:
78,228,108477,1,2,0:0:0:0:
75,232,108535,1,2,0:0:0:0:
73,236,108592,1,6,0:0:0:0:
71,240,108650,1,2,0:0:0:0:
70,244,108708,1,2,0:0:0:0:
69,248,108765,1,2,0:0:0:0:
68,252,108823,1,6,0:0:0:0:
68,256,108881,1,2,0:0:0:0:
68,260,108938,1,2,0:0:0:0:
68,264,108996,1,2,0:0:0:0:
69,268,109054,1,2,0:0:0:0:
70,272,109112,1,2,0:0:0:0:
71,276,109169,1,2,0:0:0:0:
71,280,109227,1,2,0:0:0:0:
72,284,109285,1,6,0:0:0:0:
72,288,109342,1,2,0:0:0:0:
72,292,109400,1,2,0:0:0:0:
72,296,109458,1,2,0:0:0:0:
72,300,109515,6,2,P|35:315|18:315,3,50,6|2|2|2,0:0|0:0|0:0|0:0,0:0:0:0:
132,228,109745,2,2,P|156:236|184:232,3,50,6|2|2|2,0:0|0:0|0:0|0:0,0:0:0:0:
152,352,109977,6,10,L|208:352,2,50
64,296,110207,2,10,L|8:296,2,50
128,272,110438,5,14,0:0:0:0:
148,316,110496,1,10,0:0:0:0:
192,340,110554,1,10,0:0:0:0:
240,328,110611,1,10,0:0:0:0:
264,284,110669,5,14,0:0:0:0:
264,288,110727,1,10,0:0:0:0:
264,292,110784,1,10,0:0:0:0:
264,296,110842,1,10,0:0:0:0:
264,300,110900,6,2,B|252:264|252:264|272:244|272:244|272:196,1,100,10|2,0:0|0:0,0:0:0:0:
380,164,111130,2,2,B|392:128|392:128|372:108|372:108|372:60,1,100,10|2,0:0|0:0,0:0:0:0:
260,304,111361,6,2,B|272:268|272:268|252:248|252:248|252:200,1,100,10|2,0:0|0:0,0:0:0:0:
144,168,111591,2,2,B|132:132|132:132|152:112|152:112|152:64,1,100,10|2,0:0|0:0,0:0:0:0:
308,184,111823,5,10,0:0:0:0:
200,40,111934,1,2,0:0:0:0:
368,100,112045,1,10,0:0:0:0:
216,196,112156,1,2,0:0:0:0:
396,212,112267,1,10,0:0:0:0:
276,348,112378,1,2,0:0:0:0:
244,112,112489,1,10,0:0:0:0:
384,308,112600,1,2,0:0:0:0:
304,92,112711,6,2,B|316:128|316:128|296:148|296:148|296:196,1,100,10|2,0:0|0:0,0:0:0:0:
188,228,112941,2,2,B|176:264|176:264|196:284|196:284|196:332,1,100,10|2,0:0|0:0,0:0:0:0:
308,88,113172,6,2,B|296:124|296:124|316:144|316:144|316:192,1,100,10|2,0:0|0:0,0:0:0:0:
424,224,113402,2,2,B|436:260|436:260|416:280|416:280|416:328,1,100,10|2,0:0|0:0,0:0:0:0:
180,256,113634,5,8,0:0:0:0:
280,36,113749,1,2,0:0:0:0:
420,228,113864,2,2,L|472:128,1,100,10|2,0:0|0:0,0:0:0:0:
420,228,114095,2,2,L|472:132,1,100,10|2,0:0|0:0,0:0:0:0:
492,84,114326,5,10,0:0:0:0:
464,72,114384,1,10,0:0:0:0:
436,72,114441,1,10,0:0:0:0:
408,76,114499,1,10,0:0:0:0:
380,88,114557,6,2,L|320:36,1,75.0000028610231,10|2,0:0|0:0,0:0:0:0:
380,176,114787,2,10,L|412:200,2,37.5000014305115
484,284,115018,6,2,P|432:268|384:280,1,75.0000028610231,10|2,0:0|0:0,0:0:0:0:
284,352,115249,2,2,P|336:328|368:336,1,75.0000028610231,10|2,0:0|0:0,0:0:0:0:
204,360,115480,5,10,0:0:0:0:
204,360,115595,1,2,0:0:0:0:
88,264,115711,5,10,0:0:0:0:
88,264,115826,1,2,0:0:0:0:
168,140,115941,6,2,L|192:64,1,75.0000028610231,10|2,0:0|0:0,0:0:0:0:
76,164,116172,2,2,L|44:76,1,75.0000028610231,10|2,0:0|0:0,0:0:0:0:
140,216,116403,5,10,0:0:0:0:
140,216,116518,1,2,0:0:0:0:
284,176,116634,5,10,0:0:0:0:
284,176,116749,1,2,0:0:0:0:
364,300,116864,6,2,L|376:216,1,75.0000028610231,10|2,0:0|0:0,0:0:0:0:
368,308,117095,2,2,L|380:224,1,75.0000028610231,10|2,0:0|0:0,0:0:0:0:
396,72,117326,5,2,0:0:0:0:
400,72,117386,1,2,0:0:0:0:
404,72,117446,1,2,0:0:0:0:
408,72,117506,1,2,0:0:0:0:
412,72,117566,2,2,L|412:124,3,50
464,192,117806,5,2,0:0:0:0:
468,192,117866,1,2,0:0:0:0:
472,192,117926,1,2,0:0:0:0:
476,192,117986,1,2,0:0:0:0:
480,192,118046,2,2,L|480:244,3,50
416,296,118285,5,2,0:0:0:0:
408,296,118342,1,2,0:0:0:0:
400,296,118400,1,2,0:0:0:0:
392,296,118458,1,2,0:0:0:0:
376,268,118516,5,2,0:0:0:0:
368,268,118574,1,2,0:0:0:0:
360,268,118632,1,2,0:0:0:0:
352,268,118689,1,2,0:0:0:0:
316,288,118747,5,2,0:0:0:0:
334,266,118805,1,2,0:0:0:0:
339,237,118862,1,2,0:0:0:0:
325,210,118919,1,2,0:0:0:0:
342,173,118977,5,2,0:0:0:0:
346,172,119035,1,2,0:0:0:0:
350,172,119092,1,2,0:0:0:0:
354,171,119150,1,2,0:0:0:0:
358,171,119208,2,2,L|369:113,3,50
384,44,119438,5,2,0:0:0:0:
373,61,119495,1,2,0:0:0:0:
359,75,119553,1,2,0:0:0:0:
342,85,119611,1,2,0:0:0:0:
323,91,119668,1,2,0:0:0:0:
303,92,119726,1,2,0:0:0:0:
283,88,119784,1,2,0:0:0:0:
265,79,119841,1,2,0:0:0:0:
252,64,119900,2,2,L|240:128,3,50
164,112,120131,5,2,0:0:0:0:
160,112,120188,1,2,0:0:0:0:
156,112,120246,1,2,0:0:0:0:
152,112,120304,1,2,0:0:0:0:
148,112,120362,2,2,P|132:136|108:156,3,50
148,224,120592,5,2,0:0:0:0:
148,236,120650,1,2,0:0:0:0:
148,248,120708,1,2,0:0:0:0:
148,260,120765,1,2,0:0:0:0:
132,288,120823,5,2,0:0:0:0:
132,300,120881,1,2,0:0:0:0:
132,308,120938,1,2,0:0:0:0:
132,320,120996,1,2,0:0:0:0:
152,340,121054,5,2,0:0:0:0:
129,320,121111,1,2,0:0:0:0:
101,313,121169,1,2,0:0:0:0:
72,321,121227,1,2,0:0:0:0:
52,356,121285,5,2,0:0:0:0:
84,332,121342,1,2,0:0:0:0:
98,296,121400,1,2,0:0:0:0:
90,257,121458,1,2,0:0:0:0:
56,236,121515,2,2,L|56:288,3,50
128,188,121746,5,10,0:0:0:0:
171,171,121803,1,10,0:0:0:0:
171,124,121861,1,10,0:0:0:0:
126,109,121919,1,10,0:0:0:0:
97,145,121976,5,10,0:0:0:0:
104,152,122035,1,2,0:0:0:0:
110,159,122092,1,2,0:0:0:0:
119,164,122150,1,2,0:0:0:0:
128,167,122208,1,2,0:0:0:0:
138,167,122265,1,2,0:0:0:0:
148,166,122323,1,2,0:0:0:0:
160,164,122381,1,2,0:0:0:0:
168,160,122438,6,2,L|168:100,3,50
232,212,122669,2,2,L|232:268,3,50
288,156,122900,5,2,0:0:0:0:
288,164,122958,1,2,0:0:0:0:
288,172,123015,2,2,L|276:120,1,50
380,96,123131,5,2,0:0:0:0:
380,104,123188,1,2,0:0:0:0:
380,112,123246,2,2,L|408:60,1,50
460,180,123362,5,2,0:0:0:0:
460,184,123419,1,2,0:0:0:0:
460,188,123477,2,2,L|452:136,1,50
380,236,123592,5,2,0:0:0:0:
380,240,123650,1,2,0:0:0:0:
380,244,123708,2,2,L|360:188,1,50
428,300,123823,5,2,0:0:0:0:
420,300,123881,1,2,0:0:0:0:
412,300,123938,1,2,0:0:0:0:
404,304,123996,1,2,0:0:0:0:
396,308,124054,1,2,0:0:0:0:
388,316,124112,1,2,0:0:0:0:
380,320,124169,1,2,0:0:0:0:
372,324,124227,1,2,0:0:0:0:
364,324,124285,1,2,0:0:0:0:
356,324,124342,1,2,0:0:0:0:
348,320,124400,1,2,0:0:0:0:
340,316,124458,1,2,0:0:0:0:
336,308,124515,2,2,P|328:272|336:256,3,50
400,200,124746,5,2,0:0:0:0:
400,192,124804,1,2,0:0:0:0:
400,184,124862,1,2,0:0:0:0:
400,176,124919,1,2,0:0:0:0:
432,152,124977,5,2,0:0:0:0:
432,144,125035,1,2,0:0:0:0:
432,136,125092,1,2,0:0:0:0:
432,128,125150,1,2,0:0:0:0:
408,96,125208,6,2,L|396:44,3,50
448,240,125438,1,6,0:0:0:0:
448,244,125669,1,6,0:0:0:0:
448,248,125900,5,10,0:0:0:0:
392,168,126015,1,10,0:0:0:0:
416,316,126131,5,10,0:0:0:0:
484,184,126246,1,10,0:0:0:0:
304,272,126362,5,10,0:0:0:0:
312,72,126477,1,10,0:0:0:0:
476,188,126593,5,10,0:0:0:0:
276,172,126708,1,10,0:0:0:0:
100,348,126823,5,10,0:0:0:0:
280,176,126938,1,10,0:0:0:0:
40,104,127054,5,10,0:0:0:0:
204,292,127169,1,10,0:0:0:0:
36,104,127285,5,10,0:0:0:0:
200,292,127400,1,10,0:0:0:0:
392,64,127515,5,10,0:0:0:0:
92,40,127631,1,10,0:0:0:0:
352,272,127746,5,10,0:0:0:0:
88,40,127862,1,10,0:0:0:0:
352,272,127978,6,2,B|380:232|380:232|372:172|372:172|372:116|372:116|320:136|320:176,1,247.500002360344,10|2,0:0|0:0,0:0:0:0:
308,256,128209,2,2,P|376:160|420:260,1,247.500002360344,10|2,0:0|0:0,0:0:0:0:
412,296,128438,5,10,0:0:0:0:
368,344,128496,1,10,0:0:0:0:
304,352,128554,1,10,0:0:0:0:
252,308,128612,1,10,0:0:0:0:
248,244,128669,1,10,0:0:0:0:
268,180,128727,1,10,0:0:0:0:
252,116,128785,1,10,0:0:0:0:
200,76,128842,1,10,0:0:0:0:
132,76,128901,2,10,P|244:136|340:92,1,227.499989585877
328,96,129362,5,10,0:0:0:0:
302,115,129419,1,10,0:0:0:0:
272,128,129477,1,10,0:0:0:0:
240,132,129535,1,10,0:0:0:0:
208,128,129592,1,10,0:0:0:0:
178,115,129650,1,10,0:0:0:0:
152,95,129708,1,10,0:0:0:0:
133,70,129765,1,10,0:0:0:0:
128,36,129823,2,10,P|168:120|100:224,1,227.499989585877
100,223,130285,5,10,0:0:0:0:
128,208,130342,1,10,0:0:0:0:
151,185,130400,1,10,0:0:0:0:
166,156,130458,1,10,0:0:0:0:
171,124,130515,1,10,0:0:0:0:
166,92,130573,1,10,0:0:0:0:
152,63,130631,1,10,0:0:0:0:
130,40,130688,1,10,0:0:0:0:
99,27,130746,2,10,P|168:112|275:59,1,227.499989585877
261,86,131208,5,10,0:0:0:0:
237,107,131265,1,10,0:0:0:0:
207,119,131323,1,10,0:0:0:0:
175,119,131381,1,10,0:0:0:0:
145,108,131438,1,10,0:0:0:0:
120,87,131496,1,10,0:0:0:0:
104,59,131554,1,10,0:0:0:0:
99,27,131611,1,10,0:0:0:0:
112,0,131669,2,10,L|360:0,1,227.499989585877
339,0,132131,5,10,0:0:0:0:
307,0,132188,1,10,0:0:0:0:
274,0,132246,1,10,0:0:0:0:
242,0,132304,1,10,0:0:0:0:
209,0,132361,1,10,0:0:0:0:
177,0,132419,1,10,0:0:0:0:
144,0,132477,1,10,0:0:0:0:
112,0,132534,1,10,0:0:0:0:
80,0,132592,1,10,0:0:0:0:
80,0,133054,5,10,0:0:0:0:
56,21,133111,1,10,0:0:0:0:
46,52,133169,1,10,0:0:0:0:
53,83,133227,1,10,0:0:0:0:
80,104,133285,1,10,0:0:0:0:
104,125,133342,1,10,0:0:0:0:
114,156,133400,1,10,0:0:0:0:
107,187,133458,1,10,0:0:0:0:
88,212,133515,1,10,0:0:0:0:
88,216,133977,5,10,0:0:0:0:
109,239,134034,1,10,0:0:0:0:
140,249,134092,1,10,0:0:0:0:
171,242,134150,1,10,0:0:0:0:
192,216,134208,1,10,0:0:0:0:
213,192,134265,1,10,0:0:0:0:
244,182,134323,1,10,0:0:0:0:
275,189,134381,1,10,0:0:0:0:
300,208,134438,1,10,0:0:0:0:
300,208,134900,5,10,0:0:0:0:
297,176,134957,1,10,0:0:0:0:
312,147,135015,1,10,0:0:0:0:
339,130,135073,1,10,0:0:0:0:
373,134,135131,1,10,0:0:0:0:
405,136,135188,1,10,0:0:0:0:
434,121,135246,1,10,0:0:0:0:
451,94,135304,1,10,0:0:0:0:
455,63,135361,1,10,0:0:0:0:
455,63,135823,5,10,0:0:0:0:
431,84,135880,1,10,0:0:0:0:
421,115,135938,1,10,0:0:0:0:
428,146,135996,1,10,0:0:0:0:
455,167,136054,1,10,0:0:0:0:
479,188,136111,1,10,0:0:0:0:
489,219,136169,1,10,0:0:0:0:
482,250,136227,1,10,0:0:0:0:
460,272,136285,5,10,0:0:0:0:
451,262,136342,1,2,0:0:0:0:
444,251,136400,1,2,0:0:0:0:
440,238,136458,1,2,0:0:0:0:
439,225,136515,1,2,0:0:0:0:
440,213,136573,1,2,0:0:0:0:
444,200,136631,1,2,0:0:0:0:
450,189,136688,1,2,0:0:0:0:
464,184,136746,5,10,0:0:0:0:
442,207,136803,1,10,0:0:0:0:
411,217,136861,1,10,0:0:0:0:
380,210,136919,1,10,0:0:0:0:
360,184,136977,1,10,0:0:0:0:
339,160,137034,1,10,0:0:0:0:
308,150,137092,1,10,0:0:0:0:
277,157,137150,1,10,0:0:0:0:
252,180,137208,5,10,0:0:0:0:
261,189,137265,1,2,0:0:0:0:
272,195,137323,1,2,0:0:0:0:
284,199,137381,1,2,0:0:0:0:
297,199,137438,1,2,0:0:0:0:
310,197,137496,1,2,0:0:0:0:
322,191,137554,1,2,0:0:0:0:
331,182,137611,1,2,0:0:0:0:
336,172,137669,5,10,0:0:0:0:
312,193,137726,1,10,0:0:0:0:
302,224,137784,1,10,0:0:0:0:
309,255,137842,1,10,0:0:0:0:
336,276,137900,1,10,0:0:0:0:
360,297,137957,1,10,0:0:0:0:
370,328,138015,1,10,0:0:0:0:
363,359,138073,1,10,0:0:0:0:
336,380,138131,5,10,0:0:0:0:
334,367,138188,1,2,0:0:0:0:
336,354,138246,1,2,0:0:0:0:
340,341,138304,1,2,0:0:0:0:
347,330,138361,1,2,0:0:0:0:
356,321,138419,1,2,0:0:0:0:
367,314,138477,1,2,0:0:0:0:
379,309,138534,1,2,0:0:0:0:
389,310,138592,5,10,0:0:0:0:
367,286,138649,1,10,0:0:0:0:
336,276,138707,1,10,0:0:0:0:
305,283,138765,1,10,0:0:0:0:
285,310,138823,1,10,0:0:0:0:
264,334,138880,1,10,0:0:0:0:
233,344,138938,1,10,0:0:0:0:
202,337,138996,1,10,0:0:0:0:
184,312,139054,2,2,P|176:280|180:264,7,32.4999985122681,10|2|2|2|2|2|2|2,0:0|0:0|0:0|0:0|0:0|0:0|0:0|0:0,0:0:0:0:
92,248,139515,5,10,0:0:0:0:
68,226,139572,1,10,0:0:0:0:
58,195,139630,1,10,0:0:0:0:
65,164,139688,1,10,0:0:0:0:
92,144,139746,1,10,0:0:0:0:
116,123,139803,1,10,0:0:0:0:
126,92,139861,1,10,0:0:0:0:
119,61,139919,1,10,0:0:0:0:
100,36,139977,5,10,0:0:0:0:
100,49,140034,1,2,0:0:0:0:
100,62,140092,1,2,0:0:0:0:
100,75,140150,1,2,0:0:0:0:
100,88,140207,1,2,0:0:0:0:
100,101,140265,1,2,0:0:0:0:
100,114,140323,1,2,0:0:0:0:
100,126,140380,1,2,0:0:0:0:
100,140,140438,5,10,0:0:0:0:
116,123,140495,1,10,0:0:0:0:
92,116,140553,1,10,0:0:0:0:
64,116,140612,1,10,0:0:0:0:
32,140,140670,1,0,0:0:0:0:
32,180,140726,1,10,0:0:0:0:
56,212,140784,1,10,0:0:0:0:
96,220,140841,1,10,0:0:0:0:
136,212,140900,5,10,0:0:0:0:
172,188,140957,1,2,0:0:0:0:
212,168,141015,1,2,0:0:0:0:
256,168,141073,1,2,0:0:0:0:
296,188,141130,1,2,0:0:0:0:
316,228,141188,1,2,0:0:0:0:
316,272,141246,1,2,0:0:0:0:
296,312,141303,1,2,0:0:0:0:
268,324,141362,6,10,L|256:280,7,32.4999985122681
216,196,141823,2,2,L|216:152,7,32.4999985122681,10|2|2|2|2|2|2|2,0:0|0:0|0:0|0:0|0:0|0:0|0:0|0:0,0:0:0:0:
112,230,142285,5,10,0:0:0:0:
92,286,142343,1,10,0:0:0:0:
120,338,142401,1,10,0:0:0:0:
180,350,142458,1,10,0:0:0:0:
232,318,142516,1,10,0:0:0:0:
272,270,142574,1,10,0:0:0:0:
328,258,142631,1,10,0:0:0:0:
388,274,142688,1,10,0:0:0:0:
412,326,142746,5,10,0:0:0:0:
412,313,142803,1,2,0:0:0:0:
412,301,142861,1,2,0:0:0:0:
412,288,142919,1,2,0:0:0:0:
412,276,142976,1,2,0:0:0:0:
412,263,143034,1,2,0:0:0:0:
412,251,143092,1,2,0:0:0:0:
412,238,143149,1,2,0:0:0:0:
412,227,143208,6,2,L|412:167,3,50
356,86,143438,2,10,L|356:142,3,50
356,234,143669,1,14,0:0:0:0:
352,220,144131,5,6,0:0:0:0:
336,88,144285,1,4,0:0:0:0:
416,196,144438,1,4,0:0:0:0:
288,240,144592,1,4,0:0:0:0:
244,44,144746,1,4,0:0:0:0:
348,128,144900,1,4,0:0:0:0:
224,176,145054,1,4,0:0:0:0:
224,176,145515,5,4,0:0:0:0:
348,224,145669,1,4,0:0:0:0:
308,96,145823,1,4,0:0:0:0:
440,88,145977,1,4,0:0:0:0:
440,88,146362,5,4,0:0:0:0:
412,220,146516,1,4,0:0:0:0:
384,88,146670,1,4,0:0:0:0:
468,192,146824,1,4,0:0:0:0:
336,180,146978,1,4,0:0:0:0:
456,120,147132,1,4,0:0:0:0:
412,244,147286,2,4,L|412:104,1,133.333333333333
412,24,147593,1,4,0:0:0:0:
412,156,147747,6,4,L|412:292,1,133.333333333333
412,376,148055,1,4,0:0:0:0:
336,268,148209,1,4,0:0:0:0:
268,384,148362,1,4,0:0:0:0:
172,292,148516,1,4,0:0:0:0:
96,376,148670,1,4,0:0:0:0:
96,376,149132,5,4,0:0:0:0:
224,224,149286,1,4,0:0:0:0:
68,104,149439,1,4,0:0:0:0:
264,72,149593,1,4,0:0:0:0:
264,72,150055,5,4,0:0:0:0:
280,272,150209,1,4,0:0:0:0:
392,108,150362,1,4,0:0:0:0:
204,176,150592,5,10,0:0:0:0:
140,156,150669,1,10,0:0:0:0:
132,88,150747,1,10,0:0:0:0:
188,52,150823,2,10,P|196:92|184:120,2,66.6666666666667
88,216,151054,5,10,0:0:0:0:
52,272,151131,1,10,0:0:0:0:
68,336,151208,1,10,0:0:0:0:
128,364,151285,2,10,P|156:316|156:288,2,66.6666666666667
228,288,151515,5,14,0:0:0:0:
360,272,151669,1,6,0:0:0:0:
252,352,151822,1,6,0:0:0:0:
208,224,151976,1,6,0:0:0:0:
404,180,152130,1,6,0:0:0:0:
320,284,152284,1,6,0:0:0:0:
272,160,152438,1,6,0:0:0:0:
272,160,152899,5,6,0:0:0:0:
224,284,153053,1,6,0:0:0:0:
352,244,153207,1,6,0:0:0:0:
360,376,153361,1,6,0:0:0:0:
360,376,153747,5,6,0:0:0:0:
228,348,153901,1,6,0:0:0:0:
360,320,154055,1,6,0:0:0:0:
232,288,154209,1,6,0:0:0:0:
356,236,154363,1,6,0:0:0:0:
444,336,154517,1,6,0:0:0:0:
204,348,154671,2,6,L|344:348,1,133.333333333333
424,348,154978,1,6,0:0:0:0:
292,348,155132,6,6,L|156:348,1,133.333333333333
72,348,155440,1,6,0:0:0:0:
180,272,155594,1,6,0:0:0:0:
64,204,155747,1,6,0:0:0:0:
156,108,155901,1,6,0:0:0:0:
72,32,156055,1,6,0:0:0:0:
72,32,156516,5,6,0:0:0:0:
224,160,156670,1,6,0:0:0:0:
344,4,156823,1,6,0:0:0:0:
376,200,156977,1,6,0:0:0:0:
376,200,157459,5,6,0:0:0:0:
176,216,157632,1,6,0:0:0:0:
340,328,157805,1,6,0:0:0:0:
272,140,157978,2,6,L|232:40,1,100.000003814697
376,200,158285,1,6,0:0:0:0:
376,200,158438,2,6,L|404:92,2,100.000003814697
364,280,158901,5,6,0:0:0:0:
332,312,158958,1,2,0:0:0:0:
288,324,159015,1,2,0:0:0:0:
244,312,159073,1,2,0:0:0:0:
220,272,159131,1,2,0:0:0:0:
196,232,159188,1,2,0:0:0:0:
152,216,159246,1,2,0:0:0:0:
108,224,159304,1,2,0:0:0:0:
76,256,159362,1,2,0:0:0:0:
72,304,159419,1,2,0:0:0:0:
104,336,159477,1,2,0:0:0:0:
152,340,159535,1,2,0:0:0:0:
192,320,159593,5,2,0:0:0:0:
220,292,159650,1,2,0:0:0:0:
256,280,159708,1,2,0:0:0:0:
296,284,159765,1,2,0:0:0:0:
328,308,159823,5,10,0:0:0:0:
332,308,160054,1,0,0:0:0:0:
336,308,160285,1,10,0:0:0:0:
340,308,160342,1,10,0:0:0:0:
344,308,160400,1,10,0:0:0:0:
348,308,160458,1,10,0:0:0:0:
352,308,160515,1,10,0:0:0:0:
356,308,160573,1,10,0:0:0:0:
360,308,160631,1,10,0:0:0:0:
364,308,160688,1,10,0:0:0:0:
368,308,160746,5,6,0:0:0:0:
408,296,160804,1,2,0:0:0:0:
420,256,160862,1,2,0:0:0:0:
408,220,160919,1,2,0:0:0:0:
380,192,160977,1,2,0:0:0:0:
344,176,161035,1,2,0:0:0:0:
316,148,161092,1,2,0:0:0:0:
304,108,161150,1,2,0:0:0:0:
312,68,161208,5,2,0:0:0:0:
331,101,161265,1,2,0:0:0:0:
326,140,161323,1,2,0:0:0:0:
297,167,161381,1,2,0:0:0:0:
268,192,161438,5,2,0:0:0:0:
249,225,161495,1,2,0:0:0:0:
254,264,161553,1,2,0:0:0:0:
283,291,161611,1,2,0:0:0:0:
324,292,161669,2,2,L|320:240,3,50,10|2|2|2,0:0|0:0|0:0|0:0,0:0:0:0:
400,224,161900,5,2,0:0:0:0:
404,224,161958,1,2,0:0:0:0:
408,224,162015,1,2,0:0:0:0:
412,224,162073,1,2,0:0:0:0:
416,224,162131,1,2,0:0:0:0:
420,224,162188,1,2,0:0:0:0:
424,224,162246,1,2,0:0:0:0:
428,224,162304,1,2,0:0:0:0:
432,224,162362,6,2,L|440:168,3,50
452,96,162592,1,2,0:0:0:0:
452,96,162823,5,8,0:0:0:0:
398,70,162881,1,8,0:0:0:0:
341,93,162939,1,8,0:0:0:0:
319,149,162996,1,8,0:0:0:0:
336,206,163054,1,8,0:0:0:0:
353,262,163112,1,8,0:0:0:0:
321,310,163169,1,8,0:0:0:0:
262,325,163227,1,8,0:0:0:0:
214,293,163285,1,12,0:0:0:0:
216,300,163516,5,12,0:0:0:0:
188,303,163573,1,8,0:0:0:0:
155,303,163631,1,8,0:0:0:0:
125,303,163689,1,8,0:0:0:0:
95,303,163746,2,2,L|39:302,3,50,14|2|2|2,0:0|0:0|0:0|0:0,0:0:0:0:
176,236,163977,5,12,0:0:0:0:
212,207,164034,1,8,0:0:0:0:
258,219,164092,1,8,0:0:0:0:
275,264,164150,1,8,0:0:0:0:
249,304,164208,2,2,L|288:343,3,50,14|2|2|2,0:0|0:0|0:0|0:0,0:0:0:0:
166,153,164438,5,8,0:0:0:0:
129,240,164553,1,8,0:0:0:0:
171,158,164669,5,8,0:0:0:0:
197,257,164784,1,8,0:0:0:0:
171,153,164900,6,8,B|142:136|142:136|139:99|139:99|117:76,1,100
123,246,165130,2,8,B|94:229|94:229|91:192|91:192|69:169,1,100
202,257,165361,5,8,0:0:0:0:
284,339,165476,1,8,0:0:0:0:
378,365,165592,5,8,0:0:0:0:
149,169,165707,1,8,0:0:0:0:
380,362,165823,6,0,P|385:299|419:277,1,97.4999955368044,8|0,0:0|0:0,0:0:0:0:
491,223,166053,1,8,0:0:0:0:
485,218,166111,1,8,0:0:0:0:
479,212,166169,1,8,0:0:0:0:
474,206,166226,1,8,0:0:0:0:
484,191,166284,5,8,0:0:0:0:
484,188,166515,5,14,0:0:0:0:
468,152,166573,1,10,0:0:0:0:
436,128,166631,1,10,0:0:0:0:
396,120,166688,1,10,0:0:0:0:
356,128,166746,1,14,0:0:0:0:
324,152,166804,1,10,0:0:0:0:
304,188,166862,1,10,0:0:0:0:
276,216,166919,1,10,0:0:0:0:
240,232,166977,1,14,0:0:0:0:
200,236,167035,1,10,0:0:0:0:
164,224,167092,1,10,0:0:0:0:
136,196,167150,1,10,0:0:0:0:
132,156,167208,5,14,0:0:0:0:
292,156,167439,1,6,0:0:0:0:
144,92,167669,6,10,L|80:92,3,50
264,32,167900,2,10,L|320:32,3,50
88,200,168131,5,14,0:0:0:0:
116,189,168188,1,2,0:0:0:0:
144,195,168246,1,2,0:0:0:0:
167,212,168304,1,2,0:0:0:0:
184,240,168361,1,2,0:0:0:0:
189,268,168419,1,2,0:0:0:0:
203,294,168477,1,2,0:0:0:0:
223,314,168534,1,2,0:0:0:0:
252,325,168592,5,2,0:0:0:0:
285,319,168650,1,2,0:0:0:0:
311,294,168708,1,2,0:0:0:0:
325,263,168765,1,2,0:0:0:0:
319,229,168823,1,2,0:0:0:0:
302,199,168881,1,2,0:0:0:0:
276,176,168938,1,2,0:0:0:0:
241,173,168996,1,2,0:0:0:0:
214,198,169054,5,10,0:0:0:0:
248,220,169111,1,2,0:0:0:0:
288,220,169169,1,2,0:0:0:0:
320,196,169227,1,2,0:0:0:0:
344,164,169285,1,0,0:0:0:0:
380,144,169342,1,0,0:0:0:0:
420,140,169400,1,0,0:0:0:0:
456,152,169458,1,0,0:0:0:0:
480,184,169515,5,0,0:0:0:0:
445,184,169572,1,0,0:0:0:0:
410,184,169630,1,0,0:0:0:0:
375,184,169688,1,0,0:0:0:0:
340,184,169745,5,6,0:0:0:0:
215,333,169862,1,6,0:0:0:0:
270,184,169977,1,6,0:0:0:0:
270,184,170208,5,10,0:0:0:0:
288,180,170265,1,10,0:0:0:0:
308,180,170323,1,10,0:0:0:0:
328,188,170381,1,10,0:0:0:0:
344,200,170438,5,14,0:0:0:0:
482,238,170553,1,6,0:0:0:0:
502,162,170669,5,6,0:0:0:0:
348,120,170784,1,6,0:0:0:0:
332,324,170901,1,6,0:0:0:0:
480,324,171016,1,6,0:0:0:0:
184,276,171132,1,6,0:0:0:0:
360,36,171247,1,6,0:0:0:0:
372,336,171362,1,6,0:0:0:0:
160,120,171478,1,6,0:0:0:0:
440,220,171592,6,2,P|445:253|459:273,3,50,14|2|2|2,0:0|0:0|0:0|0:0,0:0:0:0:
392,128,171824,1,10,0:0:0:0:
392,120,171882,1,10,0:0:0:0:
392,112,171939,1,10,0:0:0:0:
320,80,172170,5,10,0:0:0:0:
320,72,172228,1,10,0:0:0:0:
320,64,172285,1,10,0:0:0:0:
320,56,172343,1,0,0:0:0:0:
320,48,172516,5,6,0:0:0:0:
96,48,172747,1,6,0:0:0:0:
456,48,172978,1,6,0:0:0:0:
342,155,173208,5,10,0:0:0:0:
331,144,173265,1,2,0:0:0:0:
319,133,173323,1,10,0:0:0:0:
308,121,173381,1,2,0:0:0:0:
285,138,173438,5,10,0:0:0:0:
280,133,173496,1,2,0:0:0:0:
274,127,173554,1,2,0:0:0:0:
269,121,173612,1,2,0:0:0:0:
272,112,173670,5,6,0:0:0:0:
248,128,173727,1,2,0:0:0:0:
220,136,173785,1,2,0:0:0:0:
192,132,173843,1,2,0:0:0:0:
164,120,173901,1,2,0:0:0:0:
136,112,173958,1,2,0:0:0:0:
104,112,174016,1,2,0:0:0:0:
76,120,174074,1,2,0:0:0:0:
52,140,174131,1,2,0:0:0:0:
44,168,174189,1,2,0:0:0:0:
48,196,174247,1,2,0:0:0:0:
64,220,174304,1,2,0:0:0:0:
88,236,174362,1,2,0:0:0:0:
96,264,174420,1,2,0:0:0:0:
84,292,174477,1,2,0:0:0:0:
64,312,174535,1,2,0:0:0:0:
32,312,174593,6,2,L|96:336,3,50,6|2|2|2,0:0|0:0|0:0|0:0,0:0:0:0:
156,304,174824,2,2,L|216:332,3,50,6|2|2|2,0:0|0:0|0:0|0:0,0:0:0:0:
248,260,175055,5,6,0:0:0:0:
380,332,175286,1,6,0:0:0:0:
384,336,175516,5,6,0:0:0:0:
403,334,175573,1,2,0:0:0:0:
419,322,175631,1,2,0:0:0:0:
426,304,175689,1,2,0:0:0:0:
423,284,175746,1,2,0:0:0:0:
411,269,175804,1,2,0:0:0:0:
392,262,175862,1,2,0:0:0:0:
373,266,175919,1,2,0:0:0:0:
360,280,175977,5,6,0:0:0:0:
366,299,176034,1,2,0:0:0:0:
382,311,176092,1,2,0:0:0:0:
402,312,176150,1,2,0:0:0:0:
419,303,176207,1,2,0:0:0:0:
428,285,176265,1,2,0:0:0:0:
426,266,176323,1,2,0:0:0:0:
414,250,176380,1,2,0:0:0:0:
396,244,176439,6,2,P|372:248|348:268,3,50
412,108,176670,1,6,0:0:0:0:
412,112,176901,5,8,0:0:0:0:
384,144,176958,1,8,0:0:0:0:
340,152,177016,1,8,0:0:0:0:
304,128,177074,1,8,0:0:0:0:
280,92,177131,5,10,0:0:0:0:
264,92,177189,1,10,0:0:0:0:
248,92,177247,1,10,0:0:0:0:
232,92,177304,1,10,0:0:0:0:
208,76,177362,5,10,0:0:0:0:
204,80,177593,5,6,0:0:0:0:
188,104,177651,1,2,0:0:0:0:
180,132,177708,1,2,0:0:0:0:
180,164,177766,1,2,0:0:0:0:
188,192,177824,1,2,0:0:0:0:
200,220,177881,1,2,0:0:0:0:
204,248,177939,1,2,0:0:0:0:
200,276,177997,1,2,0:0:0:0:
184,300,178054,1,2,0:0:0:0:
156,312,178112,1,2,0:0:0:0:
128,308,178170,1,2,0:0:0:0:
104,292,178227,1,2,0:0:0:0:
96,264,178285,6,2,L|36:276,3,50,6|2|2|2,0:0|0:0|0:0|0:0,0:0:0:0:
128,148,178516,2,2,L|116:88,3,50,6|2|2|2,0:0|0:0|0:0|0:0,0:0:0:0:
284,204,178747,5,6,0:0:0:0:
444,140,178977,1,6,0:0:0:0:
284,204,179209,5,10,0:0:0:0:
284,204,179266,1,10,0:0:0:0:
284,204,179324,2,10,L|284:96,1,100
416,260,179554,1,10,0:0:0:0:
216,176,179670,5,10,0:0:0:0:
216,176,179727,1,10,0:0:0:0:
216,176,179785,2,10,L|216:68,1,100
84,232,180015,1,2,0:0:0:0:
368,324,180016,5,2,0:0:0:0:
368,320,180131,2,10,L|336:264,1,50
236,264,180246,2,10,L|272:316,1,50
320,376,180362,5,10,0:0:0:0:
320,356,180593,1,6,0:0:0:0:
320,336,180824,2,10,L|320:280,3,50
472,160,181054,5,6,0:0:0:0:
480,188,181111,1,2,0:0:0:0:
480,220,181169,1,2,0:0:0:0:
468,248,181227,1,2,0:0:0:0:
448,268,181285,1,2,0:0:0:0:
420,280,181342,1,2,0:0:0:0:
392,292,181400,1,2,0:0:0:0:
372,316,181458,1,2,0:0:0:0:
376,344,181515,5,6,0:0:0:0:
386,317,181573,1,2,0:0:0:0:
384,288,181631,1,2,0:0:0:0:
370,263,181688,1,2,0:0:0:0:
347,246,181746,1,2,0:0:0:0:
341,217,181804,1,2,0:0:0:0:
355,190,181861,1,2,0:0:0:0:
376,171,181919,1,2,0:0:0:0:
408,174,181977,6,2,L|345:145,3,50,6|2|2|2,0:0|0:0|0:0|0:0,0:0:0:0:
416,80,182208,2,2,L|358:47,3,50,6|2|2|2,0:0|0:0|0:0|0:0,0:0:0:0:
292,148,182439,5,6,0:0:0:0:
168,64,182670,1,6,0:0:0:0:
172,68,182900,5,6,0:0:0:0:
191,70,182957,1,2,0:0:0:0:
207,82,183015,1,2,0:0:0:0:
214,100,183073,1,2,0:0:0:0:
211,120,183130,1,2,0:0:0:0:
199,135,183188,1,2,0:0:0:0:
180,142,183246,1,2,0:0:0:0:
161,138,183303,1,2,0:0:0:0:
148,124,183361,5,6,0:0:0:0:
154,105,183420,1,2,0:0:0:0:
170,93,183477,1,2,0:0:0:0:
190,92,183535,1,2,0:0:0:0:
207,101,183593,1,2,0:0:0:0:
216,119,183651,1,2,0:0:0:0:
214,138,183707,1,2,0:0:0:0:
202,154,183766,1,2,0:0:0:0:
184,160,183824,6,2,P|160:156|136:136,3,50,14|2|2|2,0:0|0:0|0:0|0:0,0:0:0:0:
200,296,184054,1,14,0:0:0:0:
200,296,184285,5,10,0:0:0:0:
208,296,184342,1,10,0:0:0:0:
216,296,184400,1,10,0:0:0:0:
224,296,184458,1,10,0:0:0:0:
248,316,184515,5,10,0:0:0:0:
252,316,184574,1,2,0:0:0:0:
256,316,184631,1,2,0:0:0:0:
260,316,184688,1,2,0:0:0:0:
288,300,184747,5,6,0:0:0:0:
328,308,184862,1,0,0:0:0:0:
368,304,184977,1,0,0:0:0:0:
400,280,185092,1,0,0:0:0:0:
412,240,185209,1,0,0:0:0:0:
408,200,185323,1,0,0:0:0:0:
380,172,185438,5,2,0:0:0:0:
360,136,185554,1,2,0:0:0:0:
364,108,185670,6,2,L|380:32,1,75.0000028610231,10|2,0:0|0:0,0:0:0:0:
304,204,185901,2,0,L|288:128,1,75.0000028610231
320,300,186131,5,0,0:0:0:0:
480,236,186247,1,0,0:0:0:0:
312,304,186362,6,10,L|420:304,3,100
344,132,186824,2,10,L|344:232,1,100
420,128,187055,6,10,L|420:28,3,100
240,156,187516,6,2,L|292:124,1,50,10|2,0:0|0:0,0:0:0:0:
288,32,187631,2,2,L|240:56,1,50,10|2,0:0|0:0,0:0:0:0:
116,120,187747,5,10,0:0:0:0:
240,160,187978,6,10,L|296:160,3,50
436,36,188209,2,10,L|376:36,3,50
284,40,188439,6,2,P|184:40|171:39,1,100,10|2,0:0|0:0,0:0:0:0:
84,44,188670,1,2,0:0:0:0:
212,120,188786,1,2,0:0:0:0:
88,204,188901,6,2,P|188:204|188:204,1,100,10|2,0:0|0:0,0:0:0:0:
288,208,189132,1,2,0:0:0:0:
160,284,189248,1,2,0:0:0:0:
236,372,189362,6,2,L|220:320,3,50,10|2|2|2,0:0|0:0|0:0|0:0,0:0:0:0:
300,328,189593,2,2,L|276:264,3,50,10|2|2|2,0:0|0:0|0:0|0:0,0:0:0:0:
136,348,189824,5,10,0:0:0:0:
136,328,189881,1,2,0:0:0:0:
136,308,189939,1,2,0:0:0:0:
136,288,189997,1,2,0:0:0:0:
164,280,190054,5,10,0:0:0:0:
164,264,190112,1,2,0:0:0:0:
164,248,190170,1,2,0:0:0:0:
164,232,190227,1,2,0:0:0:0:
132,208,190286,6,2,P|218:258|229:264,1,100,10|2,0:0|0:0,0:0:0:0:
307,304,190517,1,2,0:0:0:0:
234,174,190633,1,2,0:0:0:0:
308,208,190748,6,2,P|358:121|358:121,1,100,10|2,0:0|0:0,0:0:0:0:
411,37,190979,1,2,0:0:0:0:
413,186,191095,1,2,0:0:0:0:
411,37,191209,5,10,0:0:0:0:
395,73,191266,1,2,0:0:0:0:
398,112,191324,1,2,0:0:0:0:
421,145,191382,1,2,0:0:0:0:
451,169,191439,5,10,0:0:0:0:
466,205,191496,1,2,0:0:0:0:
463,244,191554,1,2,0:0:0:0:
440,277,191612,1,2,0:0:0:0:
403,297,191670,2,10,L|396:245,3,50
391,117,191901,5,6,0:0:0:0:
392,120,192132,6,2,P|292:120|279:119,1,100,10|2,0:0|0:0,0:0:0:0:
192,124,192363,1,2,0:0:0:0:
320,200,192479,1,2,0:0:0:0:
196,284,192594,6,2,P|296:284|296:284,1,100,10|2,0:0|0:0,0:0:0:0:
424,204,192824,2,0,L|312:204,1,100
172,200,193055,5,10,0:0:0:0:
300,280,193170,1,10,0:0:0:0:
260,84,193286,1,10,0:0:0:0:
196,324,193401,1,10,0:0:0:0:
196,320,193516,1,10,0:0:0:0:
196,316,193632,1,10,0:0:0:0:
184,188,193747,1,10,0:0:0:0:
260,240,193862,1,10,0:0:0:0:
188,192,193977,5,10,0:0:0:0:
197,195,194034,1,2,0:0:0:0:
207,197,194092,1,2,0:0:0:0:
217,198,194150,1,2,0:0:0:0:
227,198,194207,1,2,0:0:0:0:
237,196,194265,1,2,0:0:0:0:
246,194,194323,1,2,0:0:0:0:
255,190,194380,1,2,0:0:0:0:
272,152,194439,6,2,L|256:92,3,50,14|2|2|2,0:0|0:0|0:0|0:0,0:0:0:0:
168,100,194670,2,2,L|140:44,3,50,10|2|2|2,0:0|0:0|0:0|0:0,0:0:0:0:
332,28,194901,1,6,0:0:0:0:
252,68,195131,5,14,0:0:0:0:
246,60,195189,1,10,0:0:0:0:
239,53,195246,1,10,0:0:0:0:
231,46,195304,1,10,0:0:0:0:
220,40,195362,1,0,0:0:0:0:
80,248,195593,5,14,0:0:0:0:
72,96,195824,6,2,L|176:96,1,100,10|2,0:0|0:0,0:0:0:0:
324,100,196055,1,2,0:0:0:0:
228,216,196170,1,2,0:0:0:0:
328,104,196286,6,2,L|328:208,1,100,10|2,0:0|0:0,0:0:0:0:
360,348,196516,1,2,0:0:0:0:
328,200,196632,1,2,0:0:0:0:
352,348,196747,6,10,B|396:364|396:364|416:348|416:348|448:356,1,100
460,256,196978,2,10,B|476:212|476:212|460:192|460:192|468:160,1,100
380,220,197209,5,10,0:0:0:0:
404,124,197324,1,10,0:0:0:0:
382,198,197439,5,10,0:0:0:0:
389,99,197554,1,10,0:0:0:0:
408,200,197670,6,2,L|408:92,1,100,10|2,0:0|0:0,0:0:0:0:
316,144,197901,1,2,0:0:0:0:
320,44,198016,1,2,0:0:0:0:
316,144,198132,6,2,L|316:248,1,100,10|2,0:0|0:0,0:0:0:0:
224,204,198362,1,2,0:0:0:0:
224,304,198478,2,10,L|224:252,2,50
228,52,198824,6,10,L|176:52,2,50
32,132,199055,2,10,L|32:244,1,100
32,344,199516,6,2,L|136:344,1,100,10|2,0:0|0:0,0:0:0:0:
284,340,199747,1,2,0:0:0:0:
188,224,199862,1,2,0:0:0:0:
288,336,199978,6,2,L|288:232,1,100,10|2,0:0|0:0,0:0:0:0:
320,92,200208,1,2,0:0:0:0:
288,240,200324,1,2,0:0:0:0:
312,92,200439,6,10,B|356:76|356:76|376:92|376:92|408:84,1,100
420,184,200670,2,10,B|436:228|436:228|420:248|420:248|428:280,1,100
314,87,200901,6,10,B|360:70|360:70|381:87|381:87|415:78,1,100
428,183,201132,2,10,B|444:229|444:229|428:250|428:250|436:284,1,100
336,284,201362,5,10,0:0:0:0:
336,288,201420,1,10,0:0:0:0:
336,292,201478,1,10,0:0:0:0:
436,288,201593,5,6,0:0:0:0:
264,340,201709,1,6,0:0:0:0:
264,240,201824,5,10,0:0:0:0:
260,240,201881,1,10,0:0:0:0:
256,240,201939,1,10,0:0:0:0:
156,240,202055,5,6,0:0:0:0:
152,340,202170,1,6,0:0:0:0:
52,344,202286,6,10,L|52:288,3,50
132,236,202516,2,10,L|132:172,3,50
64,112,202747,5,6,0:0:0:0:
64,112,202978,1,6,0:0:0:0:
64,112,203209,5,6,0:0:0:0:
56,140,203266,1,2,0:0:0:0:
56,168,203324,1,2,0:0:0:0:
64,196,203382,1,2,0:0:0:0:
80,220,203440,1,2,0:0:0:0:
92,248,203497,1,2,0:0:0:0:
96,276,203555,1,2,0:0:0:0:
88,304,203613,1,2,0:0:0:0:
64,320,203671,5,6,0:0:0:0:
78,293,203728,1,2,0:0:0:0:
99,272,203786,1,2,0:0:0:0:
127,260,203844,1,2,0:0:0:0:
157,258,203901,1,2,0:0:0:0:
185,267,203959,1,2,0:0:0:0:
208,284,204017,1,2,0:0:0:0:
224,308,204074,1,2,0:0:0:0:
228,336,204132,6,2,L|244:284,3,50,10|2|2|2,0:0|0:0|0:0|0:0,0:0:0:0:
164,292,204363,2,2,L|188:228,3,50,10|2|2|2,0:0|0:0|0:0|0:0,0:0:0:0:
328,312,204594,5,10,0:0:0:0:
328,292,204651,1,2,0:0:0:0:
328,272,204709,1,2,0:0:0:0:
328,252,204767,1,2,0:0:0:0:
300,244,204824,5,10,0:0:0:0:
300,228,204882,1,2,0:0:0:0:
300,212,204940,1,2,0:0:0:0:
300,196,204997,1,2,0:0:0:0:
324,160,205056,5,6,0:0:0:0:
314,193,205113,1,2,0:0:0:0:
291,218,205171,1,2,0:0:0:0:
258,230,205229,1,2,0:0:0:0:
224,227,205286,1,2,0:0:0:0:
194,209,205344,1,2,0:0:0:0:
176,180,205402,1,2,0:0:0:0:
172,145,205459,1,2,0:0:0:0:
180,112,205516,5,6,0:0:0:0:
171,116,205574,1,2,0:0:0:0:
161,118,205632,1,2,0:0:0:0:
151,119,205689,1,2,0:0:0:0:
142,119,205747,6,2,L|114:171,3,50,10|2|2|2,0:0|0:0|0:0|0:0,0:0:0:0:
16,272,205978,2,2,L|48:224,3,50,6|2|2|2,0:0|0:0|0:0|0:0,0:0:0:0:
32,132,206209,5,14,0:0:0:0:
27,92,206267,1,2,0:0:0:0:
51,60,206324,1,2,0:0:0:0:
87,44,206382,1,2,0:0:0:0:
126,47,206439,1,6,0:0:0:0:
126,47,206671,5,6,0:0:0:0:
131,55,206729,1,2,0:0:0:0:
139,63,206786,1,2,0:0:0:0:
147,67,206844,1,2,0:0:0:0:
155,71,206902,5,6,0:0:0:0:
143,35,206959,1,2,0:0:0:0:
107,19,207017,1,2,0:0:0:0:
67,27,207075,1,2,0:0:0:0:
43,59,207132,1,2,0:0:0:0:
43,99,207190,1,2,0:0:0:0:
71,131,207248,1,2,0:0:0:0:
107,147,207306,1,2,0:0:0:0:
147,147,207363,5,6,0:0:0:0:
113,127,207420,1,2,0:0:0:0:
74,132,207478,1,2,0:0:0:0:
47,160,207536,1,2,0:0:0:0:
42,199,207593,1,2,0:0:0:0:
61,233,207651,1,2,0:0:0:0:
97,248,207709,1,2,0:0:0:0:
135,247,207767,1,2,0:0:0:0:
171,231,207824,5,10,0:0:0:0:
171,247,207882,1,2,0:0:0:0:
171,263,207940,1,2,0:0:0:0:
171,279,207997,1,2,0:0:0:0:
151,303,208055,5,10,0:0:0:0:
176,285,208112,1,2,0:0:0:0:
205,278,208170,1,2,0:0:0:0:
235,282,208228,1,2,0:0:0:0:
263,295,208286,5,10,0:0:0:0:
103,187,208517,5,10,0:0:0:0:
276,156,208747,5,10,0:0:0:0:
267,159,208804,1,2,0:0:0:0:
257,161,208862,1,2,0:0:0:0:
247,162,208920,1,2,0:0:0:0:
237,162,208977,1,2,0:0:0:0:
227,160,209035,1,2,0:0:0:0:
218,158,209093,1,2,0:0:0:0:
209,154,209150,1,2,0:0:0:0:
192,116,209209,6,2,L|208:56,3,50,14|2|2|2,0:0|0:0|0:0|0:0,0:0:0:0:
296,64,209440,2,2,L|324:8,3,50,10|2|2|2,0:0|0:0|0:0|0:0,0:0:0:0:
340,148,209670,5,2,0:0:0:0:
344,148,209728,1,2,0:0:0:0:
348,148,209786,1,2,0:0:0:0:
352,148,209843,1,2,0:0:0:0:
364,132,209901,5,2,0:0:0:0:
368,132,209959,1,2,0:0:0:0:
372,132,210016,1,2,0:0:0:0:
376,132,210074,1,2,0:0:0:0:
388,116,210132,5,2,0:0:0:0:
388,36,210362,1,0,0:0:0:0:
392,40,210593,5,6,0:0:0:0:
400,68,210651,1,2,0:0:0:0:
400,96,210708,1,2,0:0:0:0:
392,124,210766,1,2,0:0:0:0:
376,148,210824,1,2,0:0:0:0:
364,176,210881,1,2,0:0:0:0:
360,204,210939,1,2,0:0:0:0:
368,232,210997,1,2,0:0:0:0:
392,248,211055,5,6,0:0:0:0:
378,221,211112,1,2,0:0:0:0:
357,200,211170,1,2,0:0:0:0:
329,188,211228,1,2,0:0:0:0:
299,186,211285,1,2,0:0:0:0:
271,195,211343,1,2,0:0:0:0:
248,212,211401,1,2,0:0:0:0:
232,236,211458,1,2,0:0:0:0:
228,264,211516,6,2,L|212:212,3,50,10|2|2|2,0:0|0:0|0:0|0:0,0:0:0:0:
292,220,211747,2,2,L|268:156,3,50,10|2|2|2,0:0|0:0|0:0|0:0,0:0:0:0:
140,316,211978,5,10,0:0:0:0:
140,296,212035,1,2,0:0:0:0:
140,276,212093,1,2,0:0:0:0:
140,256,212151,1,2,0:0:0:0:
168,248,212208,5,10,0:0:0:0:
168,232,212266,1,2,0:0:0:0:
168,216,212324,1,2,0:0:0:0:
168,200,212381,1,2,0:0:0:0:
144,164,212440,5,6,0:0:0:0:
154,197,212497,1,2,0:0:0:0:
177,222,212555,1,2,0:0:0:0:
210,234,212613,1,2,0:0:0:0:
244,231,212670,1,2,0:0:0:0:
274,213,212728,1,2,0:0:0:0:
292,184,212786,1,2,0:0:0:0:
296,149,212843,1,2,0:0:0:0:
288,116,212900,5,6,0:0:0:0:
297,120,212958,1,2,0:0:0:0:
307,122,213016,1,2,0:0:0:0:
317,123,213073,1,2,0:0:0:0:
326,123,213131,6,2,L|354:175,3,50,10|2|2|2,0:0|0:0|0:0|0:0,0:0:0:0:
480,216,213362,2,2,L|456:160,3,50,6|2|2|2,0:0|0:0|0:0|0:0,0:0:0:0:
354,309,213593,5,14,0:0:0:0:
349,269,213651,1,2,0:0:0:0:
373,237,213708,1,2,0:0:0:0:
409,221,213766,1,2,0:0:0:0:
444,201,213824,2,10,L|437:149,3,50
344,84,214055,5,6,0:0:0:0:
344,84,214286,5,6,0:0:0:0:
356,48,214343,1,2,0:0:0:0:
392,32,214401,1,2,0:0:0:0:
432,40,214459,1,2,0:0:0:0:
456,72,214516,1,2,0:0:0:0:
456,112,214574,1,2,0:0:0:0:
428,144,214632,1,2,0:0:0:0:
392,160,214690,1,2,0:0:0:0:
352,160,214747,5,6,0:0:0:0:
386,140,214804,1,2,0:0:0:0:
425,145,214862,1,2,0:0:0:0:
452,173,214920,1,2,0:0:0:0:
457,212,214977,1,2,0:0:0:0:
438,246,215035,1,2,0:0:0:0:
402,261,215093,1,2,0:0:0:0:
364,260,215151,1,2,0:0:0:0:
332,236,215209,2,2,L|316:284,3,50,6|2|2|2,0:0|0:0|0:0|0:0,0:0:0:0:
200,320,215439,5,10,0:0:0:0:
175,302,215496,1,2,0:0:0:0:
146,295,215554,1,2,0:0:0:0:
116,299,215612,1,2,0:0:0:0:
88,312,215670,5,10,0:0:0:0:
88,296,215728,1,2,0:0:0:0:
88,280,215785,1,2,0:0:0:0:
88,264,215843,1,2,0:0:0:0:
108,244,215901,5,10,0:0:0:0:
108,228,215958,1,2,0:0:0:0:
108,212,216016,1,2,0:0:0:0:
108,196,216074,1,2,0:0:0:0:
80,184,216131,5,10,0:0:0:0:
256,56,216362,2,10,L|272:108,2,50
172,172,216593,6,2,L|156:112,3,50,14|2|2|2,0:0|0:0|0:0|0:0,0:0:0:0:
64,104,216824,2,2,L|36:48,3,50,10|2|2|2,0:0|0:0|0:0|0:0,0:0:0:0:
144,232,217055,5,6,0:0:0:0:
428,136,217286,1,6,0:0:0:0:
128,124,217516,1,6,0:0:0:0:
408,228,217747,1,6,0:0:0:0:
156,292,217978,5,14,0:0:0:0:
160,295,218035,1,2,0:0:0:0:
164,298,218094,1,2,0:0:0:0:
168,301,218151,1,2,0:0:0:0:
172,302,218208,1,2,0:0:0:0:
176,303,218266,1,2,0:0:0:0:
180,303,218324,1,2,0:0:0:0:
184,302,218381,1,2,0:0:0:0:
188,301,218439,1,2,0:0:0:0:
192,299,218497,1,2,0:0:0:0:
196,297,218554,1,2,0:0:0:0:
200,295,218612,1,2,0:0:0:0:
204,293,218671,1,2,0:0:0:0:
208,291,218728,1,2,0:0:0:0:
212,290,218786,1,2,0:0:0:0:
216,290,218844,1,2,0:0:0:0:
220,288,218902,5,10,0:0:0:0:
224,286,218959,1,2,0:0:0:0:
228,283,219017,1,2,0:0:0:0:
232,280,219075,1,2,0:0:0:0:
236,277,219132,1,2,0:0:0:0:
240,275,219190,1,2,0:0:0:0:
244,274,219248,1,2,0:0:0:0:
248,273,219305,1,2,0:0:0:0:
252,272,219363,1,2,0:0:0:0:
256,272,219421,1,2,0:0:0:0:
260,272,219478,1,2,0:0:0:0:
264,272,219536,1,2,0:0:0:0:
268,273,219594,1,2,0:0:0:0:
272,274,219652,1,2,0:0:0:0:
276,275,219709,1,2,0:0:0:0:
280,275,219767,1,2,0:0:0:0:
284,280,219824,5,2,0:0:0:0:
287,276,219881,1,2,0:0:0:0:
290,272,219940,1,2,0:0:0:0:
293,268,219997,1,2,0:0:0:0:
294,264,220054,1,2,0:0:0:0:
295,260,220112,1,2,0:0:0:0:
295,256,220170,1,2,0:0:0:0:
294,252,220227,1,2,0:0:0:0:
293,248,220285,1,2,0:0:0:0:
291,244,220343,1,2,0:0:0:0:
289,240,220400,1,2,0:0:0:0:
287,236,220458,1,2,0:0:0:0:
285,232,220517,1,2,0:0:0:0:
283,228,220574,1,2,0:0:0:0:
282,224,220632,1,2,0:0:0:0:
282,220,220690,1,2,0:0:0:0:
280,216,220748,5,10,0:0:0:0:
276,212,220805,1,2,0:0:0:0:
274,208,220863,1,2,0:0:0:0:
271,204,220921,1,2,0:0:0:0:
269,200,220978,1,2,0:0:0:0:
267,196,221036,1,2,0:0:0:0:
266,192,221094,1,2,0:0:0:0:
265,188,221151,1,2,0:0:0:0:
264,184,221209,1,2,0:0:0:0:
264,180,221267,1,2,0:0:0:0:
264,176,221324,1,2,0:0:0:0:
264,172,221382,1,2,0:0:0:0:
264,168,221439,6,2,P|301:153|320:156,3,50,6|2|2|2,0:0|0:0|0:0|0:0,0:0:0:0:
400,284,221671,5,14,0:0:0:0:
397,280,221728,1,2,0:0:0:0:
394,276,221787,1,2,0:0:0:0:
391,272,221844,1,2,0:0:0:0:
390,268,221901,1,2,0:0:0:0:
389,264,221959,1,2,0:0:0:0:
389,260,222017,1,2,0:0:0:0:
390,256,222074,1,2,0:0:0:0:
391,252,222132,1,2,0:0:0:0:
393,248,222190,1,2,0:0:0:0:
395,244,222247,1,2,0:0:0:0:
397,240,222305,1,2,0:0:0:0:
399,236,222364,1,2,0:0:0:0:
401,232,222421,1,2,0:0:0:0:
402,228,222479,1,2,0:0:0:0:
402,224,222537,1,2,0:0:0:0:
404,220,222595,5,10,0:0:0:0:
408,216,222652,1,2,0:0:0:0:
410,212,222710,1,2,0:0:0:0:
413,208,222768,1,2,0:0:0:0:
415,204,222825,1,2,0:0:0:0:
417,200,222883,1,2,0:0:0:0:
418,196,222941,1,2,0:0:0:0:
419,192,222998,1,2,0:0:0:0:
420,188,223056,1,2,0:0:0:0:
420,184,223114,1,2,0:0:0:0:
420,180,223171,1,2,0:0:0:0:
420,176,223229,1,2,0:0:0:0:
420,172,223286,6,2,P|457:157|476:160,3,50,6|2|2|2,0:0|0:0|0:0|0:0,0:0:0:0:
328,212,223516,5,14,0:0:0:0:
325,208,223573,1,2,0:0:0:0:
322,204,223632,1,2,0:0:0:0:
319,200,223689,1,2,0:0:0:0:
318,196,223746,1,2,0:0:0:0:
317,192,223804,1,2,0:0:0:0:
317,188,223862,1,2,0:0:0:0:
318,184,223919,1,2,0:0:0:0:
319,180,223977,1,2,0:0:0:0:
321,176,224035,1,2,0:0:0:0:
323,172,224092,1,2,0:0:0:0:
325,168,224150,1,2,0:0:0:0:
327,164,224209,1,2,0:0:0:0:
329,160,224266,1,2,0:0:0:0:
330,156,224324,1,2,0:0:0:0:
330,152,224382,1,2,0:0:0:0:
332,148,224440,5,10,0:0:0:0:
334,144,224497,1,2,0:0:0:0:
337,140,224555,1,2,0:0:0:0:
340,136,224613,1,2,0:0:0:0:
343,132,224670,1,2,0:0:0:0:
345,128,224728,1,2,0:0:0:0:
346,124,224786,1,2,0:0:0:0:
347,120,224843,1,2,0:0:0:0:
348,116,224901,1,2,0:0:0:0:
348,112,224959,1,2,0:0:0:0:
348,108,225016,1,2,0:0:0:0:
348,104,225074,1,2,0:0:0:0:
347,100,225132,1,2,0:0:0:0:
346,96,225190,1,2,0:0:0:0:
345,92,225247,1,2,0:0:0:0:
345,88,225305,1,2,0:0:0:0:
340,84,225362,5,14,0:0:0:0:
336,87,225419,1,2,0:0:0:0:
332,90,225478,1,2,0:0:0:0:
328,93,225535,1,2,0:0:0:0:
324,94,225592,1,2,0:0:0:0:
320,95,225650,1,2,0:0:0:0:
316,95,225708,1,2,0:0:0:0:
312,94,225765,1,2,0:0:0:0:
308,93,225823,1,2,0:0:0:0:
304,91,225881,1,2,0:0:0:0:
300,89,225938,1,2,0:0:0:0:
296,87,225996,1,2,0:0:0:0:
292,85,226055,1,2,0:0:0:0:
288,83,226112,1,2,0:0:0:0:
284,82,226170,1,2,0:0:0:0:
280,82,226228,1,2,0:0:0:0:
276,80,226286,5,10,0:0:0:0:
272,78,226343,1,2,0:0:0:0:
268,75,226401,1,2,0:0:0:0:
264,72,226459,1,2,0:0:0:0:
260,69,226516,1,2,0:0:0:0:
256,67,226574,1,2,0:0:0:0:
252,66,226632,1,2,0:0:0:0:
248,65,226689,1,2,0:0:0:0:
244,64,226747,1,2,0:0:0:0:
240,64,226805,1,2,0:0:0:0:
236,64,226862,1,2,0:0:0:0:
232,64,226920,1,2,0:0:0:0:
228,65,226978,1,2,0:0:0:0:
224,66,227036,1,2,0:0:0:0:
220,67,227093,1,2,0:0:0:0:
216,67,227151,1,2,0:0:0:0:
212,68,227209,1,2,0:0:0:0:
208,68,227266,1,2,0:0:0:0:
204,68,227324,1,2,0:0:0:0:
200,68,227382,1,2,0:0:0:0:
196,66,227439,1,2,0:0:0:0:
192,64,227497,1,2,0:0:0:0:
188,61,227555,1,2,0:0:0:0:
184,58,227612,1,2,0:0:0:0:
180,55,227670,6,2,L|168:107,7,50,6|2|2|2|2|2|2|2,0:0|0:0|0:0|0:0|0:0|0:0|0:0|0:0,0:0:0:0:
64,168,228132,2,2,L|80:108,15,50,6|2|2|2|2|2|2|2|2|2|2|2|2|2|2|2,0:0|0:0|0:0|0:0|0:0|0:0|0:0|0:0|0:0|0:0|0:0|0:0|0:0|0:0|0:0|0:0,0:0:0:0:
64,268,229055,5,14,0:0:0:0:
68,265,229112,1,2,0:0:0:0:
72,262,229171,1,2,0:0:0:0:
76,259,229228,1,2,0:0:0:0:
80,258,229285,1,2,0:0:0:0:
84,257,229343,1,2,0:0:0:0:
88,257,229401,1,2,0:0:0:0:
92,258,229458,1,2,0:0:0:0:
96,259,229516,1,2,0:0:0:0:
100,261,229574,1,2,0:0:0:0:
104,263,229631,1,2,0:0:0:0:
108,265,229689,1,2,0:0:0:0:
112,267,229748,1,2,0:0:0:0:
116,269,229805,1,2,0:0:0:0:
120,270,229863,1,2,0:0:0:0:
124,270,229921,1,2,0:0:0:0:
128,272,229979,5,10,0:0:0:0:
132,274,230036,1,2,0:0:0:0:
136,277,230094,1,2,0:0:0:0:
140,280,230152,1,2,0:0:0:0:
144,283,230209,1,2,0:0:0:0:
148,285,230267,1,2,0:0:0:0:
152,286,230325,1,2,0:0:0:0:
156,287,230382,1,2,0:0:0:0:
160,288,230440,1,2,0:0:0:0:
164,288,230498,1,2,0:0:0:0:
168,288,230555,1,2,0:0:0:0:
172,288,230613,1,2,0:0:0:0:
176,287,230671,1,2,0:0:0:0:
180,286,230729,1,2,0:0:0:0:
184,285,230786,1,2,0:0:0:0:
188,285,230844,1,2,0:0:0:0:
192,280,230901,5,14,0:0:0:0:
189,276,230958,1,2,0:0:0:0:
186,272,231017,1,2,0:0:0:0:
183,268,231074,1,2,0:0:0:0:
182,264,231131,1,2,0:0:0:0:
181,260,231189,1,2,0:0:0:0:
181,256,231247,1,2,0:0:0:0:
182,252,231304,1,2,0:0:0:0:
183,248,231362,1,2,0:0:0:0:
185,244,231420,1,2,0:0:0:0:
187,240,231477,1,2,0:0:0:0:
189,236,231535,1,2,0:0:0:0:
191,232,231594,1,2,0:0:0:0:
193,228,231651,1,2,0:0:0:0:
194,224,231709,1,2,0:0:0:0:
194,220,231767,1,2,0:0:0:0:
196,216,231825,5,10,0:0:0:0:
224,132,232170,5,10,0:0:0:0:
266,157,232227,1,10,0:0:0:0:
315,161,232285,1,10,0:0:0:0:
362,143,232343,1,10,0:0:0:0:
388,100,232401,6,2,L|440:152,1,50,10|2,0:0|0:0,0:0:0:0:
392,284,232516,2,2,L|344:248,1,50,10|2,0:0|0:0,0:0:0:0:
272,124,232632,2,2,L|320:168,1,50,10|2,0:0|0:0,0:0:0:0:
224,280,232747,5,10,0:0:0:0:
223,289,232804,1,2,0:0:0:0:
221,299,232862,1,2,0:0:0:0:
218,309,232920,1,2,0:0:0:0:
213,317,232977,1,2,0:0:0:0:
206,325,233035,1,2,0:0:0:0:
199,331,233093,1,2,0:0:0:0:
190,336,233150,1,2,0:0:0:0:
180,340,233209,2,2,L|156:384,7,50,6|2|2|2|2|2|2|2,0:0|0:0|0:0|0:0|0:0|0:0|0:0|0:0,0:0:0:0:
92,248,233670,5,2,0:0:0:0:
92,236,233728,1,2,0:0:0:0:
92,224,233786,1,2,0:0:0:0:
92,212,233843,1,2,0:0:0:0:
68,196,233901,5,2,0:0:0:0:
68,188,233959,1,2,0:0:0:0:
68,180,234016,1,2,0:0:0:0:
68,172,234074,1,2,0:0:0:0:
92,148,234132,5,2,0:0:0:0:
92,144,234189,1,2,0:0:0:0:
92,140,234247,1,2,0:0:0:0:
92,136,234305,1,2,0:0:0:0:
80,108,234362,2,2,L|68:52,3,50
220,64,234593,5,6,0:0:0:0:
216,83,234650,1,2,0:0:0:0:
219,103,234708,1,2,0:0:0:0:
230,119,234766,1,2,0:0:0:0:
246,131,234823,1,2,0:0:0:0:
265,136,234881,1,2,0:0:0:0:
285,133,234939,1,2,0:0:0:0:
302,123,234996,1,2,0:0:0:0:
312,104,235055,5,6,0:0:0:0:
293,97,235112,1,2,0:0:0:0:
273,99,235170,1,2,0:0:0:0:
257,110,235228,1,2,0:0:0:0:
248,127,235285,1,2,0:0:0:0:
248,147,235343,1,2,0:0:0:0:
257,165,235401,1,2,0:0:0:0:
273,176,235458,1,2,0:0:0:0:
292,180,235516,5,6,0:0:0:0:
310,173,235573,1,2,0:0:0:0:
330,175,235631,1,2,0:0:0:0:
346,186,235689,1,2,0:0:0:0:
355,203,235746,1,2,0:0:0:0:
355,223,235804,1,2,0:0:0:0:
346,241,235862,1,2,0:0:0:0:
330,252,235919,1,2,0:0:0:0:
308,256,235978,5,6,0:0:0:0:
289,249,236035,1,2,0:0:0:0:
269,251,236093,1,2,0:0:0:0:
253,262,236151,1,2,0:0:0:0:
244,279,236208,1,2,0:0:0:0:
244,299,236266,1,2,0:0:0:0:
253,317,236324,1,2,0:0:0:0:
269,328,236381,1,2,0:0:0:0:
288,328,236439,2,2,L|312:376,7,50,6|2|2|2|2|2|2|2,0:0|0:0|0:0|0:0|0:0|0:0|0:0|0:0,0:0:0:0:
164,332,236901,5,10,0:0:0:0:
157,324,236958,1,2,0:0:0:0:
152,315,237016,1,2,0:0:0:0:
148,306,237074,1,2,0:0:0:0:
145,297,237131,1,2,0:0:0:0:
142,287,237189,1,2,0:0:0:0:
141,277,237247,1,2,0:0:0:0:
141,267,237304,1,2,0:0:0:0:
176,244,237362,5,2,0:0:0:0:
176,234,237420,1,2,0:0:0:0:
177,224,237477,1,2,0:0:0:0:
177,214,237535,1,2,0:0:0:0:
177,204,237593,1,2,0:0:0:0:
175,194,237651,1,2,0:0:0:0:
172,185,237708,1,2,0:0:0:0:
168,176,237766,1,2,0:0:0:0:
128,164,237824,6,2,L|128:108,7,50,14|2|2|2|2|2|2|2,0:0|0:0|0:0|0:0|0:0|0:0|0:0|0:0,0:0:0:0:
224,80,238286,5,6,0:0:0:0:
232,80,238343,1,2,0:0:0:0:
240,80,238401,1,2,0:0:0:0:
248,80,238459,1,2,0:0:0:0:
256,80,238516,1,2,0:0:0:0:
264,80,238574,1,2,0:0:0:0:
272,80,238632,1,2,0:0:0:0:
280,80,238689,1,2,0:0:0:0:
300,116,238747,5,6,0:0:0:0:
308,116,238805,1,2,0:0:0:0:
316,116,238862,1,2,0:0:0:0:
324,116,238920,1,2,0:0:0:0:
332,116,238978,1,2,0:0:0:0:
340,116,239036,1,2,0:0:0:0:
348,116,239093,1,2,0:0:0:0:
356,116,239151,1,2,0:0:0:0:
396,104,239209,5,6,0:0:0:0:
386,106,239266,1,2,0:0:0:0:
377,110,239324,1,2,0:0:0:0:
368,115,239382,1,2,0:0:0:0:
361,122,239439,1,2,0:0:0:0:
356,130,239497,1,2,0:0:0:0:
352,140,239555,1,2,0:0:0:0:
349,149,239612,1,2,0:0:0:0:
352,188,239670,5,6,0:0:0:0:
344,168,239728,1,2,0:0:0:0:
332,152,239786,1,2,0:0:0:0:
312,148,239844,1,2,0:0:0:0:
292,156,239901,1,2,0:0:0:0:
284,176,239959,1,2,0:0:0:0:
280,196,240016,1,2,0:0:0:0:
288,216,240074,1,2,0:0:0:0:
304,228,240132,2,2,P|252:184|180:244,1,150
302,238,240593,5,10,0:0:0:0:
284,227,240650,1,2,0:0:0:0:
266,219,240708,1,2,0:0:0:0:
247,214,240766,1,2,0:0:0:0:
227,212,240823,1,2,0:0:0:0:
207,213,240881,1,2,0:0:0:0:
187,217,240939,1,2,0:0:0:0:
169,224,240996,1,2,0:0:0:0:
150,234,241055,6,2,L|114:190,7,50,6|2|2|2|2|2|2|2,0:0|0:0|0:0|0:0|0:0|0:0|0:0|0:0,0:0:0:0:
236,352,241516,2,2,L|192:300,7,50,6|2|2|2|2|2|2|2,0:0|0:0|0:0|0:0|0:0|0:0|0:0|0:0,0:0:0:0:
88,212,241978,5,6,0:0:0:0:
107,215,242035,1,2,0:0:0:0:
127,212,242093,1,2,0:0:0:0:
143,201,242151,1,2,0:0:0:0:
155,185,242208,1,2,0:0:0:0:
160,166,242266,1,2,0:0:0:0:
157,146,242324,1,2,0:0:0:0:
147,129,242381,1,2,0:0:0:0:
128,120,242440,5,6,0:0:0:0:
121,138,242497,1,2,0:0:0:0:
123,158,242555,1,2,0:0:0:0:
134,174,242613,1,2,0:0:0:0:
151,183,242670,1,2,0:0:0:0:
171,183,242728,1,2,0:0:0:0:
189,174,242786,1,2,0:0:0:0:
200,158,242843,1,2,0:0:0:0:
204,140,242901,5,6,0:0:0:0:
197,122,242958,1,2,0:0:0:0:
199,102,243016,1,2,0:0:0:0:
210,86,243074,1,2,0:0:0:0:
227,77,243131,1,2,0:0:0:0:
247,77,243189,1,2,0:0:0:0:
265,86,243247,1,2,0:0:0:0:
276,102,243304,1,2,0:0:0:0:
280,124,243363,5,2,0:0:0:0:
273,143,243420,1,2,0:0:0:0:
275,163,243478,1,2,0:0:0:0:
286,179,243536,1,2,0:0:0:0:
303,188,243593,1,2,0:0:0:0:
323,188,243651,1,2,0:0:0:0:
341,179,243709,1,2,0:0:0:0:
352,163,243766,1,2,0:0:0:0:
352,144,243824,6,2,L|400:120,7,50,10|2|2|2|2|2|2|2,0:0|0:0|0:0|0:0|0:0|0:0|0:0|0:0,0:0:0:0:
396,244,244286,2,2,L|444:276,7,50,6|2|2|2|2|2|2|2,0:0|0:0|0:0|0:0|0:0|0:0|0:0|0:0,0:0:0:0:
284,252,244747,5,6,0:0:0:0:
274,252,244804,1,2,0:0:0:0:
264,252,244862,1,2,0:0:0:0:
254,252,244920,1,2,0:0:0:0:
244,252,244977,1,2,0:0:0:0:
234,252,245035,1,2,0:0:0:0:
224,252,245093,1,2,0:0:0:0:
216,252,245151,1,2,0:0:0:0:
188,280,245209,5,6,0:0:0:0:
180,276,245266,1,2,0:0:0:0:
176,268,245324,1,2,0:0:0:0:
176,260,245382,1,2,0:0:0:0:
180,252,245439,1,2,0:0:0:0:
188,244,245497,1,2,0:0:0:0:
196,240,245555,1,2,0:0:0:0:
204,236,245612,1,2,0:0:0:0:
200,196,245670,5,6,0:0:0:0:
200,196,245900,5,10,0:0:0:0:
189,213,245958,1,10,0:0:0:0:
185,232,246016,1,10,0:0:0:0:
193,250,246073,1,10,0:0:0:0:
211,263,246132,5,14,0:0:0:0:
260,157,246247,1,6,0:0:0:0:
301,268,246362,1,6,0:0:0:0:
376,128,246536,1,6,0:0:0:0:
455,280,246824,5,10,0:0:0:0:
461,269,246882,1,10,0:0:0:0:
469,265,246939,1,10,0:0:0:0:
480,264,246997,1,10,0:0:0:0:
489,265,247055,5,14,0:0:0:0:
473,107,247170,1,14,0:0:0:0:
509,260,247286,5,14,0:0:0:0:
