osu file format v14

[General]
AudioFilename: audio.ogg
AudioLeadIn: 0
PreviewTime: 64276
Countdown: 0
SampleSet: Soft
StackLeniency: 0.7
Mode: 3
LetterboxInBreaks: 0
SpecialStyle: 0
WidescreenStoryboard: 1

[Editor]
Bookmarks: 12276,33609,44276,54943,65609,86943,97609,118943,129609,140276,153609,174943
DistanceSpacing: 0.7
BeatDivisor: 4
GridSize: 32
TimelineZoom: 1.36

[Metadata]
Title:Bakuretsu Thaumazein (Prod. ChibaNyan)
TitleUnicode:爆裂タウマゼイン (Prod. チバニャン)
Artist:Houou Karin, Seto Mitsuki, Taiga Lucia
ArtistUnicode:鳳凰火凛、瀬戸海月、大賀ルキア
Creator:Ryu Sei
Version:Hard
Source:電音部
Tags:denonbu den'onbu Ricca electronic big room hardcore multigenre multiple genre hardstyle japanese lyrics Shibuya Unit 渋谷 Sukoya Kana 健屋花那 Sister Claire シスター・クレア Hoshikawa Sara 星川サラ NIJISANJI にじさんじ 2434 電音部 ベストアルバム -シーズン.1- The Lights DEN-ON-BU Best Album Series 1 BANDAI NAMCO banamu 876
BeatmapID:4022161
BeatmapSetID:1943968

[Difficulty]
HPDrainRate:7.5
CircleSize:4
OverallDifficulty:7
ApproachRate:5
SliderMultiplier:1.4
SliderTickRate:1

[Events]
//Background and Video events
0,0,"Explosion_Thaumazein.jpg",0,0
//Break Periods
//Storyboard Layer 0 (Background)
//Storyboard Layer 1 (Fail)
//Storyboard Layer 2 (Pass)
//Storyboard Layer 3 (Foreground)
//Storyboard Layer 4 (Overlay)
//Storyboard Sound Samples
Sample,35943,0,"Kick2.wav",60
Sample,41276,0,"Kick2.wav",60
Sample,43943,0,"Kick2.wav",60
Sample,64276,0,"fx_Pac-Man.wav",60
Sample,121276,0,"Kick2.wav",60
Sample,126609,0,"Kick2.wav",60
Sample,129276,0,"Snare2.wav",60
Sample,129276,0,"Kick2.wav",60

[TimingPoints]
1610,333.333333333333,4,2,1,60,1,0
65609,-100,4,2,1,60,0,1
74943,-100,4,2,1,60,0,0
76276,-100,4,2,1,60,0,1
86943,-100,4,2,1,60,0,0
153609,333.333333333333,4,2,1,60,1,1
162942,-100,4,2,1,60,0,0
164275,-100,4,2,1,60,0,1
174942,-100,4,2,1,60,0,0

[HitObjects]
448,192,1610,128,0,1943:0:0:0:60:Cymbal1.wav
64,192,1610,128,0,1943:0:0:0:60:Kick1.wav
320,192,1943,1,0,0:0:0:0:
192,192,1943,1,0,0:0:0:0:
192,192,2276,1,0,0:0:0:0:
192,192,2609,1,0,0:0:0:0:
320,192,2776,1,0,0:0:0:0:
448,192,2943,1,0,0:0:0:0:
448,192,3276,1,0,0:0:0:0:
64,192,3443,128,0,3609:0:0:0:0:
448,192,3609,1,0,0:0:0:0:
320,192,3776,1,0,0:0:0:0:
192,192,3943,1,0,0:0:0:0:
448,192,4276,128,0,4609:0:0:0:60:Cymbal1.wav
64,192,4276,128,0,4609:0:0:0:60:Kick1.wav
320,192,4609,1,0,0:0:0:0:
192,192,4609,1,0,0:0:0:0:
192,192,4943,1,0,0:0:0:0:
64,192,5109,128,0,5276:0:0:0:0:
192,192,5276,1,0,0:0:0:0:
320,192,5443,1,0,0:0:0:0:
448,192,5609,1,0,0:0:0:0:
320,192,5943,1,0,0:0:0:0:
448,192,6109,1,0,0:0:0:0:
320,192,6276,1,0,0:0:0:0:
192,192,6443,1,0,0:0:0:0:
64,192,6609,1,0,0:0:0:0:
64,192,6943,128,0,7276:0:0:0:60:Kick1.wav
448,192,6943,128,0,7276:0:0:0:60:Cymbal1.wav
320,192,7276,1,0,0:0:0:0:
192,192,7276,1,0,0:0:0:60:Beat.wav
192,192,7609,1,0,0:0:0:60:Beat.wav
192,192,7943,1,0,0:0:0:60:Beat.wav
320,192,8109,1,0,0:0:0:60:Beat.wav
448,192,8276,1,0,0:0:0:60:Beat.wav
448,192,8609,1,0,0:0:0:60:Beat.wav
64,192,8776,128,0,8943:0:0:0:60:Beat.wav
448,192,8943,1,0,0:0:0:60:Beat.wav
320,192,9109,1,0,0:0:0:60:Beat.wav
192,192,9276,1,0,0:0:0:60:Beat.wav
64,192,9609,128,0,9943:0:0:0:60:Kick1.wav
448,192,9609,128,0,9943:0:0:0:60:Cymbal1.wav
192,192,9943,1,0,0:0:0:60:Beat.wav
320,192,9943,1,0,0:0:0:0:
192,192,10276,1,0,0:0:0:60:Beat.wav
64,192,10443,128,0,10609:0:0:0:60:Beat.wav
192,192,10609,1,0,0:0:0:60:Beat.wav
320,192,10776,1,0,0:0:0:60:Beat.wav
448,192,10943,1,0,0:0:0:60:Kick2.wav
64,192,11109,1,0,0:0:0:60:Kick2.wav
448,192,11276,1,0,0:0:0:60:Kick2.wav
64,192,11443,1,0,0:0:0:60:Kick2.wav
448,192,11609,1,0,0:0:0:60:Kick2.wav
64,192,11776,1,0,0:0:0:60:Kick2.wav
192,192,11859,1,0,0:0:0:60:Kick2.wav
320,192,11943,1,0,0:0:0:60:Kick2.wav
448,192,12026,1,0,0:0:0:60:Kick2.wav
64,192,12109,1,0,0:0:0:60:Kick2.wav
192,192,12193,1,0,0:0:0:60:Kick2.wav
448,192,12276,128,0,14943:0:0:0:60:Cymbal1.wav
320,192,12276,1,0,0:0:0:60:Kick2.wav
64,192,12609,1,0,0:0:0:0:
192,192,12776,1,0,0:0:0:0:
320,192,12943,1,0,0:0:0:0:
320,192,13276,1,0,0:0:0:0:
192,192,13443,1,0,0:0:0:0:
64,192,13609,1,0,0:0:0:0:
64,192,13943,1,0,0:0:0:0:
192,192,14109,1,0,0:0:0:0:
320,192,14276,1,0,0:0:0:0:
192,192,14609,1,0,0:0:0:0:
64,192,14776,1,0,0:0:0:0:
192,192,14943,1,0,0:0:0:0:
320,192,14943,128,0,16276:0:0:0:0:
448,192,15276,1,0,0:0:0:0:
192,192,15443,1,0,0:0:0:0:
64,192,15609,1,0,0:0:0:0:
64,192,15943,1,0,0:0:0:0:
448,192,16109,1,0,0:0:0:0:
64,192,16276,1,0,0:0:0:0:
192,192,16276,128,0,17609:0:0:0:0:
448,192,16609,1,0,0:0:0:0:
320,192,16776,1,0,0:0:0:0:
64,192,16943,1,0,0:0:0:0:
320,192,17276,1,0,0:0:0:0:
448,192,17443,1,0,0:0:0:0:
64,192,17609,128,0,20276:0:0:0:0:
320,192,17609,1,0,0:0:0:0:
448,192,17943,1,0,0:0:0:0:
320,192,18109,1,0,0:0:0:0:
192,192,18276,1,0,0:0:0:0:
192,192,18609,1,0,0:0:0:0:
320,192,18776,1,0,0:0:0:0:
448,192,18943,1,0,0:0:0:0:
448,192,19276,1,0,0:0:0:0:
320,192,19443,1,0,0:0:0:0:
192,192,19609,1,0,0:0:0:0:
320,192,19943,1,0,0:0:0:0:
448,192,20109,1,0,0:0:0:0:
192,192,20276,128,0,21609:0:0:0:0:
320,192,20276,1,0,0:0:0:0:
64,192,20609,1,0,0:0:0:0:
320,192,20776,1,0,0:0:0:0:
448,192,20943,1,0,0:0:0:0:
448,192,21276,1,0,0:0:0:0:
64,192,21443,1,0,0:0:0:0:
320,192,21609,128,0,22943:0:0:0:0:
448,192,21609,1,0,0:0:0:0:
64,192,21943,1,0,0:0:0:0:
192,192,22109,1,0,0:0:0:0:
448,192,22276,1,0,0:0:0:0:
192,192,22609,1,0,0:0:0:0:
64,192,22776,1,0,0:0:0:0:
448,192,22943,128,0,25609:0:0:0:60:Cymbal1.wav
192,192,22943,1,0,0:0:0:60:Kick2.wav
64,192,23276,1,0,0:0:0:0:
320,192,23443,1,0,0:0:0:0:
64,192,23609,1,0,0:0:0:60:Clap.wav
192,192,23609,1,0,0:0:0:60:Snare1.wav
192,192,23943,1,0,0:0:0:0:
320,192,24109,1,0,0:0:0:0:
64,192,24276,1,0,0:0:0:0:
64,192,24609,1,0,0:0:0:60:Kick2.wav
320,192,24776,1,0,0:0:0:0:
64,192,24943,1,0,0:0:0:60:Clap.wav
192,192,24943,1,0,0:0:0:60:Snare1.wav
320,192,25276,1,0,0:0:0:0:
64,192,25443,1,0,0:0:0:0:
320,192,25609,1,0,0:0:0:60:Kick2.wav
192,192,25609,128,0,26943:0:0:0:0:
448,192,25943,1,0,0:0:0:0:
320,192,26109,1,0,0:0:0:0:
448,192,26276,1,0,0:0:0:60:Clap.wav
64,192,26276,1,0,0:0:0:60:Snare1.wav
64,192,26609,1,0,0:0:0:0:
448,192,26776,1,0,0:0:0:60:Kick2.wav
64,192,26943,1,0,0:0:0:0:
320,192,26943,128,0,28276:0:0:0:0:
192,192,27109,1,0,0:0:0:60:Kick2.wav
448,192,27276,1,0,0:0:0:60:Kick2.wav
448,192,27609,1,0,0:0:0:60:Clap.wav
64,192,27609,1,0,0:0:0:60:Snare1.wav
192,192,27943,1,0,0:0:0:60:Kick2.wav
448,192,28109,1,0,0:0:0:60:Kick2.wav
64,192,28276,128,0,30943:0:0:0:0:
192,192,28276,1,0,0:0:0:60:Kick2.wav
448,192,28609,1,0,0:0:0:0:
192,192,28776,1,0,0:0:0:0:
448,192,28943,1,0,0:0:0:60:Clap.wav
320,192,28943,1,0,0:0:0:60:Snare1.wav
320,192,29276,1,0,0:0:0:0:
192,192,29443,1,0,0:0:0:0:
448,192,29609,1,0,0:0:0:0:
448,192,29943,1,0,0:0:0:60:Kick2.wav
192,192,30109,1,0,0:0:0:0:
448,192,30276,1,0,0:0:0:60:Clap.wav
320,192,30276,1,0,0:0:0:60:Snare1.wav
192,192,30609,1,0,0:0:0:0:
448,192,30776,1,0,0:0:0:0:
192,192,30943,1,0,0:0:0:60:Kick2.wav
320,192,30943,128,0,32276:0:0:0:60:Beat.wav
64,192,31276,1,0,0:0:0:60:Beat.wav
192,192,31443,1,0,0:0:0:60:Beat.wav
64,192,31609,1,0,0:0:0:60:Clap.wav
448,192,31609,1,0,0:0:0:60:Snare1.wav
448,192,31943,1,0,0:0:0:60:Beat.wav
64,192,32109,1,0,0:0:0:60:Kick2.wav
448,192,32276,1,0,0:0:0:60:Beat.wav
192,192,32276,128,0,32943:0:0:0:0:
320,192,32443,1,0,0:0:0:60:Kick2.wav
64,192,32609,1,0,0:0:0:60:Kick2.wav
320,192,32776,1,0,0:0:0:60:Beat.wav
64,192,32943,1,0,0:0:0:60:Snare1.wav
448,192,32943,1,0,0:0:0:60:Clap.wav
320,192,33109,1,0,0:0:0:60:Kick2.wav
448,192,33276,1,0,0:0:0:60:Kick2.wav
64,192,33443,1,0,0:0:0:60:Kick2.wav
192,192,33526,1,0,0:0:0:60:Kick2.wav
320,192,33609,1,0,0:0:0:60:Cymbal1.wav
448,192,33609,1,0,0:0:0:60:Kick2.wav
64,192,33943,1,0,0:0:0:60:Snare2.wav
320,192,33943,1,0,0:0:0:60:Kick2.wav
320,192,34276,1,0,0:0:0:0:
448,192,34276,1,0,0:0:0:60:Kick2.wav
320,192,34609,1,0,0:0:0:60:Snare2.wav
64,192,34609,1,0,0:0:0:60:Kick2.wav
192,192,34943,1,0,0:0:0:0:
64,192,34943,1,0,0:0:0:60:Kick2.wav
320,192,35276,1,0,0:0:0:60:Snare2.wav
192,192,35276,1,0,0:0:0:60:Kick2.wav
448,192,35609,128,0,35943:0:0:0:0:
64,192,35609,1,0,0:0:0:60:Kick2.wav
320,192,35943,1,0,0:0:0:60:Snare2.wav
64,192,36276,1,0,0:0:0:0:
448,192,36276,1,0,0:0:0:60:Kick2.wav
320,192,36443,1,0,0:0:0:0:
448,192,36609,1,0,0:0:0:60:Snare2.wav
64,192,36609,1,0,0:0:0:60:Kick2.wav
192,192,36776,1,0,0:0:0:0:
320,192,36943,1,0,0:0:0:0:
448,192,36943,1,0,0:0:0:60:Kick2.wav
64,192,37109,1,0,0:0:0:0:
448,192,37276,1,0,0:0:0:60:Snare2.wav
192,192,37276,1,0,0:0:0:60:Kick2.wav
320,192,37443,1,0,0:0:0:0:
64,192,37609,128,0,37943:0:0:0:0:
192,192,37609,1,0,0:0:0:60:Kick2.wav
448,192,37943,128,0,38276:0:0:0:60:Snare2.wav
320,192,37943,1,0,0:0:0:60:Kick2.wav
192,192,38276,128,0,38609:0:0:0:0:
64,192,38276,1,0,0:0:0:60:Kick2.wav
320,192,38609,128,0,38943:0:0:0:60:Snare2.wav
448,192,38609,1,0,0:0:0:60:Kick2.wav
192,192,38943,1,0,0:0:0:0:
64,192,38943,1,0,0:0:0:60:Kick2.wav
448,192,39276,1,0,0:0:0:60:Snare2.wav
192,192,39276,1,0,0:0:0:60:Kick2.wav
320,192,39609,1,0,0:0:0:0:
64,192,39609,1,0,0:0:0:60:Kick2.wav
320,192,39943,1,0,0:0:0:60:Snare2.wav
448,192,39943,1,0,0:0:0:60:Kick2.wav
192,192,40276,1,0,0:0:0:0:
448,192,40276,1,0,0:0:0:60:Kick2.wav
64,192,40443,1,0,0:0:0:0:
192,192,40609,1,0,0:0:0:60:Snare2.wav
320,192,40609,1,0,0:0:0:60:Kick2.wav
448,192,40776,1,0,0:0:0:0:
64,192,40943,128,0,41276:0:0:0:0:
320,192,40943,1,0,0:0:0:60:Kick2.wav
192,192,41276,1,0,0:0:0:60:Snare2.wav
64,192,41609,1,0,0:0:0:60:Kick2.wav
448,192,41609,1,0,0:0:0:60:Beat.wav
192,192,41776,1,0,0:0:0:60:Beat.wav
64,192,41943,1,0,0:0:0:60:Snare2.wav
448,192,41943,1,0,0:0:0:60:Kick2.wav
320,192,42109,1,0,0:0:0:60:Beat.wav
64,192,42276,1,0,0:0:0:60:Kick2.wav
192,192,42276,1,0,0:0:0:60:Beat.wav
448,192,42443,1,0,0:0:0:60:Beat.wav
64,192,42609,1,0,0:0:0:60:Snare2.wav
320,192,42609,1,0,0:0:0:60:Kick2.wav
320,192,42943,128,0,43109:0:0:0:60:Beat.wav
448,192,42943,128,0,43276:0:0:0:60:Kick2.wav
320,192,43276,128,0,43609:0:0:0:60:Beat.wav
192,192,43276,1,0,0:0:0:60:Snare2.wav
64,192,43276,128,0,43609:0:0:0:60:Kick2.wav
448,192,43609,128,0,43943:0:0:0:60:Beat.wav
192,192,43609,128,0,44276:0:0:0:60:Kick2.wav
320,192,43943,1,0,0:0:0:60:Snare2.wav
448,192,44276,128,0,44609:0:0:0:60:Cymbal1.wav
64,192,44276,1,0,0:0:0:60:Kick2.wav
192,192,44443,1,0,0:0:0:0:
320,192,44609,1,0,0:0:0:0:
192,192,44776,1,0,0:0:0:0:
64,192,44943,1,0,0:0:0:0:
192,192,45109,1,0,0:0:0:0:
448,192,45276,1,0,0:0:0:0:
320,192,45443,1,0,0:0:0:0:
64,192,45609,1,0,0:0:0:0:
192,192,45609,128,0,46276:0:0:0:0:
320,192,45776,1,0,0:0:0:0:
448,192,45943,1,0,0:0:0:0:
320,192,46109,1,0,0:0:0:0:
448,192,46276,1,0,0:0:0:0:
320,192,46443,1,0,0:0:0:0:
192,192,46609,1,0,0:0:0:0:
64,192,46776,1,0,0:0:0:0:
448,192,46943,128,0,47609:0:0:0:0:
320,192,46943,1,0,0:0:0:0:
192,192,47109,1,0,0:0:0:0:
64,192,47276,1,0,0:0:0:0:
192,192,47443,1,0,0:0:0:0:
320,192,47609,1,0,0:0:0:0:
192,192,47776,1,0,0:0:0:0:
448,192,47943,1,0,0:0:0:0:
64,192,48109,1,0,0:0:0:0:
448,192,48276,1,0,0:0:0:0:
192,192,48276,128,0,48943:0:0:0:0:
320,192,48443,1,0,0:0:0:0:
64,192,48609,1,0,0:0:0:0:
448,192,48776,1,0,0:0:0:0:
64,192,48943,1,0,0:0:0:0:
192,192,49109,1,0,0:0:0:0:
320,192,49276,128,0,49609:0:0:0:0:
448,192,49609,1,0,0:0:0:0:
64,192,49609,128,0,50276:0:0:0:60:Kick2.wav
320,192,49776,1,0,0:0:0:0:
192,192,49943,1,0,0:0:0:0:
320,192,50109,1,0,0:0:0:0:
448,192,50276,1,0,0:0:0:60:Snare1.wav
320,192,50443,1,0,0:0:0:0:
64,192,50609,1,0,0:0:0:0:
192,192,50776,1,0,0:0:0:0:
448,192,50943,1,0,0:0:0:0:
320,192,50943,128,0,51609:0:0:0:0:
192,192,51109,1,0,0:0:0:0:
64,192,51276,1,0,0:0:0:60:Kick2.wav
192,192,51443,1,0,0:0:0:0:
64,192,51609,1,0,0:0:0:60:Snare1.wav
192,192,51776,1,0,0:0:0:0:
320,192,51943,1,0,0:0:0:0:
448,192,52109,1,0,0:0:0:0:
192,192,52276,1,0,0:0:0:0:
64,192,52276,128,0,52943:0:0:0:60:Kick2.wav
320,192,52443,1,0,0:0:0:0:
448,192,52609,1,0,0:0:0:0:
320,192,52776,1,0,0:0:0:0:
448,192,52943,1,0,0:0:0:60:Snare1.wav
320,192,53109,1,0,0:0:0:0:
64,192,53276,1,0,0:0:0:0:
192,192,53443,1,0,0:0:0:60:Kick2.wav
448,192,53609,1,0,0:0:0:0:
320,192,53609,128,0,54276:0:0:0:60:FX1.wav
64,192,53776,1,0,0:0:0:60:Kick2.wav
192,192,53943,1,0,0:0:0:60:Kick2.wav
64,192,54109,1,0,0:0:0:0:
448,192,54276,1,0,0:0:0:60:Snare1.wav
320,192,54443,1,0,0:0:0:0:
192,192,54609,1,0,0:0:0:60:Kick2.wav
64,192,54776,1,0,0:0:0:60:Kick2.wav
448,192,54943,1,0,0:0:0:30:Snare3.wav
320,192,54943,1,0,0:0:0:60:Kick2.wav
64,192,55109,1,0,0:0:0:30:Snare3.wav
192,192,55193,1,0,0:0:0:30:Snare3.wav
448,192,55276,1,0,0:0:0:30:Snare3.wav
320,192,55276,1,0,0:0:0:60:Kick2.wav
192,192,55443,1,0,0:0:0:30:Snare3.wav
64,192,55526,1,0,0:0:0:30:Snare3.wav
448,192,55609,1,0,0:0:0:30:Snare3.wav
320,192,55609,1,0,0:0:0:60:Kick2.wav
64,192,55776,1,0,0:0:0:30:Snare3.wav
192,192,55859,1,0,0:0:0:30:Snare3.wav
448,192,55943,1,0,0:0:0:30:Snare3.wav
320,192,55943,1,0,0:0:0:60:Kick2.wav
192,192,56109,1,0,0:0:0:30:Snare3.wav
320,192,56193,1,0,0:0:0:30:Snare3.wav
64,192,56276,1,0,0:0:0:30:Snare3.wav
192,192,56276,1,0,0:0:0:60:Kick2.wav
448,192,56443,1,0,0:0:0:30:Snare3.wav
320,192,56526,1,0,0:0:0:30:Snare3.wav
64,192,56609,1,0,0:0:0:30:Snare3.wav
192,192,56609,1,0,0:0:0:60:Kick2.wav
320,192,56776,1,0,0:0:0:30:Snare3.wav
448,192,56859,1,0,0:0:0:30:Snare3.wav
64,192,56943,1,0,0:0:0:30:Snare3.wav
192,192,56943,1,0,0:0:0:60:Kick2.wav
448,192,57109,1,0,0:0:0:30:Snare3.wav
320,192,57193,1,0,0:0:0:30:Snare3.wav
64,192,57276,1,0,0:0:0:30:Snare3.wav
192,192,57276,1,0,0:0:0:60:Kick2.wav
320,192,57443,1,0,0:0:0:30:Snare3.wav
192,192,57526,1,0,0:0:0:30:Snare3.wav
448,192,57609,1,0,0:0:0:30:Snare3.wav
320,192,57609,1,0,0:0:0:60:Kick2.wav
64,192,57776,1,0,0:0:0:30:Snare3.wav
192,192,57859,1,0,0:0:0:30:Snare3.wav
448,192,57943,1,0,0:0:0:30:Snare3.wav
320,192,57943,1,0,0:0:0:60:Kick2.wav
192,192,58109,1,0,0:0:0:30:Snare3.wav
64,192,58193,1,0,0:0:0:30:Snare3.wav
448,192,58276,1,0,0:0:0:30:Snare3.wav
320,192,58276,1,0,0:0:0:60:Kick2.wav
64,192,58443,1,0,0:0:0:30:Snare3.wav
192,192,58526,1,0,0:0:0:30:Snare3.wav
448,192,58609,1,0,0:0:0:30:Snare3.wav
320,192,58609,1,0,0:0:0:60:Kick2.wav
192,192,58776,1,0,0:0:0:30:Snare3.wav
320,192,58859,1,0,0:0:0:30:Snare3.wav
64,192,58943,1,0,0:0:0:30:Snare3.wav
192,192,58943,1,0,0:0:0:60:Kick2.wav
448,192,59109,5,0,0:0:0:30:Snare3.wav
320,192,59193,1,0,0:0:0:30:Snare3.wav
64,192,59276,1,0,0:0:0:30:Snare3.wav
192,192,59276,1,0,0:0:0:60:Kick2.wav
320,192,59443,1,0,0:0:0:30:Snare3.wav
448,192,59526,1,0,0:0:0:30:Snare3.wav
64,192,59609,1,0,0:0:0:30:Snare3.wav
192,192,59609,1,0,0:0:0:60:Kick2.wav
448,192,59776,1,0,0:0:0:30:Snare3.wav
320,192,59859,1,0,0:0:0:30:Snare3.wav
64,192,59943,1,0,0:0:0:30:Snare3.wav
192,192,59943,1,0,0:0:0:60:Kick2.wav
320,192,60109,1,0,0:0:0:30:Snare3.wav
192,192,60193,1,0,0:0:0:30:Snare3.wav
448,192,60276,5,0,0:0:0:30:Snare3.wav
64,192,60276,1,0,0:0:0:60:Cymbal1.wav
320,192,60443,1,0,0:0:0:30:Snare3.wav
192,192,60443,1,0,0:0:0:60:Kick2.wav
448,192,60609,1,0,0:0:0:30:Snare3.wav
320,192,60609,1,0,0:0:0:60:Kick2.wav
192,192,60776,1,0,0:0:0:60:Kick2.wav
64,192,60859,1,0,0:0:0:60:Kick2.wav
448,192,60943,1,0,0:0:0:30:Snare3.wav
320,192,60943,1,0,0:0:0:60:Kick2.wav
320,192,61109,1,0,0:0:0:30:Snare3.wav
192,192,61109,1,0,0:0:0:60:Kick2.wav
448,192,61276,1,0,0:0:0:30:Snare3.wav
64,192,61276,1,0,0:0:0:60:Kick2.wav
192,192,61443,1,0,0:0:0:60:Kick2.wav
320,192,61526,1,0,0:0:0:60:Kick2.wav
64,192,61609,1,0,0:0:0:30:Snare3.wav
448,192,61609,1,0,0:0:0:60:Kick2.wav
192,192,61776,1,0,0:0:0:30:Snare3.wav
320,192,61776,1,0,0:0:0:60:Kick2.wav
64,192,61943,1,0,0:0:0:30:Snare3.wav
192,192,61943,1,0,0:0:0:60:Kick2.wav
320,192,62109,1,0,0:0:0:60:Kick2.wav
448,192,62193,1,0,0:0:0:60:Kick2.wav
192,192,62276,1,0,0:0:0:30:Snare3.wav
64,192,62276,1,0,0:0:0:60:Kick2.wav
192,192,62443,1,0,0:0:0:30:Snare3.wav
320,192,62443,1,0,0:0:0:60:Kick2.wav
64,192,62609,1,0,0:0:0:30:Snare3.wav
448,192,62609,1,0,0:0:0:60:Kick2.wav
320,192,62776,1,0,0:0:0:60:Kick2.wav
192,192,62859,1,0,0:0:0:60:Kick2.wav
64,192,62943,1,0,0:0:0:60:Kick2.wav
448,192,63026,1,0,0:0:0:60:Kick2.wav
320,192,63109,1,0,0:0:0:60:Kick2.wav
192,192,63193,1,0,0:0:0:60:Kick2.wav
64,192,63276,1,0,0:0:0:60:Kick2.wav
448,192,63359,1,0,0:0:0:60:Kick2.wav
320,192,63443,1,0,0:0:0:60:Kick2.wav
192,192,63526,1,0,0:0:0:60:Kick2.wav
64,192,63609,1,0,0:0:0:60:Kick2.wav
448,192,63693,1,0,0:0:0:60:Kick2.wav
320,192,63776,1,0,0:0:0:60:Kick2.wav
192,192,63859,1,0,0:0:0:60:Kick2.wav
64,192,63943,1,0,0:0:0:60:Kick2.wav
448,192,64026,1,0,0:0:0:60:Kick2.wav
320,192,64109,1,0,0:0:0:60:Kick2.wav
192,192,64193,1,0,0:0:0:60:Kick2.wav
64,192,64276,1,0,0:0:0:60:Snare2.wav
192,192,64609,1,0,0:0:0:0:
64,192,64609,1,0,0:0:0:60:Snare2.wav
64,192,64943,1,0,0:0:0:0:
320,192,64943,1,0,0:0:0:0:
192,192,64943,1,0,0:0:0:0:
192,192,65276,1,0,0:0:0:0:
448,192,65276,1,0,0:0:0:0:
320,192,65276,1,0,0:0:0:0:
64,192,65276,1,0,0:0:0:60:Snare2.wav
448,192,65609,128,0,65943:0:0:0:60:Cymbal3.wav
320,192,65609,128,0,65943:0:0:0:60:Kick3.wav
64,192,65943,128,0,66109:0:0:0:0:
192,192,65943,1,0,0:0:0:60:Kick3.wav
320,192,66276,128,0,66443:0:0:0:0:
448,192,66276,1,0,0:0:0:60:Kick3.wav
64,192,66609,1,0,0:0:0:0:
192,192,66609,1,0,0:0:0:60:Kick3.wav
320,192,66776,1,0,0:0:0:60:Hithat2.wav
448,192,66943,128,0,67109:0:0:0:0:
192,192,66943,1,0,0:0:0:60:Kick3.wav
448,192,67276,128,0,67443:0:0:0:0:
64,192,67276,1,0,0:0:0:60:Kick3.wav
192,192,67443,128,0,67609:0:0:0:60:Hithat2.wav
320,192,67609,128,0,67776:0:0:0:0:
448,192,67609,1,0,0:0:0:60:Kick3.wav
192,192,67776,128,0,67943:0:0:0:60:Hithat2.wav
448,192,67943,128,0,68276:0:0:0:0:
64,192,67943,1,0,0:0:0:60:Kick3.wav
64,192,68276,128,0,68609:0:0:0:60:Cymbal4.wav
192,192,68276,128,0,68609:0:0:0:60:Kick3.wav
448,192,68609,128,0,68776:0:0:0:0:
320,192,68609,1,0,0:0:0:60:Kick3.wav
192,192,68943,128,0,69109:0:0:0:0:
64,192,68943,1,0,0:0:0:60:Kick3.wav
320,192,69109,128,0,69276:0:0:0:60:Hithat2.wav
448,192,69276,1,0,0:0:0:0:
64,192,69276,1,0,0:0:0:60:Kick3.wav
192,192,69443,1,0,0:0:0:60:Hithat2.wav
64,192,69609,128,0,69776:0:0:0:0:
320,192,69609,1,0,0:0:0:60:Kick3.wav
64,192,69943,1,0,0:0:0:0:
448,192,69943,1,0,0:0:0:60:Kick3.wav
320,192,70109,1,0,0:0:0:60:Hithat2.wav
192,192,70276,128,0,70443:0:0:0:0:
64,192,70276,1,0,0:0:0:60:Kick3.wav
320,192,70443,128,0,70609:0:0:0:60:Hithat2.wav
64,192,70609,128,0,70943:0:0:0:0:
448,192,70609,1,0,0:0:0:60:Kick3.wav
448,192,70943,128,0,71276:0:0:0:60:Cymbal4.wav
320,192,70943,128,0,71276:0:0:0:60:Kick3.wav
64,192,71276,128,0,71443:0:0:0:0:
192,192,71276,1,0,0:0:0:60:Kick3.wav
192,192,71609,128,0,71776:0:0:0:0:
448,192,71609,1,0,0:0:0:60:Kick3.wav
64,192,71943,1,0,0:0:0:0:
320,192,71943,1,0,0:0:0:60:Kick3.wav
192,192,72109,1,0,0:0:0:60:Hithat2.wav
448,192,72276,128,0,72443:0:0:0:0:
320,192,72276,1,0,0:0:0:60:Kick3.wav
448,192,72609,128,0,72776:0:0:0:0:
64,192,72609,1,0,0:0:0:60:Kick3.wav
320,192,72776,128,0,72943:0:0:0:60:Hithat2.wav
192,192,72943,128,0,73109:0:0:0:0:
448,192,72943,1,0,0:0:0:60:Kick3.wav
320,192,73109,128,0,73276:0:0:0:60:Hithat2.wav
448,192,73276,128,0,73609:0:0:0:0:
64,192,73276,1,0,0:0:0:60:Kick3.wav
64,192,73609,128,0,73943:0:0:0:60:Cymbal4.wav
192,192,73609,128,0,73943:0:0:0:60:Kick3.wav
448,192,73943,128,0,74109:0:0:0:0:
320,192,73943,1,0,0:0:0:60:Kick3.wav
320,192,74276,128,0,74443:0:0:0:0:
64,192,74276,1,0,0:0:0:60:Kick3.wav
192,192,74443,128,0,74609:0:0:0:60:Hithat2.wav
448,192,74609,1,0,0:0:0:0:
64,192,74609,1,0,0:0:0:60:Kick3.wav
320,192,74776,1,0,0:0:0:60:Hithat2.wav
64,192,74943,128,0,75109:0:0:0:60:FX_kick.wav
192,192,74943,1,0,0:0:0:0:
320,192,75276,1,0,0:0:0:0:
448,192,75443,1,0,0:0:0:0:
320,192,75609,128,0,75776:0:0:0:0:
192,192,75776,128,0,75943:0:0:0:0:
64,192,75943,128,0,76276:0:0:0:0:
320,192,76276,128,0,76609:0:0:0:60:Cymbal3.wav
448,192,76276,128,0,76609:0:0:0:60:Kick3.wav
192,192,76609,128,0,76776:0:0:0:0:
64,192,76609,1,0,0:0:0:60:Kick3.wav
448,192,76943,128,0,77109:0:0:0:0:
320,192,76943,1,0,0:0:0:60:Kick3.wav
192,192,77276,1,0,0:0:0:0:
64,192,77276,1,0,0:0:0:60:Kick3.wav
448,192,77443,1,0,0:0:0:60:Clap.wav
320,192,77609,128,0,77776:0:0:0:0:
64,192,77609,1,0,0:0:0:60:Kick3.wav
320,192,77943,128,0,78109:0:0:0:0:
192,192,77943,1,0,0:0:0:60:Kick3.wav
64,192,78109,128,0,78276:0:0:0:60:Clap.wav
448,192,78276,128,0,78443:0:0:0:0:
320,192,78276,1,0,0:0:0:60:Kick3.wav
64,192,78443,128,0,78609:0:0:0:60:Clap.wav
320,192,78609,128,0,78943:0:0:0:0:
192,192,78609,1,0,0:0:0:60:Kick3.wav
192,192,78943,128,0,79276:0:0:0:60:Cymbal4.wav
64,192,78943,128,0,79276:0:0:0:60:Kick3.wav
320,192,79276,128,0,79443:0:0:0:0:
448,192,79276,1,0,0:0:0:60:Kick3.wav
64,192,79609,128,0,79776:0:0:0:0:
192,192,79609,1,0,0:0:0:60:Kick3.wav
320,192,79776,128,0,79943:0:0:0:60:Clap.wav
192,192,79943,1,0,0:0:0:0:
448,192,79943,1,0,0:0:0:60:Kick3.wav
64,192,80109,1,0,0:0:0:60:Clap.wav
192,192,80276,128,0,80443:0:0:0:0:
448,192,80276,1,0,0:0:0:60:Kick3.wav
192,192,80609,1,0,0:0:0:0:
320,192,80609,1,0,0:0:0:60:Kick3.wav
448,192,80776,1,0,0:0:0:60:Clap.wav
64,192,80943,128,0,81109:0:0:0:0:
192,192,80943,1,0,0:0:0:60:Kick3.wav
448,192,81109,128,0,81276:0:0:0:60:Clap.wav
192,192,81276,128,0,81609:0:0:0:0:
320,192,81276,1,0,0:0:0:60:Kick3.wav
320,192,81609,128,0,81943:0:0:0:60:Cymbal4.wav
448,192,81609,128,0,81943:0:0:0:60:Kick3.wav
192,192,81943,128,0,82109:0:0:0:0:
64,192,81943,1,0,0:0:0:60:Kick3.wav
64,192,82276,128,0,82443:0:0:0:0:
320,192,82276,1,0,0:0:0:60:Kick3.wav
192,192,82609,1,0,0:0:0:0:
448,192,82609,1,0,0:0:0:60:Kick3.wav
64,192,82776,1,0,0:0:0:60:Clap.wav
320,192,82943,128,0,83109:0:0:0:0:
448,192,82943,1,0,0:0:0:60:Kick3.wav
320,192,83276,128,0,83443:0:0:0:0:
192,192,83276,1,0,0:0:0:60:Kick3.wav
448,192,83443,128,0,83609:0:0:0:60:Clap.wav
64,192,83609,128,0,83776:0:0:0:0:
320,192,83609,1,0,0:0:0:60:Kick3.wav
448,192,83776,128,0,83943:0:0:0:60:Clap.wav
320,192,83943,128,0,84276:0:0:0:0:
192,192,83943,1,0,0:0:0:60:Kick3.wav
192,192,84276,128,0,84609:0:0:0:60:Cymbal4.wav
64,192,84276,128,0,84609:0:0:0:60:Kick3.wav
320,192,84609,128,0,84776:0:0:0:0:
448,192,84609,1,0,0:0:0:60:Kick3.wav
448,192,84943,128,0,85109:0:0:0:0:
192,192,84943,1,0,0:0:0:60:Kick3.wav
320,192,85109,128,0,85276:0:0:0:60:Clap.wav
192,192,85276,1,0,0:0:0:0:
64,192,85276,1,0,0:0:0:60:Kick3.wav
448,192,85443,1,0,0:0:0:60:Clap.wav
64,192,85609,1,0,0:0:0:60:Kick3.wav
192,192,85693,1,0,0:0:0:40:Snare3.wav
320,192,85776,1,0,0:0:0:40:Snare3.wav
448,192,85859,1,0,0:0:0:40:Snare3.wav
64,192,85943,1,0,0:0:0:40:Snare3.wav
192,192,86026,1,0,0:0:0:40:Snare3.wav
320,192,86109,1,0,0:0:0:40:Snare3.wav
448,192,86193,1,0,0:0:0:40:Snare3.wav
64,192,86276,1,0,0:0:0:40:Snare3.wav
192,192,86359,1,0,0:0:0:40:Snare3.wav
320,192,86443,1,0,0:0:0:40:Snare3.wav
192,192,86526,1,0,0:0:0:40:Snare3.wav
448,192,86609,1,0,0:0:0:40:Snare3.wav
320,192,86693,1,0,0:0:0:40:Snare3.wav
64,192,86776,1,0,0:0:0:40:Snare3.wav
192,192,86859,1,0,0:0:0:40:Snare3.wav
320,192,86943,128,0,89276:0:0:0:60:Cymbal1.wav
448,192,86943,128,0,89609:0:0:0:60:Kick2.wav
320,192,89609,128,0,90609:0:0:0:0:
64,192,89609,128,0,90943:0:0:0:0:
192,192,90943,128,0,91943:0:0:0:0:
320,192,90943,128,0,92276:0:0:0:0:
192,192,92276,128,0,94609:0:0:0:0:
64,192,92276,128,0,94943:0:0:0:0:
192,192,94943,128,0,95943:0:0:0:0:
448,192,94943,128,0,96276:0:0:0:0:
320,192,96276,128,0,97276:0:0:0:0:
192,192,96276,128,0,97609:0:0:0:0:
64,192,97609,128,0,100276:0:0:0:60:Cymbal1.wav
320,192,97609,1,0,0:0:0:60:Kick2.wav
448,192,97943,1,0,0:0:0:0:
320,192,98109,1,0,0:0:0:0:
192,192,98276,1,0,0:0:0:0:
192,192,98609,1,0,0:0:0:0:
320,192,98776,1,0,0:0:0:0:
448,192,98943,1,0,0:0:0:0:
448,192,99276,1,0,0:0:0:0:
320,192,99443,1,0,0:0:0:0:
192,192,99609,1,0,0:0:0:0:
320,192,99943,1,0,0:0:0:0:
448,192,100109,1,0,0:0:0:0:
320,192,100276,1,0,0:0:0:0:
192,192,100276,128,0,101609:0:0:0:0:
64,192,100609,1,0,0:0:0:0:
320,192,100776,1,0,0:0:0:0:
448,192,100943,1,0,0:0:0:0:
448,192,101276,1,0,0:0:0:0:
64,192,101443,1,0,0:0:0:0:
448,192,101609,1,0,0:0:0:0:
320,192,101609,128,0,102943:0:0:0:0:
64,192,101943,1,0,0:0:0:0:
192,192,102109,1,0,0:0:0:0:
448,192,102276,1,0,0:0:0:0:
192,192,102609,1,0,0:0:0:0:
64,192,102776,1,0,0:0:0:0:
448,192,102943,128,0,105609:0:0:0:0:
192,192,102943,1,0,0:0:0:0:
64,192,103276,1,0,0:0:0:0:
192,192,103443,1,0,0:0:0:0:
320,192,103609,1,0,0:0:0:0:
320,192,103943,1,0,0:0:0:0:
192,192,104109,1,0,0:0:0:0:
64,192,104276,1,0,0:0:0:0:
64,192,104609,1,0,0:0:0:0:
192,192,104776,1,0,0:0:0:0:
320,192,104943,1,0,0:0:0:0:
192,192,105276,1,0,0:0:0:0:
64,192,105443,1,0,0:0:0:0:
320,192,105609,128,0,106943:0:0:0:0:
192,192,105609,1,0,0:0:0:0:
448,192,105943,1,0,0:0:0:0:
192,192,106109,1,0,0:0:0:0:
64,192,106276,1,0,0:0:0:0:
64,192,106609,1,0,0:0:0:0:
448,192,106776,1,0,0:0:0:0:
192,192,106943,128,0,108276:0:0:0:0:
64,192,106943,1,0,0:0:0:0:
448,192,107276,1,0,0:0:0:0:
320,192,107443,1,0,0:0:0:0:
64,192,107609,1,0,0:0:0:0:
320,192,107943,1,0,0:0:0:0:
448,192,108109,1,0,0:0:0:0:
64,192,108276,128,0,110943:0:0:0:60:Cymbal1.wav
320,192,108276,1,0,0:0:0:60:Kick2.wav
448,192,108609,1,0,0:0:0:0:
192,192,108776,1,0,0:0:0:0:
448,192,108943,1,0,0:0:0:60:Clap.wav
320,192,108943,1,0,0:0:0:60:Snare1.wav
320,192,109276,1,0,0:0:0:0:
192,192,109443,1,0,0:0:0:0:
448,192,109609,1,0,0:0:0:0:
448,192,109943,1,0,0:0:0:60:Kick2.wav
192,192,110109,1,0,0:0:0:0:
448,192,110276,1,0,0:0:0:60:Clap.wav
320,192,110276,1,0,0:0:0:60:Snare1.wav
192,192,110609,1,0,0:0:0:0:
448,192,110776,1,0,0:0:0:0:
192,192,110943,1,0,0:0:0:0:
320,192,110943,128,0,112276:0:0:0:60:Kick2.wav
64,192,111276,1,0,0:0:0:0:
192,192,111443,1,0,0:0:0:0:
64,192,111609,1,0,0:0:0:60:Clap.wav
448,192,111609,1,0,0:0:0:60:Snare1.wav
448,192,111943,1,0,0:0:0:0:
64,192,112109,1,0,0:0:0:60:Kick2.wav
448,192,112276,1,0,0:0:0:0:
192,192,112276,128,0,113609:0:0:0:0:
320,192,112443,1,0,0:0:0:60:Kick2.wav
64,192,112609,1,0,0:0:0:60:Kick2.wav
64,192,112943,1,0,0:0:0:60:Clap.wav
448,192,112943,1,0,0:0:0:60:Snare1.wav
320,192,113276,1,0,0:0:0:60:Kick2.wav
64,192,113443,1,0,0:0:0:60:Kick2.wav
320,192,113609,1,0,0:0:0:0:
448,192,113609,128,0,116276:0:0:0:60:Kick2.wav
64,192,113943,1,0,0:0:0:0:
320,192,114109,1,0,0:0:0:0:
64,192,114276,1,0,0:0:0:60:Clap.wav
192,192,114276,1,0,0:0:0:60:Snare1.wav
192,192,114609,1,0,0:0:0:0:
320,192,114776,1,0,0:0:0:0:
64,192,114943,1,0,0:0:0:0:
64,192,115276,1,0,0:0:0:60:Kick2.wav
320,192,115443,1,0,0:0:0:0:
64,192,115609,1,0,0:0:0:60:Clap.wav
192,192,115609,1,0,0:0:0:60:Snare1.wav
320,192,115943,1,0,0:0:0:0:
64,192,116109,1,0,0:0:0:0:
320,192,116276,1,0,0:0:0:60:Kick2.wav
192,192,116276,128,0,117609:0:0:0:60:Beat.wav
448,192,116609,1,0,0:0:0:60:Beat.wav
320,192,116776,1,0,0:0:0:60:Beat.wav
448,192,116943,1,0,0:0:0:60:Clap.wav
64,192,116943,1,0,0:0:0:60:Snare1.wav
64,192,117276,1,0,0:0:0:60:Beat.wav
448,192,117443,1,0,0:0:0:60:Kick2.wav
320,192,117609,128,0,118276:0:0:0:0:
64,192,117609,1,0,0:0:0:60:Beat.wav
192,192,117776,1,0,0:0:0:60:Kick2.wav
448,192,117943,1,0,0:0:0:60:Kick2.wav
192,192,118109,1,0,0:0:0:60:Beat.wav
448,192,118276,1,0,0:0:0:60:Snare1.wav
64,192,118276,1,0,0:0:0:60:Clap.wav
192,192,118443,1,0,0:0:0:60:Kick2.wav
64,192,118609,1,0,0:0:0:60:Kick2.wav
448,192,118776,1,0,0:0:0:60:Kick2.wav
320,192,118859,1,0,0:0:0:60:Kick2.wav
192,192,118943,1,0,0:0:0:60:Cymbal1.wav
64,192,118943,1,0,0:0:0:60:Kick2.wav
448,192,119276,1,0,0:0:0:60:Snare2.wav
192,192,119276,1,0,0:0:0:60:Kick2.wav
192,192,119609,1,0,0:0:0:0:
64,192,119609,1,0,0:0:0:60:Kick2.wav
192,192,119943,1,0,0:0:0:60:Snare2.wav
448,192,119943,1,0,0:0:0:60:Kick2.wav
320,192,120276,1,0,0:0:0:0:
448,192,120276,1,0,0:0:0:60:Kick2.wav
192,192,120609,1,0,0:0:0:60:Snare2.wav
320,192,120609,1,0,0:0:0:60:Kick2.wav
64,192,120943,128,0,121276:0:0:0:0:
448,192,120943,1,0,0:0:0:60:Kick2.wav
192,192,121276,1,0,0:0:0:60:Snare2.wav
448,192,121609,1,0,0:0:0:0:
64,192,121609,1,0,0:0:0:60:Kick2.wav
192,192,121693,1,0,0:0:0:0:
320,192,121776,1,0,0:0:0:0:
192,192,121859,1,0,0:0:0:0:
64,192,121943,1,0,0:0:0:60:Snare2.wav
448,192,121943,1,0,0:0:0:60:Kick2.wav
320,192,122109,1,0,0:0:0:0:
192,192,122276,1,0,0:0:0:0:
64,192,122276,1,0,0:0:0:60:Kick2.wav
448,192,122443,1,0,0:0:0:0:
64,192,122609,1,0,0:0:0:60:Snare2.wav
320,192,122609,1,0,0:0:0:60:Kick2.wav
192,192,122776,1,0,0:0:0:0:
448,192,122943,128,0,123276:0:0:0:0:
320,192,122943,1,0,0:0:0:60:Kick2.wav
64,192,123276,128,0,123609:0:0:0:60:Snare2.wav
192,192,123276,1,0,0:0:0:60:Kick2.wav
320,192,123609,128,0,123943:0:0:0:0:
448,192,123609,1,0,0:0:0:60:Kick2.wav
192,192,123943,128,0,124276:0:0:0:60:Snare2.wav
64,192,123943,1,0,0:0:0:60:Kick2.wav
320,192,124276,1,0,0:0:0:0:
448,192,124276,1,0,0:0:0:60:Kick2.wav
64,192,124443,1,0,0:0:0:0:
320,192,124609,1,0,0:0:0:60:Snare2.wav
448,192,124776,1,0,0:0:0:0:
320,192,124943,1,0,0:0:0:60:Kick2.wav
64,192,125109,1,0,0:0:0:0:
320,192,125276,1,0,0:0:0:60:Snare2.wav
192,192,125609,1,0,0:0:0:0:
64,192,125609,1,0,0:0:0:60:Kick2.wav
448,192,125776,1,0,0:0:0:0:
320,192,125943,1,0,0:0:0:60:Snare2.wav
192,192,125943,1,0,0:0:0:60:Kick2.wav
64,192,126109,1,0,0:0:0:0:
448,192,126276,128,0,126609:0:0:0:0:
192,192,126276,1,0,0:0:0:60:Kick2.wav
320,192,126609,1,0,0:0:0:60:Snare2.wav
448,192,126943,1,0,0:0:0:60:Kick2.wav
64,192,126943,1,0,0:0:0:60:Beat.wav
320,192,127109,1,0,0:0:0:60:Beat.wav
448,192,127276,1,0,0:0:0:60:Snare2.wav
64,192,127276,1,0,0:0:0:60:Kick2.wav
192,192,127443,1,0,0:0:0:60:Beat.wav
448,192,127609,1,0,0:0:0:60:Kick2.wav
320,192,127609,1,0,0:0:0:60:Beat.wav
192,192,127776,1,0,0:0:0:60:Beat.wav
448,192,127943,1,0,0:0:0:60:Snare2.wav
320,192,127943,1,0,0:0:0:60:Kick2.wav
64,192,128109,1,0,0:0:0:60:Beat.wav
192,192,128276,128,0,128443:0:0:0:60:Beat.wav
320,192,128276,128,0,128609:0:0:0:60:Kick2.wav
448,192,128609,128,0,128943:0:0:0:60:Beat.wav
64,192,128609,128,0,128943:0:0:0:60:Snare2.wav
192,192,128609,1,0,0:0:0:60:Kick2.wav
320,192,128943,128,0,129276:0:0:0:60:Beat.wav
192,192,128943,128,0,129609:0:0:0:60:Kick2.wav
64,192,129609,128,0,129943:0:0:0:60:Cymbal1.wav
448,192,129609,1,0,0:0:0:60:Kick2.wav
320,192,129776,1,0,0:0:0:0:
192,192,129943,1,0,0:0:0:40:Hithat1.wav
320,192,130109,1,0,0:0:0:0:
448,192,130276,1,0,0:0:0:40:Hithat1.wav
320,192,130443,1,0,0:0:0:0:
64,192,130609,1,0,0:0:0:40:Hithat1.wav
192,192,130776,1,0,0:0:0:40:Hithat1.wav
448,192,130943,1,0,0:0:0:0:
320,192,130943,128,0,131609:0:0:0:40:Hithat1.wav
192,192,131109,1,0,0:0:0:0:
64,192,131276,1,0,0:0:0:40:Hithat1.wav
192,192,131443,1,0,0:0:0:0:
64,192,131609,1,0,0:0:0:40:Hithat1.wav
192,192,131776,1,0,0:0:0:0:
320,192,131943,1,0,0:0:0:0:
448,192,132109,1,0,0:0:0:0:
64,192,132276,128,0,132943:0:0:0:0:
192,192,132276,1,0,0:0:0:40:Hithat1.wav
320,192,132443,1,0,0:0:0:0:
448,192,132609,1,0,0:0:0:40:Hithat1.wav
320,192,132776,1,0,0:0:0:0:
192,192,132943,1,0,0:0:0:40:Hithat1.wav
320,192,133109,1,0,0:0:0:0:
64,192,133276,1,0,0:0:0:40:Hithat1.wav
448,192,133443,1,0,0:0:0:0:
64,192,133609,1,0,0:0:0:0:
320,192,133609,128,0,134276:0:0:0:40:Hithat1.wav
192,192,133776,1,0,0:0:0:0:
448,192,133943,1,0,0:0:0:40:Hithat1.wav
64,192,134109,1,0,0:0:0:0:
448,192,134276,1,0,0:0:0:40:Hithat1.wav
320,192,134443,1,0,0:0:0:0:
192,192,134609,128,0,134943:0:0:0:40:Hithat1.wav
64,192,134943,1,0,0:0:0:0:
448,192,134943,128,0,135609:0:0:0:60:Kick2.wav
192,192,135109,1,0,0:0:0:0:
320,192,135276,1,0,0:0:0:0:
192,192,135443,1,0,0:0:0:0:
64,192,135609,1,0,0:0:0:60:Snare1.wav
192,192,135776,1,0,0:0:0:0:
320,192,135943,1,0,0:0:0:0:
448,192,136109,1,0,0:0:0:0:
64,192,136276,1,0,0:0:0:0:
192,192,136276,128,0,136943:0:0:0:0:
320,192,136443,1,0,0:0:0:0:
448,192,136609,1,0,0:0:0:60:Kick2.wav
320,192,136776,1,0,0:0:0:0:
448,192,136943,1,0,0:0:0:60:Snare1.wav
320,192,137109,1,0,0:0:0:0:
192,192,137276,1,0,0:0:0:0:
64,192,137443,1,0,0:0:0:0:
320,192,137609,1,0,0:0:0:0:
448,192,137609,128,0,138276:0:0:0:60:Kick2.wav
192,192,137776,1,0,0:0:0:0:
64,192,137943,1,0,0:0:0:0:
192,192,138109,1,0,0:0:0:0:
64,192,138276,1,0,0:0:0:60:Snare1.wav
192,192,138443,1,0,0:0:0:0:
448,192,138609,1,0,0:0:0:0:
320,192,138776,1,0,0:0:0:60:Kick2.wav
64,192,138943,1,0,0:0:0:0:
192,192,138943,128,0,139609:0:0:0:60:FX1.wav
448,192,139109,1,0,0:0:0:60:Kick2.wav
320,192,139276,1,0,0:0:0:60:Kick2.wav
448,192,139443,1,0,0:0:0:0:
64,192,139609,1,0,0:0:0:60:Snare1.wav
192,192,139776,1,0,0:0:0:0:
320,192,139943,1,0,0:0:0:60:Kick2.wav
448,192,140109,1,0,0:0:0:60:Kick2.wav
64,192,140276,1,0,0:0:0:30:Snare3.wav
192,192,140276,1,0,0:0:0:60:Cymbal1.wav
448,192,140443,1,0,0:0:0:30:Snare3.wav
320,192,140526,1,0,0:0:0:30:Snare3.wav
64,192,140609,1,0,0:0:0:30:Snare3.wav
192,192,140609,1,0,0:0:0:60:Kick2.wav
320,192,140776,1,0,0:0:0:30:Snare3.wav
448,192,140859,1,0,0:0:0:30:Snare3.wav
64,192,140943,1,0,0:0:0:30:Snare3.wav
192,192,140943,1,0,0:0:0:60:Kick2.wav
448,192,141109,1,0,0:0:0:30:Snare3.wav
320,192,141193,1,0,0:0:0:30:Snare3.wav
64,192,141276,1,0,0:0:0:30:Snare3.wav
192,192,141276,1,0,0:0:0:60:Kick2.wav
320,192,141443,1,0,0:0:0:30:Snare3.wav
192,192,141526,1,0,0:0:0:30:Snare3.wav
448,192,141609,1,0,0:0:0:30:Snare3.wav
320,192,141609,1,0,0:0:0:60:Kick2.wav
64,192,141776,1,0,0:0:0:30:Snare3.wav
192,192,141859,1,0,0:0:0:30:Snare3.wav
448,192,141943,1,0,0:0:0:30:Snare3.wav
320,192,141943,1,0,0:0:0:60:Kick2.wav
192,192,142109,1,0,0:0:0:30:Snare3.wav
64,192,142193,1,0,0:0:0:30:Snare3.wav
448,192,142276,1,0,0:0:0:30:Snare3.wav
320,192,142276,1,0,0:0:0:60:Kick2.wav
64,192,142443,1,0,0:0:0:30:Snare3.wav
192,192,142526,1,0,0:0:0:30:Snare3.wav
448,192,142609,1,0,0:0:0:30:Snare3.wav
320,192,142609,1,0,0:0:0:60:Kick2.wav
192,192,142776,1,0,0:0:0:30:Snare3.wav
320,192,142859,1,0,0:0:0:30:Snare3.wav
64,192,142943,1,0,0:0:0:30:Snare3.wav
192,192,142943,1,0,0:0:0:60:Kick2.wav
448,192,143109,1,0,0:0:0:30:Snare3.wav
320,192,143193,1,0,0:0:0:30:Snare3.wav
64,192,143276,1,0,0:0:0:30:Snare3.wav
192,192,143276,1,0,0:0:0:60:Kick2.wav
320,192,143443,1,0,0:0:0:30:Snare3.wav
448,192,143526,1,0,0:0:0:30:Snare3.wav
64,192,143609,1,0,0:0:0:30:Snare3.wav
192,192,143609,1,0,0:0:0:60:Kick2.wav
448,192,143776,1,0,0:0:0:30:Snare3.wav
320,192,143859,1,0,0:0:0:30:Snare3.wav
64,192,143943,1,0,0:0:0:30:Snare3.wav
192,192,143943,1,0,0:0:0:60:Kick2.wav
320,192,144109,1,0,0:0:0:30:Snare3.wav
192,192,144193,1,0,0:0:0:30:Snare3.wav
448,192,144276,1,0,0:0:0:30:Snare3.wav
320,192,144276,1,0,0:0:0:60:Kick2.wav
64,192,144443,5,0,0:0:0:30:Snare3.wav
192,192,144526,1,0,0:0:0:30:Snare3.wav
448,192,144609,1,0,0:0:0:30:Snare3.wav
320,192,144609,1,0,0:0:0:60:Kick2.wav
192,192,144776,1,0,0:0:0:30:Snare3.wav
64,192,144859,1,0,0:0:0:30:Snare3.wav
448,192,144943,1,0,0:0:0:30:Snare3.wav
320,192,144943,1,0,0:0:0:60:Kick2.wav
64,192,145109,1,0,0:0:0:30:Snare3.wav
192,192,145193,1,0,0:0:0:30:Snare3.wav
448,192,145276,1,0,0:0:0:30:Snare3.wav
320,192,145276,1,0,0:0:0:60:Kick2.wav
192,192,145443,1,0,0:0:0:30:Snare3.wav
320,192,145526,1,0,0:0:0:30:Snare3.wav
64,192,145609,5,0,0:0:0:30:Snare3.wav
448,192,145609,1,0,0:0:0:60:Kick2.wav
192,192,145776,1,0,0:0:0:30:Snare3.wav
320,192,145776,1,0,0:0:0:60:Kick2.wav
64,192,145943,1,0,0:0:0:30:Snare3.wav
192,192,145943,1,0,0:0:0:60:Kick2.wav
320,192,146109,1,0,0:0:0:60:Kick2.wav
448,192,146193,1,0,0:0:0:60:Kick2.wav
64,192,146276,1,0,0:0:0:30:Snare3.wav
192,192,146276,1,0,0:0:0:60:Kick2.wav
192,192,146443,1,0,0:0:0:30:Snare3.wav
320,192,146443,1,0,0:0:0:60:Kick2.wav
64,192,146609,1,0,0:0:0:30:Snare3.wav
448,192,146609,1,0,0:0:0:60:Kick2.wav
320,192,146776,1,0,0:0:0:60:Kick2.wav
192,192,146859,1,0,0:0:0:60:Kick2.wav
448,192,146943,1,0,0:0:0:30:Snare3.wav
64,192,146943,1,0,0:0:0:60:Kick2.wav
320,192,147109,1,0,0:0:0:30:Snare3.wav
192,192,147109,1,0,0:0:0:60:Kick2.wav
448,192,147276,1,0,0:0:0:30:Snare3.wav
320,192,147276,1,0,0:0:0:60:Kick2.wav
192,192,147443,1,0,0:0:0:60:Kick2.wav
64,192,147526,1,0,0:0:0:60:Kick2.wav
320,192,147609,1,0,0:0:0:30:Snare3.wav
448,192,147609,1,0,0:0:0:60:Kick2.wav
320,192,147776,1,0,0:0:0:30:Snare3.wav
192,192,147776,1,0,0:0:0:60:Kick2.wav
448,192,147943,1,0,0:0:0:30:Snare3.wav
64,192,147943,1,0,0:0:0:60:Kick2.wav
192,192,148109,1,0,0:0:0:60:Kick2.wav
320,192,148193,1,0,0:0:0:60:Kick2.wav
448,192,148276,1,0,0:0:0:60:Kick2.wav
64,192,148359,1,0,0:0:0:60:Kick2.wav
192,192,148443,1,0,0:0:0:60:Kick2.wav
320,192,148526,1,0,0:0:0:60:Kick2.wav
448,192,148609,1,0,0:0:0:60:Kick2.wav
64,192,148693,1,0,0:0:0:60:Kick2.wav
192,192,148776,1,0,0:0:0:60:Kick2.wav
320,192,148859,1,0,0:0:0:60:Kick2.wav
448,192,148943,1,0,0:0:0:60:Kick2.wav
64,192,149026,1,0,0:0:0:60:Kick2.wav
192,192,149109,1,0,0:0:0:60:Kick2.wav
320,192,149193,1,0,0:0:0:60:Kick2.wav
448,192,149276,1,0,0:0:0:60:Kick2.wav
64,192,149359,1,0,0:0:0:60:Kick2.wav
192,192,149443,1,0,0:0:0:60:Kick2.wav
320,192,149526,1,0,0:0:0:60:Kick2.wav
448,192,149609,128,0,150609:0:0:0:60:fx_Pac-Man.wav
192,192,150609,128,0,150693:0:0:0:25:
192,192,150776,128,0,150859:0:0:0:25:
448,192,150943,1,0,0:0:0:60:Kick1.wav
64,192,151109,1,0,0:0:0:0:
192,192,151276,1,0,0:0:0:60:FX_clap.wav
448,192,151443,1,0,0:0:0:0:
320,192,151526,1,0,0:0:0:0:
448,192,151609,1,0,0:0:0:60:FX_clap.wav
64,192,151776,1,0,0:0:0:0:
192,192,151943,1,0,0:0:0:60:FX_clap.wav
320,192,152109,1,0,0:0:0:0:
448,192,152276,1,0,0:0:0:60:FX_clap.wav
448,192,152609,1,0,0:0:0:0:
320,192,152609,1,0,0:0:0:60:FX_clap.wav
448,192,152943,1,0,0:0:0:0:
320,192,152943,1,0,0:0:0:0:
192,192,152943,1,0,0:0:0:60:FX_clap.wav
64,192,153109,128,0,153276:0:0:0:0:
320,192,153276,1,0,0:0:0:60:Clap.wav
192,192,153276,1,0,0:0:0:50:FX_kick.wav
64,192,153609,1,0,0:0:0:60:Cymbal1.wav
448,192,153609,1,0,0:0:0:60:Hardkick1.wav
320,192,153775,1,0,0:0:0:60:Hithat2.wav
64,192,153942,1,0,0:0:0:0:
192,192,153942,1,0,0:0:0:60:Hardkick1.wav
448,192,154109,1,0,0:0:0:60:Hithat2.wav
320,192,154192,1,0,0:0:0:0:
64,192,154275,1,0,0:0:0:0:
192,192,154275,1,0,0:0:0:60:Hardkick1.wav
320,192,154442,1,0,0:0:0:60:Hithat2.wav
448,192,154609,1,0,0:0:0:0:
64,192,154609,1,0,0:0:0:60:Hardkick1.wav
192,192,154775,1,0,0:0:0:60:Hithat2.wav
448,192,154942,1,0,0:0:0:0:
320,192,154942,1,0,0:0:0:60:Hardkick1.wav
192,192,155109,1,0,0:0:0:60:Hithat2.wav
320,192,155275,1,0,0:0:0:0:
64,192,155275,1,0,0:0:0:60:Hardkick1.wav
448,192,155442,1,0,0:0:0:60:Hithat2.wav
192,192,155609,1,0,0:0:0:0:
320,192,155609,1,0,0:0:0:60:Hardkick1.wav
448,192,155775,1,0,0:0:0:60:Hithat2.wav
192,192,155942,1,0,0:0:0:0:
64,192,155942,1,0,0:0:0:60:Hardkick1.wav
320,192,156109,1,0,0:0:0:60:Hithat2.wav
448,192,156275,1,0,0:0:0:0:
64,192,156275,1,0,0:0:0:60:Hardkick1.wav
192,192,156442,1,0,0:0:0:60:Hithat2.wav
448,192,156609,1,0,0:0:0:0:
320,192,156609,1,0,0:0:0:60:Hardkick1.wav
64,192,156775,1,0,0:0:0:60:Hithat2.wav
192,192,156859,1,0,0:0:0:0:
448,192,156942,1,0,0:0:0:0:
320,192,156942,1,0,0:0:0:60:Hardkick1.wav
192,192,157109,1,0,0:0:0:60:Hithat2.wav
64,192,157275,1,0,0:0:0:0:
448,192,157275,1,0,0:0:0:60:Hardkick1.wav
320,192,157442,1,0,0:0:0:60:Hithat2.wav
64,192,157609,1,0,0:0:0:0:
192,192,157609,1,0,0:0:0:60:Hardkick1.wav
320,192,157775,1,0,0:0:0:60:Hithat2.wav
192,192,157942,1,0,0:0:0:0:
448,192,157942,1,0,0:0:0:60:Hardkick1.wav
64,192,158109,1,0,0:0:0:60:Hithat2.wav
320,192,158275,1,0,0:0:0:0:
192,192,158275,1,0,0:0:0:60:Hardkick1.wav
64,192,158442,1,0,0:0:0:60:Hithat2.wav
320,192,158609,1,0,0:0:0:0:
192,192,158609,1,0,0:0:0:60:Hardkick1.wav
448,192,158775,1,0,0:0:0:60:Hithat2.wav
320,192,158775,1,0,0:0:0:60:Hardkick1.wav
64,192,158859,1,0,0:0:0:0:
192,192,158859,1,0,0:0:0:60:Hardkick1.wav
320,192,158942,1,0,0:0:0:0:
448,192,158942,1,0,0:0:0:60:Hardkick1.wav
64,192,159109,1,0,0:0:0:60:Hithat2.wav
320,192,159275,1,0,0:0:0:0:
192,192,159275,1,0,0:0:0:60:Hardkick1.wav
448,192,159442,1,0,0:0:0:60:Hithat2.wav
64,192,159525,1,0,0:0:0:0:
320,192,159609,1,0,0:0:0:0:
192,192,159609,1,0,0:0:0:60:Hardkick1.wav
64,192,159775,1,0,0:0:0:60:Hithat2.wav
448,192,159942,1,0,0:0:0:0:
320,192,159942,1,0,0:0:0:60:Hardkick1.wav
192,192,160109,1,0,0:0:0:60:Hithat2.wav
448,192,160275,1,0,0:0:0:0:
64,192,160275,1,0,0:0:0:60:Hardkick1.wav
192,192,160442,1,0,0:0:0:60:Hithat2.wav
64,192,160609,1,0,0:0:0:0:
320,192,160609,1,0,0:0:0:60:Hardkick1.wav
448,192,160775,1,0,0:0:0:60:Hithat2.wav
192,192,160942,1,0,0:0:0:0:
64,192,160942,1,0,0:0:0:60:Hardkick1.wav
448,192,161109,1,0,0:0:0:60:Hithat2.wav
192,192,161275,1,0,0:0:0:0:
320,192,161275,1,0,0:0:0:60:Hardkick1.wav
64,192,161442,1,0,0:0:0:60:Hithat2.wav
448,192,161609,1,0,0:0:0:0:
320,192,161609,1,0,0:0:0:60:Hardkick1.wav
192,192,161775,1,0,0:0:0:60:Hithat2.wav
448,192,161942,1,0,0:0:0:0:
64,192,161942,1,0,0:0:0:60:Hardkick1.wav
320,192,162109,1,0,0:0:0:60:Hithat2.wav
192,192,162192,1,0,0:0:0:0:
448,192,162275,1,0,0:0:0:0:
64,192,162275,1,0,0:0:0:60:Hardkick1.wav
192,192,162442,1,0,0:0:0:60:Hithat2.wav
320,192,162609,1,0,0:0:0:0:
448,192,162609,1,0,0:0:0:60:Hardkick1.wav
64,192,162775,1,0,0:0:0:60:Hithat2.wav
320,192,162942,1,0,0:0:0:40:Breakbeat_kick.wav
64,192,163109,1,0,0:0:0:40:Breakbeat_kick.wav
448,192,163192,1,0,0:0:0:40:Breakbeat_kick.wav
192,192,163275,1,0,0:0:0:40:Breakbeat_snare.wav
320,192,163442,1,0,0:0:0:40:Breakbeat_kick.wav
64,192,163609,1,0,0:0:0:40:Breakbeat_kick.wav
320,192,163775,1,0,0:0:0:40:Breakbeat_snare.wav
64,192,163942,1,0,0:0:0:40:Breakbeat_kick.wav
192,192,164025,1,0,0:0:0:40:Breakbeat_snare.wav
320,192,164109,1,0,0:0:0:40:Breakbeat_kick.wav
448,192,164192,1,0,0:0:0:40:Breakbeat_snare.wav
192,192,164275,128,0,164609:0:0:0:60:Cymbal4.wav
64,192,164275,128,0,164609:0:0:0:60:Kick1.wav
448,192,164609,1,0,0:0:0:0:
320,192,164609,1,0,0:0:0:60:Hardkick2.wav
64,192,164775,1,0,0:0:0:60:Hithat2.wav
192,192,164859,1,0,0:0:0:0:
448,192,164942,1,0,0:0:0:0:
320,192,164942,1,0,0:0:0:60:Hardkick2.wav
192,192,165109,1,0,0:0:0:60:Hithat2.wav
64,192,165275,1,0,0:0:0:0:
448,192,165275,1,0,0:0:0:60:Hardkick2.wav
320,192,165442,1,0,0:0:0:60:Hithat2.wav
64,192,165609,1,0,0:0:0:0:
192,192,165609,1,0,0:0:0:60:Hardkick2.wav
320,192,165775,1,0,0:0:0:60:Hithat2.wav
192,192,165942,1,0,0:0:0:0:
448,192,165942,1,0,0:0:0:60:Hardkick2.wav
64,192,166109,1,0,0:0:0:60:Hithat2.wav
320,192,166275,1,0,0:0:0:0:
192,192,166275,1,0,0:0:0:60:Hardkick2.wav
64,192,166442,1,0,0:0:0:60:Hithat2.wav
320,192,166609,1,0,0:0:0:0:
448,192,166609,1,0,0:0:0:60:Hardkick2.wav
192,192,166775,1,0,0:0:0:60:Hithat2.wav
64,192,166942,1,0,0:0:0:0:
448,192,166942,1,0,0:0:0:60:Hardkick2.wav
320,192,167109,1,0,0:0:0:60:Hithat2.wav
64,192,167275,1,0,0:0:0:0:
192,192,167275,1,0,0:0:0:60:Hardkick2.wav
448,192,167442,1,0,0:0:0:60:Hithat2.wav
320,192,167525,1,0,0:0:0:0:
64,192,167609,1,0,0:0:0:60:Hardkick2.wav
192,192,167609,1,0,0:0:0:0:
320,192,167775,1,0,0:0:0:60:Hithat2.wav
448,192,167942,1,0,0:0:0:0:
64,192,167942,1,0,0:0:0:60:Hardkick2.wav
192,192,168108,1,0,0:0:0:60:Hithat2.wav
448,192,168275,1,0,0:0:0:0:
320,192,168275,1,0,0:0:0:60:Hardkick2.wav
192,192,168442,1,0,0:0:0:60:Hithat2.wav
320,192,168608,1,0,0:0:0:0:
64,192,168608,1,0,0:0:0:60:Hardkick2.wav
448,192,168775,1,0,0:0:0:60:Hithat2.wav
192,192,168942,1,0,0:0:0:0:
320,192,168942,1,0,0:0:0:60:Hardkick2.wav
448,192,169108,1,0,0:0:0:60:Hithat2.wav
320,192,169275,1,0,0:0:0:0:
192,192,169275,1,0,0:0:0:60:Hardkick2.wav
64,192,169442,1,0,0:0:0:60:Hithat2.wav
192,192,169442,1,0,0:0:0:60:Hardkick2.wav
448,192,169525,1,0,0:0:0:0:
320,192,169525,1,0,0:0:0:60:Hardkick2.wav
192,192,169608,1,0,0:0:0:0:
64,192,169608,1,0,0:0:0:60:Hardkick2.wav
448,192,169775,1,0,0:0:0:60:Hithat2.wav
192,192,169942,1,0,0:0:0:0:
320,192,169942,1,0,0:0:0:60:Hardkick2.wav
64,192,170108,1,0,0:0:0:60:Hithat2.wav
448,192,170192,1,0,0:0:0:0:
192,192,170275,1,0,0:0:0:0:
320,192,170275,1,0,0:0:0:60:Hardkick2.wav
448,192,170442,1,0,0:0:0:60:Hithat2.wav
64,192,170608,1,0,0:0:0:0:
192,192,170608,1,0,0:0:0:60:Hardkick2.wav
320,192,170775,1,0,0:0:0:60:Hithat2.wav
64,192,170942,1,0,0:0:0:0:
448,192,170942,1,0,0:0:0:60:Hardkick2.wav
320,192,171108,1,0,0:0:0:60:Hithat2.wav
448,192,171275,1,0,0:0:0:0:
192,192,171275,1,0,0:0:0:60:Hardkick2.wav
64,192,171442,1,0,0:0:0:60:Hithat2.wav
320,192,171608,1,0,0:0:0:0:
448,192,171608,1,0,0:0:0:60:Hardkick2.wav
64,192,171775,1,0,0:0:0:60:Hithat2.wav
320,192,171942,1,0,0:0:0:0:
192,192,171942,1,0,0:0:0:60:Hardkick2.wav
448,192,172108,1,0,0:0:0:60:Hithat2.wav
64,192,172275,1,0,0:0:0:0:
192,192,172275,1,0,0:0:0:60:Hardkick2.wav
320,192,172442,1,0,0:0:0:60:Hithat2.wav
64,192,172608,1,0,0:0:0:0:
448,192,172608,1,0,0:0:0:60:Hardkick2.wav
192,192,172775,1,0,0:0:0:60:Hithat2.wav
320,192,172858,1,0,0:0:0:0:
64,192,172942,1,0,0:0:0:0:
448,192,172942,1,0,0:0:0:60:Hardkick2.wav
320,192,173108,1,0,0:0:0:60:Hithat2.wav
192,192,173275,1,0,0:0:0:0:
64,192,173275,1,0,0:0:0:60:Hardkick2.wav
448,192,173442,1,0,0:0:0:60:Hithat2.wav
64,192,173608,1,0,0:0:0:60:Cymbal3.wav
64,192,173775,1,0,0:0:0:0:
448,192,173942,1,0,0:0:0:0:
320,192,174108,128,0,174442:0:0:0:0:
192,192,174442,1,0,0:0:0:0:
64,192,174608,1,0,0:0:0:0:
448,192,174775,1,0,0:0:0:0:
192,192,174942,128,0,177275:0:0:0:60:Cymbal1.wav
64,192,174942,128,0,177608:0:0:0:60:Kick2.wav
448,192,175608,1,0,0:0:0:60:Snare1.wav
448,192,176942,1,0,0:0:0:60:Snare1.wav
192,192,177608,128,0,178608:0:0:0:0:
448,192,177608,128,0,178942:0:0:0:60:Kick2.wav
64,192,178275,1,0,0:0:0:60:Snare1.wav
320,192,178942,128,0,179942:0:0:0:0:
192,192,178942,128,0,180275:0:0:0:0:
64,192,179608,1,0,0:0:0:60:Snare1.wav
320,192,180275,128,0,182608:0:0:0:0:
448,192,180275,128,0,182942:0:0:0:60:Kick2.wav
64,192,180942,1,0,0:0:0:60:Snare1.wav
64,192,182275,1,0,0:0:0:60:Snare1.wav
320,192,182942,128,0,183942:0:0:0:0:
64,192,182942,128,0,184275:0:0:0:60:Kick2.wav
448,192,183608,1,0,0:0:0:60:Snare1.wav
192,192,184275,128,0,185275:0:0:0:0:
320,192,184275,128,0,185608:0:0:0:0:
448,192,184942,1,0,0:0:0:60:Snare1.wav
192,192,185608,128,0,187942:0:0:0:0:
448,192,185608,1,0,0:0:0:60:Cymbal1.wav
64,192,185608,128,0,188275:0:0:0:60:Kick2.wav
320,192,186275,1,0,0:0:0:60:Snare1.wav
448,192,187275,1,0,0:0:0:60:Kick2.wav
320,192,187608,1,0,0:0:0:60:Snare1.wav
448,192,188275,128,0,189608:0:0:0:0:
192,192,188275,128,0,189275:0:0:0:0:
320,192,188275,1,0,0:0:0:60:Kick2.wav
64,192,188942,1,0,0:0:0:60:Snare1.wav
64,192,189442,1,0,0:0:0:60:Kick2.wav
320,192,189608,128,0,190608:0:0:0:0:
192,192,189608,128,0,190775:0:0:0:0:
64,192,189775,1,0,0:0:0:60:Kick2.wav
448,192,189942,1,0,0:0:0:60:Kick2.wav
64,192,190275,1,0,0:0:0:60:Snare1.wav
448,192,190608,1,0,0:0:0:60:Kick2.wav
64,192,190775,1,0,0:0:0:60:Kick2.wav
448,192,190942,128,0,193608:0:0:0:0:
320,192,190942,128,0,193275:0:0:0:0:
192,192,190942,1,0,0:0:0:60:Kick2.wav
64,192,191608,1,0,0:0:0:60:Snare1.wav
192,192,192608,1,0,0:0:0:60:Kick2.wav
64,192,192942,1,0,0:0:0:60:Snare1.wav
64,192,193608,1,0,0:0:0:60:Kick2.wav
192,192,193775,1,0,0:0:0:0:
448,192,193858,1,0,0:0:0:0:
320,192,193942,1,0,0:0:0:0:
64,192,194108,1,0,0:0:0:0:
192,192,194192,1,0,0:0:0:0:
448,192,194275,1,0,0:0:0:60:Snare1.wav
320,192,194442,1,0,0:0:0:0:
192,192,194608,1,0,0:0:0:0:
448,192,194775,1,0,0:0:0:60:Kick2.wav
320,192,194858,1,0,0:0:0:0:
64,192,194942,1,0,0:0:0:0:
192,192,195025,1,0,0:0:0:0:
448,192,195108,1,0,0:0:0:60:Kick2.wav
320,192,195192,1,0,0:0:0:0:
64,192,195275,1,0,0:0:0:60:Kick2.wav
192,192,195358,1,0,0:0:0:0:
448,192,195442,1,0,0:0:0:0:
320,192,195525,1,0,0:0:0:0:
64,192,195608,1,0,0:0:0:60:Snare1.wav
192,192,195692,1,0,0:0:0:0:
448,192,195775,1,0,0:0:0:60:Kick2.wav
320,192,195858,1,0,0:0:0:0:
64,192,195942,1,0,0:0:0:60:Kick2.wav
192,192,196025,1,0,0:0:0:0:
448,192,196108,1,0,0:0:0:60:Kick2.wav
320,192,196192,1,0,0:0:0:60:Kick2.wav
64,192,196275,1,0,0:0:0:0:
192,192,196275,1,0,0:0:0:60:End_kick.wav
