osu file format v14

[General]
AudioFilename: audio.mp3
AudioLeadIn: 0
PreviewTime: 65521
Countdown: 0
SampleSet: Soft
StackLeniency: 0.7
Mode: 0
LetterboxInBreaks: 0
WidescreenStoryboard: 1

[Editor]
Bookmarks: 1997,7780,22238,32539,33624,45551,50973
DistanceSpacing: 1.5
BeatDivisor: 4
GridSize: 4
TimelineZoom: 1.6

[Metadata]
Title:Summer Triangle
TitleUnicode:Summer Triangle
Artist:Houkiboshi Hikari (CV: Moka Choko), Amanogawa Saya (CV: Yukina Meguri)
ArtistUnicode:箒星ひかり(CV:萌花ちょこ)、天ノ川 沙夜(CV:雪菜めぐり)
Creator:tomatas95
Version:Easy
Source:見上げてごらん、夜空の星を Interstellar Focus
Tags:eroge みあげてIF pulltop miagete goran, yozora no hoshi A Sky Full of Stars vn visual novel Houkiboshi MiageteIF duo japanese pop jpop j-pop video game opening op galgame
BeatmapID:3533497
BeatmapSetID:1509332

[Difficulty]
HPDrainRate:2
CircleSize:2.5
OverallDifficulty:2
ApproachRate:3
SliderMultiplier:1
SliderTickRate:1

[Events]
//Background and Video events
0,0,"HikariKissu.jpg",0,0
Video,0,"EcchiGamudesu.mp4"
//Break Periods
//Storyboard Layer 0 (Background)
//Storyboard Layer 1 (Fail)
//Storyboard Layer 2 (Pass)
//Storyboard Layer 3 (Foreground)
//Storyboard Layer 4 (Overlay)
//Storyboard Sound Samples

[TimingPoints]
552,361.44578313253,4,2,1,35,1,0
552,-100,4,2,1,35,0,0
913,-100,4,2,1,50,0,0
1274,-100,4,2,1,45,0,0
1455,-100,4,2,1,55,0,0
1636,-100,4,2,1,60,0,0
1817,-100,4,2,1,65,0,0
1997,-100,4,2,1,70,0,0
2901,-100,4,2,1,55,0,0
4889,-100,4,2,1,70,0,0
5793,-100,4,2,1,55,0,0
7780,-100,4,2,1,70,0,0
16455,-100,4,2,3,70,0,0
16817,-100,4,2,1,70,0,0
17901,-100,4,2,2,70,0,0
18082,-100,4,2,1,70,0,0
19347,-100,4,2,2,70,0,0
20973,-100,4,2,1,70,0,0
22238,-100,4,2,3,60,0,0
22419,-100,4,2,1,60,0,0
30732,-100,4,2,1,70,0,0
30913,-100,4,2,1,60,0,0
32178,-100,4,2,1,70,0,0
32359,-100,4,2,1,60,0,0
32539,-100,4,2,1,65,0,0
33624,-100,4,2,1,70,0,0
33805,-100,4,2,1,60,0,0
42298,-100,4,2,1,70,0,0
42479,-100,4,2,1,60,0,0
43744,-100,4,2,1,70,0,0
43925,-100,4,2,1,60,0,0
44106,-100,4,2,1,70,0,0
44467,-100,4,2,1,55,0,0
45551,-100,4,2,1,65,0,0
47359,-100,4,2,1,55,0,0
48443,-100,4,2,1,65,0,0
50250,-100,4,2,1,55,0,0
50973,-100,4,2,1,65,0,0
53865,-100,4,2,1,70,0,0
54045,-100,4,2,1,65,0,0
54588,-100,4,2,1,70,0,0
54768,-100,4,2,1,65,0,0
55311,-100,4,2,1,70,0,0
55491,-100,4,2,1,65,0,0
59829,-100,4,2,1,70,0,0
60009,-100,4,2,1,65,0,0
61274,-100,4,2,3,65,0,0
61636,-100,4,2,1,65,0,0
62720,-100,4,2,2,70,0,0
62901,-100,4,2,1,65,0,0
64166,-100,4,2,1,60,0,0
64527,-100,4,2,1,65,0,0
64889,-100,4,2,1,70,0,0
65250,-100,4,2,1,75,0,0
65612,-100,4,2,1,80,0,1
74106,-100,4,2,3,80,0,1
74286,-100,4,2,1,80,0,1
76455,-100,4,2,2,65,0,0
76817,-100,4,2,1,70,0,0
76997,-100,4,2,1,75,0,0
77178,-100,4,2,1,80,0,1
81515,-100,4,2,1,85,0,1
81696,-100,4,2,1,80,0,1
85672,-100,4,2,2,80,0,1
86033,-100,4,2,1,80,0,1
87118,-100,4,2,1,85,0,1
87479,-100,4,2,1,65,0,1
87660,-100,4,2,1,80,0,1
88021,-100,4,2,1,60,0,1
88202,-100,4,2,1,65,0,1
88383,-100,4,2,1,70,0,1
88564,-100,4,2,1,75,0,1
88744,-100,4,2,1,70,0,0
89648,-100,4,2,1,55,0,0
91636,-100,4,2,1,70,0,0
92540,-100,4,2,1,55,0,0
94347,-100,4,2,1,65,0,0
94527,-100,4,2,1,70,0,0
95070,-100,4,2,1,65,0,0
95431,-100,4,2,1,60,0,0
95792,-100,4,2,1,55,0,0
96335,545.454545454546,4,2,2,50,1,0
96880,600,4,2,2,45,1,0
96880,-75.187969924812,4,2,2,45,0,0
97480,750,4,2,2,40,1,0
98980,-100,4,2,1,35,0,0
100480,-100,4,2,1,30,0,0
101980,-100,4,2,1,25,0,0
102730,-100,4,2,1,20,0,0
103480,-100,4,2,1,15,0,0
104230,-100,4,2,1,5,0,0

[Colours]
Combo1 : 255,165,74
Combo2 : 227,102,128
Combo3 : 249,125,123
Combo4 : 175,212,246
Combo5 : 255,244,172
Combo6 : 202,149,255

[HitObjects]
0,91,1997,6,0,B|155:75,1,150,10|10,2:2|2:2,0:0:0:0:
226,29,2901,2,0,P|239:74|225:132,1,100,2|2,3:2|3:2,0:0:0:0:
303,174,3624,2,0,P|335:140|392:123,1,100,2|2,3:2|3:2,0:0:0:0:
366,34,4347,1,2,3:2:0:0:
500,25,4889,22,0,B|490:72|490:72|500:98|500:98|484:189,1,150,10|10,2:2|2:2,0:0:0:0:
511,257,5792,2,0,P|506:291|502:362,1,100,2|2,3:2|3:2,0:0:0:0:
415,382,6515,2,0,P|388:360|328:321,1,100,2|10,3:2|0:0,0:0:0:0:
396,259,7238,1,10,0:0:0:0:
351,131,7780,6,0,B|305:110|305:110|250:126,1,100,6|8,3:2|0:0,0:0:0:0:
213,202,8503,2,0,P|207:248|223:311,1,100,2|10,3:2|0:0,0:0:0:0:
162,370,9226,2,0,P|125:341|62:324,1,100,2|10,3:2|0:0,0:0:0:0:
0,290,9949,1,2,3:2:0:0:
22,202,10311,1,10,0:0:0:0:
116,204,10672,6,0,B|162:216|162:216|219:200,1,100,2|10,3:2|0:0,0:0:0:0:
248,119,11395,1,2,3:2:0:0:
195,46,11756,2,0,B|154:26|97:35|97:35|49:93|-5:55,2,200,10|10|10,0:0|0:0|0:0,0:0:0:0:
283,29,13564,38,0,L|276:136,1,100,2|10,3:2|0:0,0:0:0:0:
287,217,14286,1,2,3:2:0:0:
371,248,14648,2,0,B|411:228|457:258|457:258|487:221|464:139,1,200,10|10,0:0|0:0,0:0:0:0:
467,63,15732,2,0,P|418:75|360:54,1,100,2|10,3:2|0:0,0:0:0:0:
291,19,16455,6,0,B|251:7|209:25|209:25|186:75|211:151,1,200,6|2,3:2|3:2,0:0:0:0:
189,227,17539,1,10,0:0:0:0:
231,306,17901,2,0,P|279:299|338:326,1,100,6|10,3:2|0:0,0:0:0:0:
412,343,18624,2,0,P|458:359|522:343,1,100,8|8,0:0|0:0,0:0:0:0:
468,269,19347,6,0,B|491:207|466:172|466:172|425:127|452:74,1,200,6|2,3:2|3:2,0:0:0:0:
334,8,20612,1,10,0:0:0:0:
265,65,20973,2,0,P|255:119|243:218,1,150,10|2,0:0|3:2,0:0:0:0:
207,296,21877,1,2,3:2:0:0:
117,305,22238,54,0,B|84:325|84:325|32:267|104:225|74:161,1,200,6|2,3:2|3:2,0:0:0:0:
15,51,23503,2,0,P|102:42|179:49,1,150,2|10,3:2|0:0,0:0:0:0:
245,8,24407,1,2,3:2:0:0:
291,85,24768,1,10,0:0:0:0:
271,173,25130,70,0,B|322:187|364:145|364:145|410:141|469:177,2,200,2|2|2,3:2|3:2|0:0,0:0:0:0:
189,134,26937,1,10,0:0:0:0:
102,156,27298,2,0,P|91:203|86:270,1,100,2|8,3:2|0:0,0:0:0:0:
85,344,28021,1,6,3:2:0:0:
175,345,28383,6,0,P|239:326|328:361,1,150,10|2,0:0|3:2,0:0:0:0:
357,271,29286,2,0,P|308:225|294:130,1,150,2|10,3:2|0:0,0:0:0:0:
348,77,30190,1,2,3:2:0:0:
477,113,30732,70,0,B|499:280,1,150,14|10,0:0|0:0,0:0:0:0:
487,353,31636,2,0,P|423:339|331:347,1,150,0|4,3:2|3:2,0:0:0:0:
252,366,32539,54,0,L|246:316,1,50,10|10,0:0|0:0,0:0:0:0:
155,320,33082,2,0,L|162:386,1,50,10|10,0:0|0:0,0:0:0:0:
70,368,33624,1,14,0:0:0:0:
21,241,34166,54,0,P|23:191|8:80,1,150,10|2,0:0|3:2,0:0:0:0:
68,22,35070,2,0,P|110:48|213:91,1,150,2|10,3:2|0:0,0:0:0:0:
196,177,35973,1,2,3:2:0:0:
124,231,36335,1,10,0:0:0:0:
93,319,36696,38,0,P|35:261|85:147,2,200,2|2|2,3:2|3:2|3:2,0:0:0:0:
221,360,38684,2,0,P|220:307|228:246,1,100,2|2,3:2|3:2,0:0:0:0:
308,153,39588,37,2,3:2:0:0:
371,221,39949,2,0,P|379:290|387:378,1,150,10|2,0:0|3:2,0:0:0:0:
476,371,40853,2,0,P|480:269|495:167,1,200,2|2,3:2|0:0,0:0:0:0:
467,86,41937,1,2,3:2:0:0:
387,44,42298,38,0,B|287:62|287:62|234:33,1,150,14|10,3:2|0:0,0:0:0:0:
156,20,43202,2,0,L|135:178,1,150,2|14,3:2|0:0,0:0:0:0:
53,133,44106,2,0,L|59:83,1,50,2|14,3:2|0:0,0:0:0:0:
366,10,45551,6,0,P|369:40|367:67,1,50,10|10,0:0|0:0,0:0:0:0:
296,115,46094,2,0,P|293:145|295:172,1,50,10|10,0:0|0:0,0:0:0:0:
359,227,46636,2,0,B|430:207|430:207|514:239,1,150,10|10,0:0|0:0,0:0:0:0:
216,368,48443,70,0,L|210:313,1,50,10|10,0:0|0:0,0:0:0:0:
120,321,48985,2,0,L|126:376,1,50,10|10,0:0|0:0,0:0:0:0:
35,379,49527,2,0,L|18:227,1,150,10|10,0:0|0:0,0:0:0:0:
5,34,50973,70,0,B|65:37|108:55|108:55|159:29,1,150,14|10,3:2|0:0,0:0:0:0:
236,46,51877,2,0,P|227:116|222:218,1,150,2|2,3:2|3:2,0:0:0:0:
196,281,52780,1,2,3:2:0:0:
265,338,53142,2,0,P|320:331|367:344,1,100,2|0,3:2|3:0,0:0:0:0:
451,360,53865,70,0,L|459:251,1,100,6|2,3:2|3:2,0:0:0:0:
496,178,54588,2,0,L|504:69,1,100,6|2,3:2|3:2,0:0:0:0:
449,6,55311,1,6,3:2:0:0:
359,13,55672,1,2,3:2:0:0:
291,67,56033,2,0,L|128:81,1,150,2|8,0:0|0:0,0:0:0:0:
78,144,56937,6,0,P|56:110|87:8,2,150,2|2|10,3:2|3:2|0:0,0:0:0:0:
161,177,58383,2,0,P|231:159|315:190,2,150,2|2|8,3:2|0:0|0:0,0:0:0:0:
90,232,59829,70,0,L|73:397,1,150,6|2,3:2|3:2,0:0:0:0:
209,380,60913,1,10,0:0:0:0:
284,331,61274,2,0,B|333:322|333:322|393:341,1,100,6|10,3:2|0:0,0:0:0:0:
467,361,61997,2,0,P|465:313|473:255,1,100,2|8,3:2|0:2,0:0:0:0:
492,173,62720,5,6,3:2:0:0:
457,89,63082,1,8,0:0:0:0:
369,109,63443,2,0,L|380:-7,2,100,2|10|2,3:2|0:0|0:0,0:0:0:0:
369,199,64527,2,0,B|322:213|322:213|267:192,1,100,10|2,0:0|3:2,0:0:0:0:
207,134,65250,1,10,0:0:0:0:
151,205,65612,70,0,P|159:250|150:314,1,100,2|10,3:2|0:0,0:0:0:0:
97,374,66335,2,0,P|62:344|2:320,1,100,2|10,3:2|0:0,0:0:0:0:
11,232,67058,2,0,P|13:165|3:77,2,150,2|2|8,3:2|0:0|0:0,0:0:0:0:
12,322,68503,5,2,0:0:0:0:
98,348,68865,2,0,B|147:336|147:336|212:355,1,100,10|2,0:0|3:2,0:0:0:0:
284,357,69588,1,10,0:0:0:0:
320,274,69949,2,0,B|315:226|315:226|322:201|322:201|314:118,1,150,6|2,3:2|0:0,0:0:0:0:
347,41,70853,1,10,0:0:0:0:
433,17,71214,70,0,B|451:11|482:20|482:20|473:59|488:120,1,150,14|10,0:0|0:0,0:0:0:0:
487,209,72118,2,0,L|505:374,1,150,2|2,3:2|3:2,0:0:0:0:
415,376,73021,1,2,3:2:0:0:
329,346,73383,2,0,L|317:235,1,100,2|2,0:0|3:2,0:0:0:0:
354,164,74106,6,0,B|309:147|275:164|275:164|249:134|258:91,1,150,2|8,3:2|0:0,0:0:0:0:
227,14,75009,1,2,3:2:0:0:
120,97,75551,2,0,B|72:112|72:112|16:92,1,100,6|10,3:2|0:0,0:0:0:0:
73,19,76274,1,10,0:0:0:0:
26,239,77178,70,0,P|33:285|16:355,1,100,6|10,3:2|0:0,0:0:0:0:
105,376,77901,2,0,P|141:346|210:326,1,100,2|10,3:2|0:0,0:0:0:0:
282,337,78624,2,0,P|346:366|429:320,2,150,2|2|8,3:2|0:0|0:0,0:0:0:0:
350,272,80070,5,2,3:2:0:0:
288,206,80431,2,0,L|278:97,1,100,10|2,0:0|3:2,0:0:0:0:
262,18,81154,1,10,0:0:0:0:
351,21,81515,2,0,B|464:16|464:16|501:51,1,150,6|2,3:2|3:2,0:0:0:0:
474,130,82419,1,2,3:2:0:0:
506,213,82780,70,0,P|496:282|485:375,1,150,6|10,3:2|0:0,0:0:0:0:
396,367,83684,2,0,P|387:296|371:212,1,150,2|2,3:2|3:2,0:0:0:0:
345,133,84588,1,2,3:2:0:0:
260,164,84949,2,0,P|216:174|161:159,1,100,2|2,0:0|3:2,0:0:0:0:
73,154,85672,6,0,B|75:41|75:41|56:24|40:-5,2,150,6|8|2,3:2|0:0|0:0,0:0:0:0:
23,229,87118,1,6,3:2:0:0:
57,359,87660,2,0,L|163:350,1,100,10|2,0:0|3:2,0:0:0:0:
235,307,88383,1,2,0:0:0:0:
312,351,88744,22,0,B|356:352|356:352|381:337|381:337|468:342,1,150,10|10,2:2|2:2,0:0:0:0:
473,252,89648,2,0,L|350:239,1,100,2|2,3:2|3:2,0:0:0:0:
312,175,90371,2,0,L|189:162,1,100,2|2,3:2|3:2,0:0:0:0:
165,241,91094,1,2,3:2:0:0:
43,199,91636,6,0,B|27:223|27:223|12:164|29:94,1,150,10|10,2:2|2:2,0:0:0:0:
75,27,92539,2,0,P|119:15|190:39,1,100,2|2,3:2|3:2,0:0:0:0:
245,78,93262,2,0,P|290:88|360:66,1,100,2|2,3:2|3:2,0:0:0:0:
410,18,93985,1,2,3:2:0:0:
469,83,94347,38,0,B|461:119|478:165|478:165|464:205|413:176,1,150,14|4,3:2|3:3,0:0:0:0:
336,202,95250,1,4,3:3:0:0:
332,336,95792,2,0,B|270:327|270:327|240:347|240:347|171:329,1,150,6|2,3:2|3:2,0:0:0:0:
85,362,96880,2,0,P|83:308|71:223,1,132.999994520569,2|2,3:2|3:2,0:0:0:0:
184,130,98230,1,6,3:2:0:0:
256,192,98605,12,0,104230,0:0:0:0:
