osu file format v14

[General]
AudioFilename: audio.mp3
AudioLeadIn: 0
PreviewTime: 59814
Countdown: 0
SampleSet: None
StackLeniency: 0.2
Mode: 0
LetterboxInBreaks: 0
WidescreenStoryboard: 1

[Editor]
Bookmarks: 8108,37755,52579
DistanceSpacing: 1.6
BeatDivisor: 2
GridSize: 8
TimelineZoom: 2

[Metadata]
Title:Cagayake! Girls
TitleUnicode:Cagayake! Girls
Artist:Houkago Tea Time
ArtistUnicode:Houkago Tea Time
Creator:rockstarrzz
Version:Insane
Source:K-ON!
Tags:
BeatmapID:1971465
BeatmapSetID:941217

[Difficulty]
HPDrainRate:5
CircleSize:3.9
OverallDifficulty:7.5
ApproachRate:9
SliderMultiplier:2
SliderTickRate:1

[Events]
//Background and Video events
0,0,"1520477769899.jpg",0,0
//Break Periods
//Storyboard Layer 0 (Background)
//Storyboard Layer 1 (Fail)
//Storyboard Layer 2 (Pass)
//Storyboard Layer 3 (Foreground)
//Storyboard Sound Samples

[TimingPoints]
344,352.941176470588,4,2,0,40,1,0
1050,352.941176470588,4,2,0,40,1,0
1050,-100,4,2,0,40,0,0
7402,-200,4,2,0,40,0,0
8108,-66.6666666666667,4,2,0,50,0,1
9344,-133.333333333333,4,2,0,50,0,1
9873,-111.111111111111,4,2,0,50,0,1
10226,-95.2380952380952,4,2,0,50,0,1
10579,-80,4,2,0,50,0,1
14991,-133.333333333333,4,2,0,50,0,1
15873,-80,4,2,0,50,0,1
17814,-80,4,2,0,50,0,1
19402,-100,4,2,0,50,0,0
21873,-66.6666666666667,4,2,0,50,0,0
22226,-100,4,2,0,50,0,0
23461,-80,4,2,0,50,0,0
23991,-100,4,2,0,50,0,0
24697,-133.333333333333,4,2,0,50,0,0
25049,-66.6666666666667,4,2,0,40,0,0
25402,-100,4,2,0,40,0,0
30697,-66.6666666666667,4,2,0,40,0,0
31049,-100,4,2,0,40,0,0
36344,-66.6666666666667,4,2,0,40,0,0
36697,-100,4,2,0,40,0,0
47638,-117.647058823529,4,2,0,40,0,0
55402,-100,4,2,0,40,0,0
57520,-90.9090909090909,4,2,0,40,0,0
58932,-80,4,2,0,40,0,0
60344,-66.6666666666667,4,2,0,50,0,1
61579,-133.333333333333,4,2,0,50,0,1
62108,-111.111111111111,4,2,0,50,0,1
62461,-95.2380952380952,4,2,0,50,0,1
62814,-80,4,2,0,50,0,1
65991,-66.6666666666667,4,2,0,50,0,1
67226,-100,4,2,0,50,0,1
67755,-80,4,2,0,50,0,1
71638,-66.6666666666667,4,2,0,50,0,1
71991,-80,4,2,0,50,0,1
72873,-133.333333333333,4,2,0,50,0,1
73402,-111.111111111111,4,2,0,50,0,1
73755,-95.2380952380952,4,2,0,50,0,1
74108,-80,4,2,0,50,0,1
81344,-100,4,2,0,50,0,1
81873,-80,4,2,0,50,0,1
82932,-80,4,2,0,40,0,0
83285,-100,4,2,0,40,0,0
88226,-80,4,2,0,40,0,0

[HitObjects]
258,306,344,5,0,0:0:0:0:
258,87,520,1,0,0:0:0:0:
234,306,696,1,0,0:0:0:0:
280,87,873,1,0,0:0:0:0:
130,231,1049,6,0,P|115:168|133:123,1,100
382,149,1402,6,0,P|397:212|379:257,1,100
90,61,1755,1,0,0:0:0:0:
210,173,1932,1,0,0:0:0:0:
74,248,2108,2,0,L|82:136,2,100
90,61,2638,5,0,0:0:0:0:
74,248,2814,1,0,0:0:0:0:
210,63,2991,1,0,0:0:0:0:
205,258,3167,1,0,0:0:0:0:
35,31,3344,2,0,P|73:119|139:23,1,250
243,87,3873,6,0,P|299:103|347:95,2,100
375,187,4402,1,0,0:0:0:0:
298,7,4579,1,0,0:0:0:0:
138,261,4755,2,0,P|218:301|234:341,2,100
132,369,5285,5,0,0:0:0:0:
103,157,5461,2,0,L|87:45,2,100
132,369,5991,1,0,0:0:0:0:
103,157,6167,2,0,B|247:120|202:222|382:158,1,250
285,70,6697,5,0,0:0:0:0:
256,110,6785,1,0,0:0:0:0:
248,159,6873,1,0,0:0:0:0:
262,206,6961,1,0,0:0:0:0:
307,244,7049,1,0,0:0:0:0:
303,276,7137,1,0,0:0:0:0:
298,312,7225,1,0,0:0:0:0:
295,342,7313,1,0,0:0:0:0:
293,368,7402,6,0,B|229:376|229:376|205:366|205:366|130:376,1,150
26,215,8108,1,0,0:0:0:0:
162,266,8285,1,0,0:0:0:0:
66,368,8461,1,0,0:0:0:0:
253,222,8638,1,0,0:0:0:0:
269,273,8726,1,0,0:0:0:0:
247,326,8814,1,0,0:0:0:0:
159,127,8991,1,0,0:0:0:0:
162,266,9167,1,0,0:0:0:0:
349,67,9344,6,0,L|342:248,1,150.000005722046
320,359,9873,6,0,P|263:324|211:329,1,89.9999972534181
44,213,10226,6,0,P|101:178|165:192,1,104.999996795654
478,84,10579,6,0,P|426:50|364:51,1,125
115,265,10932,5,0,0:0:0:0:
78,76,11108,1,0,0:0:0:0:
213,292,11285,1,0,0:0:0:0:
278,47,11461,1,0,0:0:0:0:
275,94,11549,1,0,0:0:0:0:
272,139,11638,1,0,0:0:0:0:
315,326,11814,1,0,0:0:0:0:
449,104,11991,1,0,0:0:0:0:
189,154,12167,6,0,P|215:202|303:219,2,125
449,104,12697,1,0,0:0:0:0:
366,354,12873,1,0,0:0:0:0:
332,339,12961,1,0,0:0:0:0:
291,341,13049,1,0,0:0:0:0:
250,354,13138,1,0,0:0:0:0:
209,355,13226,1,0,0:0:0:0:
175,341,13314,1,0,0:0:0:0:
145,322,13402,6,0,P|208:303|281:322,1,125
413,353,13755,5,0,0:0:0:0:
392,241,13932,1,0,0:0:0:0:
296,73,14108,5,0,0:0:0:0:
275,185,14285,1,0,0:0:0:0:
175,341,14461,5,0,0:0:0:0:
154,229,14638,1,0,0:0:0:0:
50,54,14814,5,0,0:0:0:0:
29,166,14991,2,0,P|137:203|163:254,1,150.000005722046
50,272,15520,1,0,0:0:0:0:
50,272,15697,1,0,0:0:0:0:
244,107,15873,2,0,P|272:184|269:200,1,62.5
175,341,16049,2,0,P|227:277|242:272,1,62.5
421,294,16226,2,0,P|339:279|289:248,1,125
175,52,16579,6,0,B|149:52|149:52|193:204,1,125
301,354,16932,6,0,B|328:258|328:258|302:258,1,125
132,265,17285,1,0,0:0:0:0:
325,180,17461,1,0,0:0:0:0:
129,146,17638,1,0,0:0:0:0:
321,89,17814,6,0,P|393:120|421:177,1,125
219,375,18167,1,0,0:0:0:0:
220,343,18255,1,0,0:0:0:0:
222,312,18343,1,0,0:0:0:0:
224,281,18431,1,0,0:0:0:0:
228,247,18520,2,0,P|264:197|323:178,1,125
477,341,18873,1,0,0:0:0:0:
428,338,18961,1,0,0:0:0:0:
379,335,19049,1,0,0:0:0:0:
200,129,19226,6,0,B|204:183|204:183|224:207|224:207|232:297,1,125
458,36,19755,6,0,L|332:50,1,100
228,247,20108,1,0,0:0:0:0:
364,167,20285,1,0,0:0:0:0:
228,89,20461,1,0,0:0:0:0:
444,236,20638,6,0,L|455:136,1,100
228,89,20991,1,0,0:0:0:0:
165,333,21167,6,0,L|264:344,1,100
162,40,21520,1,0,0:0:0:0:
145,87,21608,1,0,0:0:0:0:
160,137,21697,1,0,0:0:0:0:
356,313,21873,2,0,B|333:235|386:243|359:149,1,150.000005722046
162,40,22226,6,0,L|62:47,1,100
356,313,22579,6,0,L|455:320,1,100
160,137,22932,1,0,0:0:0:0:
229,264,23108,1,0,0:0:0:0:
281,44,23285,1,0,0:0:0:0:
353,333,23461,6,0,B|325:304|325:304|368:293|368:293|332:282|332:282|365:266|365:266|392:224|325:84,1,250
281,44,23991,6,0,L|271:154,1,100
160,137,24344,2,0,L|174:192,1,50
209,323,24520,1,0,0:0:0:0:
210,346,24608,1,0,0:0:0:0:
211,368,24697,6,0,P|148:382|88:369,1,112.500004291535
50,317,25049,6,0,B|55:253|55:253|73:230|73:230|82:127,1,150.000005722046
82,53,25402,1,0,0:0:0:0:
194,34,25579,1,0,0:0:0:0:
210,32,25667,1,0,0:0:0:0:
226,30,25755,2,0,P|237:78|231:127,1,100
159,224,26108,1,0,0:0:0:0:
205,340,26285,1,0,0:0:0:0:
257,223,26461,6,0,P|162:222|142:230,2,100
387,258,26991,1,0,0:0:0:0:
403,260,27079,1,0,0:0:0:0:
419,262,27167,2,0,P|430:213|424:164,1,100
332,88,27520,1,0,0:0:0:0:
257,223,27697,1,0,0:0:0:0:
146,115,27873,2,0,P|97:103|48:109,2,100
257,223,28402,1,0,0:0:0:0:
259,238,28490,1,0,0:0:0:0:
261,253,28579,2,0,P|212:264|163:258,1,100
234,76,28932,5,0,0:0:0:0:
348,280,29108,1,0,0:0:0:0:
135,182,29285,1,0,0:0:0:0:
365,136,29461,1,0,0:0:0:0:
206,308,29638,1,0,0:0:0:0:
197,39,29814,1,0,0:0:0:0:
233,25,29902,1,0,0:0:0:0:
270,41,29991,1,0,0:0:0:0:
398,285,30167,5,0,0:0:0:0:
277,206,30344,1,0,0:0:0:0:
415,141,30520,1,0,0:0:0:0:
206,308,30697,6,0,B|182:329|182:329|203:143,1,150.000005722046
426,41,31049,2,0,L|414:147,1,100
195,211,31402,2,0,L|207:105,1,100
482,8,31755,2,0,L|470:114,1,100
140,240,32108,2,0,L|152:134,1,100
345,77,32461,1,0,0:0:0:0:
308,275,32638,1,0,0:0:0:0:
151,140,32814,1,0,0:0:0:0:
345,77,32991,5,0,0:0:0:0:
308,275,33167,1,0,0:0:0:0:
151,140,33344,1,0,0:0:0:0:
424,218,33520,6,0,L|282:223,1,100
51,136,33873,2,0,L|193:141,1,100
407,271,34226,2,0,L|265:276,1,100
74,82,34579,2,0,L|216:87,1,100
343,338,34932,5,0,0:0:0:0:
276,133,35108,1,0,0:0:0:0:
231,301,35285,1,0,0:0:0:0:
375,140,35461,1,0,0:0:0:0:
189,198,35638,5,0,0:0:0:0:
189,198,35814,1,0,0:0:0:0:
419,250,35991,5,0,0:0:0:0:
419,250,36167,1,0,0:0:0:0:
44,170,36344,6,0,B|105:176|105:176|131:192|131:192|200:199,1,150.000005722046
173,17,36697,1,0,0:0:0:0:
169,50,36785,1,0,0:0:0:0:
166,83,36873,1,0,0:0:0:0:
163,116,36961,1,0,0:0:0:0:
161,152,37049,2,0,P|238:151|279:175,1,100
181,307,37402,5,0,0:0:0:0:
246,71,37579,1,0,0:0:0:0:
101,213,37755,1,0,0:0:0:0:
337,151,37932,1,0,0:0:0:0:
135,103,38108,1,0,0:0:0:0:
307,276,38285,1,0,0:0:0:0:
181,307,38461,5,0,0:0:0:0:
101,213,38638,1,0,0:0:0:0:
135,103,38814,1,0,0:0:0:0:
246,71,38991,1,0,0:0:0:0:
337,151,39167,6,0,P|411:157|442:143,1,100
135,103,39520,2,0,P|60:96|29:110,1,100
11,234,39873,1,0,0:0:0:0:
124,368,40049,1,0,0:0:0:0:
93,179,40226,2,0,P|167:185|198:171,1,100
344,24,40579,6,0,P|337:98|351:129,1,100
473,303,40932,6,0,P|479:228|465:197,1,100
345,120,41285,1,0,0:0:0:0:
279,250,41461,1,0,0:0:0:0:
197,38,41638,1,0,0:0:0:0:
97,228,41814,1,0,0:0:0:0:
74,22,41991,5,0,0:0:0:0:
74,22,42167,1,0,0:0:0:0:
297,85,42344,5,0,0:0:0:0:
297,85,42520,1,0,0:0:0:0:
97,228,42697,5,0,0:0:0:0:
97,228,42873,1,0,0:0:0:0:
320,291,43050,5,0,0:0:0:0:
320,291,43226,1,0,0:0:0:0:
297,85,43402,6,0,B|313:134|313:134|299:205,1,100
24,288,43755,2,0,B|8:239|8:239|22:168,1,100
176,163,44108,5,0,0:0:0:0:
327,242,44285,1,0,0:0:0:0:
191,346,44461,1,0,0:0:0:0:
176,163,44638,1,0,0:0:0:0:
416,275,44814,5,0,0:0:0:0:
416,275,44991,1,0,0:0:0:0:
217,270,45167,5,0,0:0:0:0:
217,270,45344,1,0,0:0:0:0:
415,107,45520,5,0,0:0:0:0:
415,107,45697,1,0,0:0:0:0:
214,102,45873,5,0,0:0:0:0:
214,102,46050,1,0,0:0:0:0:
485,332,46226,6,0,B|501:283|501:283|487:212,1,100
214,102,46579,2,0,B|198:151|198:151|212:222,2,100
323,113,47108,1,0,0:0:0:0:
319,151,47196,1,0,0:0:0:0:
315,191,47284,1,0,0:0:0:0:
312,230,47372,1,0,0:0:0:0:
309,270,47460,1,0,0:0:0:0:
306,309,47549,1,0,0:0:0:0:
303,338,47638,6,0,B|207:304|233:367|134:336,1,170.000003242493
36,211,48167,1,0,0:0:0:0:
139,169,48344,6,0,P|147:210|137:251,1,85.0000016212464
92,82,48697,6,0,P|139:73|177:81,2,85.0000016212464
203,259,49226,1,0,0:0:0:0:
249,160,49402,1,0,0:0:0:0:
134,164,49579,2,0,B|91:246|163:236|105:348,1,170.000003242493
82,94,50108,2,0,P|54:126|42:166,1,85.0000016212464
341,158,50461,2,0,P|326:118|297:87,1,85.0000016212464
139,169,50814,5,0,0:0:0:0:
139,169,50991,1,0,0:0:0:0:
288,268,51167,5,0,0:0:0:0:
288,268,51344,1,0,0:0:0:0:
379,85,51520,6,0,P|337:77|296:86,1,85.0000016212464
139,169,51873,5,0,0:0:0:0:
139,169,52049,1,0,0:0:0:0:
341,158,52226,5,0,0:0:0:0:
75,230,52402,2,0,P|55:130|103:70,1,170.000003242493
347,73,52932,2,0,L|337:196,1,85.0000016212464
313,341,53285,6,0,P|271:350|230:342,1,85.0000016212464
264,74,53638,2,0,P|305:64|346:72,1,85.0000016212464
417,259,53991,2,0,L|300:266,1,85.0000016212464
107,313,54344,2,0,L|224:320,1,85.0000016212464
332,264,54696,5,0,0:0:0:0:
332,264,54873,1,0,0:0:0:0:
220,211,55049,5,0,0:0:0:0:
330,100,55226,2,0,B|323:166|323:166|341:200|341:200|330:286,1,170.000003242493
107,313,55755,2,0,B|105:271|105:271|114:257|114:257|109:201,1,100
102,68,56108,5,0,0:0:0:0:
102,68,56285,1,0,0:0:0:0:
9,340,56461,1,0,0:0:0:0:
180,292,56638,1,0,0:0:0:0:
2,240,56814,2,0,L|8:339,1,100
364,206,57167,2,0,L|357:106,1,100
102,68,57520,5,0,0:0:0:0:
256,63,57697,1,0,0:0:0:0:
4,10,57873,2,0,P|4:106|87:160,2,110.000003356934
256,63,58402,1,0,0:0:0:0:
277,343,58579,1,0,0:0:0:0:
46,235,58755,1,0,0:0:0:0:
112,85,58932,5,0,0:0:0:0:
114,115,59020,1,0,0:0:0:0:
117,145,59108,1,0,0:0:0:0:
122,177,59196,1,0,0:0:0:0:
125,208,59284,1,0,0:0:0:0:
129,240,59373,1,0,0:0:0:0:
132,271,59461,2,0,L|141:360,3,62.5
231,227,59814,5,0,0:0:0:0:
238,201,59902,1,0,0:0:0:0:
246,179,59991,2,0,L|318:170,3,62.5
427,291,60344,6,0,B|369:280|369:280|342:294|342:294|273:278,1,150.000005722046
100,192,60697,1,0,0:0:0:0:
255,52,60873,1,0,0:0:0:0:
211,257,61049,1,0,0:0:0:0:
127,65,61226,1,0,0:0:0:0:
308,171,61402,1,0,0:3:0:0:
43,270,61579,6,0,P|7:210|42:110,1,150.000005722046
103,75,62108,6,0,L|95:185,1,89.9999972534181
293,57,62461,6,0,L|242:152,1,104.999996795654
441,182,62814,6,0,L|315:247,1,125
125,353,63167,5,0,0:0:0:0:
125,200,63344,1,0,0:0:0:0:
256,276,63520,1,0,0:0:0:0:
52,360,63697,1,0,0:0:0:0:
48,314,63785,1,0,0:0:0:0:
43,270,63873,1,0,0:0:0:0:
155,50,64049,5,0,0:0:0:0:
125,200,64226,1,0,0:0:0:0:
11,100,64402,1,0,0:0:0:0:
249,0,64579,6,0,P|270:55|246:120,2,125
10,99,65108,1,0,0:0:0:0:
13,135,65196,1,0,0:0:0:0:
17,171,65284,1,0,0:0:0:0:
20,207,65372,1,0,0:0:0:0:
23,243,65461,2,0,L|98:247,3,62.5
161,147,65814,1,0,0:0:0:0:
164,177,65902,1,0,0:0:0:0:
169,207,65991,6,0,B|178:265|178:265|169:289|169:289|182:362,1,150.000005722046
98,259,66344,1,0,0:0:0:0:
222,44,66520,1,0,0:0:0:0:
241,290,66696,1,0,0:0:0:0:
82,103,66873,1,0,0:0:0:0:
322,161,67049,1,0,0:3:0:0:
16,318,67226,6,0,P|-3:253|21:187,2,100
164,363,67755,1,0,0:0:0:0:
350,278,67932,1,0,0:0:0:0:
343,250,68020,1,0,0:0:0:0:
340,224,68108,1,0,0:0:0:0:
231,77,68285,1,0,0:0:0:0:
103,246,68461,2,0,P|83:225|71:110,1,125
316,21,68814,5,0,0:0:0:0:
400,173,68991,1,0,0:0:0:0:
225,170,69167,1,0,0:0:0:0:
484,27,69344,1,0,0:0:0:0:
482,64,69432,1,0,0:0:0:0:
480,101,69520,1,0,0:0:0:0:
478,139,69608,1,0,0:0:0:0:
477,176,69696,1,0,0:0:0:0:
472,320,69873,2,0,L|326:337,1,125
196,363,70226,5,0,0:0:0:0:
112,211,70403,1,0,0:0:0:0:
287,214,70579,1,0,0:0:0:0:
28,357,70756,1,0,0:0:0:0:
29,319,70844,1,0,0:0:0:0:
31,282,70932,1,0,0:0:0:0:
33,244,71020,1,0,0:0:0:0:
35,207,71108,2,0,L|43:112,1,62.5
116,56,71285,2,0,L|122:127,1,62.5
166,258,71461,1,0,0:0:0:0:
169,274,71549,1,0,0:0:0:0:
172,293,71638,6,0,B|241:299|241:299|256:311|256:311|338:318,1,150.000005722046
489,275,71991,1,0,0:0:0:0:
385,97,72167,1,0,0:0:0:0:
381,142,72255,1,0,0:0:0:0:
377,187,72344,1,0,0:0:0:0:
367,372,72520,1,0,0:0:0:0:
228,119,72697,1,0,0:0:0:0:
113,338,72873,6,0,P|194:369|265:320,1,150.000005722046
321,258,73402,6,0,L|328:151,1,89.9999972534181
128,188,73755,6,0,L|113:55,1,104.999996795654
436,157,74108,6,0,L|453:15,1,125
239,59,74461,1,0,0:0:0:0:
304,261,74638,1,0,0:0:0:0:
98,207,74814,1,0,0:0:0:0:
239,59,74991,1,0,0:0:0:0:
284,66,75079,1,0,0:0:0:0:
322,93,75167,1,0,0:0:0:0:
344,134,75255,1,0,0:0:0:0:
346,180,75343,1,0,0:0:0:0:
224,289,75520,5,0,0:0:0:0:
386,119,75697,1,0,0:0:0:0:
353,350,75873,1,0,0:0:0:0:
245,142,76049,1,0,0:0:0:0:
453,247,76226,1,0,0:0:0:0:
136,307,76402,1,0,0:0:0:0:
133,276,76490,1,0,0:0:0:0:
130,245,76578,1,0,0:0:0:0:
128,217,76667,1,0,0:0:0:0:
124,188,76755,1,0,0:0:0:0:
108,52,76932,1,0,0:0:0:0:
253,189,77108,1,0,0:0:0:0:
64,350,77285,5,0,0:0:0:0:
64,350,77461,1,0,0:0:0:0:
253,189,77638,5,0,0:0:0:0:
253,189,77814,1,0,0:0:0:0:
143,21,77991,1,0,0:0:0:0:
253,189,78167,1,0,0:0:0:0:
55,202,78344,1,0,0:0:0:0:
333,128,78520,6,0,P|353:190|325:264,2,125
59,92,79049,1,0,0:0:0:0:
59,92,79226,1,0,0:0:0:0:
167,167,79402,1,0,0:0:0:0:
93,268,79579,1,0,0:0:0:0:
192,61,79755,2,0,P|248:84|276:147,1,125
272,351,80108,5,0,0:0:0:0:
272,351,80285,1,0,0:0:0:0:
350,100,80461,1,0,0:0:0:0:
144,169,80638,1,0,0:0:0:0:
173,172,80726,1,0,0:0:0:0:
204,177,80814,1,0,0:0:0:0:
390,197,80991,1,0,0:0:0:0:
272,351,81167,1,0,0:0:0:0:
350,100,81344,6,0,P|459:121|504:202,1,200
495,343,81873,2,0,L|399:353,1,62.5
272,351,82049,1,0,0:0:0:0:
249,318,82137,1,0,0:0:0:0:
239,280,82225,1,0,0:0:0:0:
243,242,82313,1,0,0:0:0:0:
261,208,82401,1,0,0:0:0:0:
306,176,82491,5,0,0:0:0:0:
308,149,82579,1,0,0:0:0:0:
309,118,82667,1,0,0:0:0:0:
309,84,82755,1,0,0:0:0:0:
308,56,82843,1,0,0:0:0:0:
310,26,82932,6,0,B|261:31|261:31|241:47|241:47|147:60,1,125
145,262,83285,2,0,L|133:141,1,100
77,53,83638,1,0,0:0:0:0:
205,59,83814,1,0,0:0:0:0:
135,162,83991,1,0,0:0:0:0:
205,59,84167,6,0,L|333:70,1,100
477,140,84520,6,0,L|349:151,1,100
249,165,84873,1,0,0:0:0:0:
249,182,84961,1,0,0:0:0:0:
251,200,85049,1,0,0:0:0:0:
253,218,85137,1,0,0:0:0:0:
254,236,85225,1,0,0:0:0:0:
256,253,85314,1,0,0:0:0:0:
258,272,85402,1,0,0:0:0:0:
170,340,85579,1,0,0:0:0:0:
35,270,85755,6,0,L|41:149,1,100
151,38,86108,2,0,L|157:159,1,100
161,287,86461,1,0,0:0:0:0:
272,349,86638,1,0,0:0:0:0:
272,219,86814,1,0,0:0:0:0:
61,279,86991,2,0,L|181:288,1,100
371,211,87344,2,0,L|251:220,1,100
106,139,87697,1,0,0:0:0:0:
225,12,87873,5,0,0:0:0:0:
220,66,87961,5,0,0:0:0:0:
218,119,88049,5,0,0:0:0:0:
215,171,88137,5,0,0:0:0:0:
