osu file format v14

[General]
AudioFilename: audio.mp3
AudioLeadIn: 0
PreviewTime: 82177
Countdown: 0
SampleSet: Normal
StackLeniency: 0.7
Mode: 1
LetterboxInBreaks: 0
WidescreenStoryboard: 0

[Editor]
Bookmarks: 45016,48112
DistanceSpacing: 0.8
BeatDivisor: 4
GridSize: 8
TimelineZoom: 2.5

[Metadata]
Title:DISCONNECTED
TitleUnicode:DISCONNECTED
Artist:Hotblade
ArtistUnicode:Hotblade
Creator:RuinedChicken
Version:Tofu Delivery Oni
Source:
Tags:eurobeat tofu
BeatmapID:1220671
BeatmapSetID:576593

[Difficulty]
HPDrainRate:5
CircleSize:5
OverallDifficulty:6
ApproachRate:5
SliderMultiplier:1.4
SliderTickRate:1

[Events]
//Background and Video events
0,0,"disconnected.jpg",0,0
//Break Periods
//Storyboard Layer 0 (Background)
//Storyboard Layer 1 (Fail)
//Storyboard Layer 2 (Pass)
//Storyboard Layer 3 (Foreground)
//Storyboard Sound Samples

[TimingPoints]
113,387.096774193548,4,1,0,100,1,0
6306,-66.6666666666667,4,1,0,100,0,0
7080,-76.9230769230769,4,1,0,100,0,0
7661,-90.9090909090909,4,1,0,100,0,0
12500,-62.5,4,1,0,100,0,0
13274,-71.4285714285714,4,1,0,100,0,0
13854,-83.3333333333333,4,1,0,100,0,0
17145,-100,4,1,0,50,0,0
17919,-100,4,1,0,75,0,0
18306,-100,4,1,0,95,0,0
18693,-100,4,1,0,100,0,0
19080,200,4,1,0,100,1,0
19280,100,4,1,0,100,1,0
19480,50,4,1,0,100,1,0
19680,37.5,4,1,0,100,1,0
20242,387.096774193548,4,1,0,100,1,0
20242,-95.2380952380952,4,1,0,100,0,1
32822,-95.2380952380952,4,1,0,100,0,0
37274,-95.2380952380952,4,1,0,100,0,0
45016,-90.9090909090909,4,1,0,100,0,0
46564,-86.9565217391304,4,1,0,100,0,0
48112,-83.3333333333333,4,1,0,100,0,0
51209,-76.9230769230769,4,1,0,100,0,0
51596,-100,4,1,0,100,0,0
51983,-76.9230769230769,4,1,0,100,0,0
52371,-100,4,1,0,100,0,0
52758,-76.9230769230769,4,1,0,100,0,0
53145,-100,4,1,0,100,0,0
53532,-76.9230769230769,4,1,0,100,0,0
53919,-100,4,1,0,100,0,0
54306,-76.9230769230769,4,1,0,100,0,0
57403,-86.9565217391304,4,1,0,100,0,1
94564,-100,4,1,0,100,0,0
99209,-95.2380952380952,4,1,0,100,0,0
106951,-90.9090909090909,4,1,0,100,0,0
108500,-86.9565217391304,4,1,0,100,0,0
110048,-83.3333333333333,4,1,0,100,0,0
113145,-76.9230769230769,4,1,0,100,0,0
113532,-100,4,1,0,100,0,0
113919,-76.9230769230769,4,1,0,100,0,0
114306,-100,4,1,0,100,0,0
114693,-76.9230769230769,4,1,0,100,0,0
115080,-100,4,1,0,100,0,0
115467,-76.9230769230769,4,1,0,100,0,0
115854,-100,4,1,0,100,0,0
116242,-76.9230769230769,4,1,0,100,0,0
119338,-86.9565217391304,4,1,0,100,0,1
156500,-71.4285714285714,4,1,0,100,0,0
157661,-100,4,1,0,100,0,0
158048,-71.4285714285714,4,1,0,100,0,0
158822,-100,4,1,0,100,0,0
159596,-71.4285714285714,4,1,0,100,0,0
160758,-100,4,1,0,100,0,0
162693,-71.4285714285714,4,1,0,100,0,0
163854,-100,4,1,0,100,0,0
164242,-71.4285714285714,4,1,0,100,0,0
165209,-100,4,1,0,100,0,0
165790,-71.4285714285714,4,1,0,100,0,0
166951,-100,4,1,0,100,0,0
168887,-90.9090909090909,4,1,0,100,0,0
187467,-76.9230769230769,4,1,0,100,0,0
187854,-100,4,1,0,100,0,0
188242,-76.9230769230769,4,1,0,100,0,0
188629,-100,4,1,0,100,0,0
189016,-76.9230769230769,4,1,0,100,0,0
189403,-100,4,1,0,100,0,0
189790,-76.9230769230769,4,1,0,100,0,0
190177,-100,4,1,0,100,0,0
190371,-76.9230769230769,4,1,0,100,0,0
193661,-86.9565217391304,4,1,0,100,0,1
230919,-100,4,1,0,100,0,0

[HitObjects]
256,192,6306,5,0,0:0:0:0:
256,192,7080,1,0,0:0:0:0:
256,192,7661,1,0,0:0:0:0:
256,192,12500,1,0,0:0:0:0:
256,192,13274,1,0,0:0:0:0:
256,192,13854,1,0,0:0:0:0:
256,192,17145,5,0,0:0:0:0:
256,192,17242,1,0,0:0:0:0:
256,192,17338,1,8,0:0:0:0:
256,192,17435,1,8,0:0:0:0:
256,192,17532,1,8,0:0:0:0:
256,192,17629,1,8,0:0:0:0:
256,192,17725,1,0,0:0:0:0:
256,192,17822,1,0,0:0:0:0:
256,192,17919,1,0,0:0:0:0:
256,192,18016,1,0,0:0:0:0:
256,192,18112,1,8,0:0:0:0:
256,192,18209,1,8,0:0:0:0:
256,192,18306,1,0,0:0:0:0:
256,192,18403,1,8,0:0:0:0:
256,192,18500,1,8,0:0:0:0:
267,192,18596,1,8,0:0:0:0:
255,192,18693,5,4,0:0:0:0:
257,192,20242,5,0,0:0:0:0:
253,189,20338,1,0,0:0:0:0:
253,189,20435,1,8,0:0:0:0:
253,189,20532,1,0,0:0:0:0:
257,192,20629,1,8,0:0:0:0:
257,192,20725,1,0,0:0:0:0:
257,192,20822,1,0,0:0:0:0:
257,192,20919,1,8,0:0:0:0:
264,187,21016,1,0,0:0:0:0:
257,192,21112,1,8,0:0:0:0:
257,192,21209,1,0,0:0:0:0:
259,189,21306,1,0,0:0:0:0:
261,195,21403,1,8,0:0:0:0:
259,192,21500,1,0,0:0:0:0:
257,192,21596,1,0,0:0:0:0:
257,192,21693,1,8,0:0:0:0:
257,192,21790,1,8,0:0:0:0:
253,189,21887,1,0,0:0:0:0:
253,189,21984,1,8,0:0:0:0:
253,189,22081,1,0,0:0:0:0:
257,192,22178,1,8,0:0:0:0:
257,192,22274,1,0,0:0:0:0:
257,192,22371,1,0,0:0:0:0:
257,192,22468,1,8,0:0:0:0:
264,187,22565,1,0,0:0:0:0:
257,192,22661,1,8,0:0:0:0:
257,192,22758,1,0,0:0:0:0:
259,189,22855,1,0,0:0:0:0:
261,195,22952,1,8,0:0:0:0:
259,192,23049,1,8,0:0:0:0:
257,192,23145,1,8,0:0:0:0:
257,192,23242,1,8,0:0:0:0:
257,192,23339,1,0,0:0:0:0:
257,192,23436,1,0,0:0:0:0:
253,189,23532,1,8,0:0:0:0:
253,189,23629,1,0,0:0:0:0:
257,192,23726,1,8,0:0:0:0:
257,192,23822,1,0,0:0:0:0:
257,192,23919,1,0,0:0:0:0:
257,192,24016,1,8,0:0:0:0:
264,187,24113,1,0,0:0:0:0:
257,192,24209,1,8,0:0:0:0:
257,192,24306,1,0,0:0:0:0:
259,189,24403,1,0,0:0:0:0:
261,195,24500,1,8,0:0:0:0:
259,192,24597,1,0,0:0:0:0:
257,192,24693,1,0,0:0:0:0:
257,192,24790,1,8,0:0:0:0:
257,192,24887,1,8,0:0:0:0:
253,189,24984,1,0,0:0:0:0:
253,189,25081,1,8,0:0:0:0:
253,189,25178,1,0,0:0:0:0:
257,192,25275,5,8,0:0:0:0:
257,192,25371,1,0,0:0:0:0:
257,192,25468,1,0,0:0:0:0:
257,192,25565,1,8,0:0:0:0:
264,187,25662,1,0,0:0:0:0:
257,192,25758,1,8,0:0:0:0:
257,192,25855,1,0,0:0:0:0:
259,189,25952,1,0,0:0:0:0:
261,195,26049,1,8,0:0:0:0:
259,192,26146,1,8,0:0:0:0:
257,192,26242,1,0,0:0:0:0:
257,192,26339,1,0,0:0:0:0:
257,192,26435,5,0,0:0:0:0:
253,189,26531,1,0,0:0:0:0:
253,189,26628,1,8,0:0:0:0:
253,189,26725,1,0,0:0:0:0:
257,192,26822,1,8,0:0:0:0:
257,192,26918,1,0,0:0:0:0:
257,192,27015,1,0,0:0:0:0:
257,192,27112,1,8,0:0:0:0:
264,187,27209,1,0,0:0:0:0:
257,192,27305,1,8,0:0:0:0:
257,192,27402,1,0,0:0:0:0:
259,189,27499,1,0,0:0:0:0:
261,195,27596,1,8,0:0:0:0:
259,192,27693,1,0,0:0:0:0:
257,192,27789,1,0,0:0:0:0:
257,192,27886,1,8,0:0:0:0:
257,192,27983,1,8,0:0:0:0:
253,189,28080,1,0,0:0:0:0:
253,189,28177,1,8,0:0:0:0:
253,189,28274,1,0,0:0:0:0:
257,192,28371,1,8,0:0:0:0:
257,192,28467,1,0,0:0:0:0:
257,192,28564,1,0,0:0:0:0:
257,192,28661,1,8,0:0:0:0:
264,187,28758,1,0,0:0:0:0:
257,192,28854,1,8,0:0:0:0:
257,192,28951,1,0,0:0:0:0:
259,189,29048,1,0,0:0:0:0:
261,195,29145,1,8,0:0:0:0:
259,192,29242,1,8,0:0:0:0:
257,192,29338,1,8,0:0:0:0:
257,192,29435,1,8,0:0:0:0:
257,192,29532,1,0,0:0:0:0:
257,192,29629,1,0,0:0:0:0:
253,189,29725,1,8,0:0:0:0:
253,189,29822,1,0,0:0:0:0:
257,192,29919,1,8,0:0:0:0:
257,192,30015,1,0,0:0:0:0:
257,192,30112,1,0,0:0:0:0:
257,192,30209,1,8,0:0:0:0:
264,187,30306,1,0,0:0:0:0:
257,192,30402,1,8,0:0:0:0:
257,192,30499,1,0,0:0:0:0:
259,189,30596,1,0,0:0:0:0:
261,195,30693,1,8,0:0:0:0:
259,192,30790,1,0,0:0:0:0:
257,192,30886,1,0,0:0:0:0:
257,192,30983,1,8,0:0:0:0:
257,192,31080,1,8,0:0:0:0:
253,189,31177,1,0,0:0:0:0:
253,189,31274,1,8,0:0:0:0:
253,189,31371,1,0,0:0:0:0:
257,192,31468,5,8,0:0:0:0:
257,192,31564,1,0,0:0:0:0:
257,192,31661,1,0,0:0:0:0:
257,192,31758,1,8,0:0:0:0:
264,187,31855,1,0,0:0:0:0:
257,192,31951,1,8,0:0:0:0:
257,192,32048,1,0,0:0:0:0:
259,189,32145,1,0,0:0:0:0:
261,195,32242,1,8,0:0:0:0:
259,192,32339,1,8,0:0:0:0:
257,192,32435,1,0,0:0:0:0:
257,192,32532,1,0,0:0:0:0:
257,192,32628,1,0,0:0:0:0:
256,192,32822,1,0,0:0:0:0:
257,192,33016,1,8,0:0:0:0:
256,192,33112,1,8,0:0:0:0:
261,195,33209,1,0,0:0:0:0:
257,192,33403,1,0,0:0:0:0:
257,192,33596,1,0,0:0:0:0:
248,200,33693,1,0,0:0:0:0:
256,192,33790,1,8,0:0:0:0:
257,192,33887,1,8,0:0:0:0:
257,192,33983,1,0,0:0:0:0:
256,192,34177,1,0,0:0:0:0:
257,192,34371,1,0,0:0:0:0:
256,184,34467,1,0,0:0:0:0:
257,192,34564,1,8,0:0:0:0:
256,192,34661,1,8,0:0:0:0:
256,192,34758,1,0,0:0:0:0:
257,192,34951,1,0,0:0:0:0:
256,192,35145,1,0,0:0:0:0:
257,192,35338,1,8,0:0:0:0:
257,192,35435,1,8,0:0:0:0:
257,192,35532,1,0,0:0:0:0:
248,200,35629,1,0,0:0:0:0:
256,192,35725,1,0,0:0:0:0:
257,192,35919,1,0,0:0:0:0:
256,192,36112,1,8,0:0:0:0:
257,192,36209,1,8,0:0:0:0:
257,192,36306,1,0,0:0:0:0:
257,192,36500,1,0,0:0:0:0:
256,192,36693,1,0,0:0:0:0:
256,200,36790,1,0,0:0:0:0:
257,192,36887,1,8,0:0:0:0:
256,192,36983,1,8,0:0:0:0:
256,192,37080,1,0,0:0:0:0:
256,192,37274,1,0,0:0:0:0:
256,192,37371,1,0,0:0:0:0:
256,192,37564,1,0,0:0:0:0:
256,192,37661,1,0,0:0:0:0:
256,192,37854,1,0,0:0:0:0:
256,192,37951,1,0,0:0:0:0:
256,192,38048,1,0,0:0:0:0:
256,192,38145,1,8,0:0:0:0:
256,192,38242,1,8,0:0:0:0:
256,192,38338,1,0,0:0:0:0:
256,192,38435,1,0,0:0:0:0:
256,192,38532,1,8,0:0:0:0:
256,192,38629,1,8,0:0:0:0:
256,192,38725,1,0,0:0:0:0:
256,192,38822,1,0,0:0:0:0:
256,192,39016,1,0,0:0:0:0:
257,192,39210,1,8,0:0:0:0:
256,192,39306,1,8,0:0:0:0:
261,195,39403,1,0,0:0:0:0:
257,192,39597,1,0,0:0:0:0:
257,192,39790,1,0,0:0:0:0:
248,200,39887,1,0,0:0:0:0:
256,192,39984,1,8,0:0:0:0:
257,192,40081,1,8,0:0:0:0:
257,192,40177,1,0,0:0:0:0:
256,192,40371,1,0,0:0:0:0:
257,192,40565,1,0,0:0:0:0:
256,184,40661,1,0,0:0:0:0:
257,192,40758,1,8,0:0:0:0:
256,192,40855,1,8,0:0:0:0:
256,192,40952,1,0,0:0:0:0:
257,192,41145,1,0,0:0:0:0:
256,192,41339,1,0,0:0:0:0:
257,192,41532,1,8,0:0:0:0:
257,192,41629,1,8,0:0:0:0:
257,192,41726,1,0,0:0:0:0:
248,200,41823,1,0,0:0:0:0:
256,192,41919,1,0,0:0:0:0:
257,192,42113,1,0,0:0:0:0:
256,192,42306,1,8,0:0:0:0:
257,192,42403,1,8,0:0:0:0:
257,192,42500,1,0,0:0:0:0:
257,192,42694,1,0,0:0:0:0:
256,192,42887,1,0,0:0:0:0:
256,200,42984,1,0,0:0:0:0:
257,192,43081,1,8,0:0:0:0:
256,192,43177,1,8,0:0:0:0:
256,192,43274,1,0,0:0:0:0:
256,192,43467,1,0,0:0:0:0:
256,192,43564,1,8,0:0:0:0:
256,192,43661,1,8,0:0:0:0:
256,192,43758,1,8,0:0:0:0:
256,192,43854,1,0,0:0:0:0:
256,192,43951,1,8,0:0:0:0:
256,192,44048,1,8,0:0:0:0:
256,192,44145,1,8,0:0:0:0:
256,192,44242,1,0,0:0:0:0:
256,192,44338,1,8,0:0:0:0:
256,192,44435,1,8,0:0:0:0:
256,192,44532,1,0,0:0:0:0:
256,192,44629,1,8,0:0:0:0:
256,192,44725,1,8,0:0:0:0:
256,192,44822,1,0,0:0:0:0:
256,184,44919,1,0,0:0:0:0:
256,192,45016,5,8,0:0:0:0:
256,192,45112,1,8,0:0:0:0:
256,192,45209,1,0,0:0:0:0:
256,192,45306,1,0,0:0:0:0:
256,192,45403,5,8,0:0:0:0:
256,192,45499,1,8,0:0:0:0:
256,192,45596,1,0,0:0:0:0:
256,192,45693,1,0,0:0:0:0:
256,192,45790,5,8,0:0:0:0:
256,192,45886,1,8,0:0:0:0:
256,192,45983,1,0,0:0:0:0:
256,192,46080,1,0,0:0:0:0:
256,192,46177,1,0,0:0:0:0:
256,192,46564,1,0,0:0:0:0:
256,192,46661,1,8,0:0:0:0:
256,192,46758,1,8,0:0:0:0:
256,192,46854,1,0,0:0:0:0:
256,192,46951,1,0,0:0:0:0:
256,192,47048,1,8,0:0:0:0:
256,192,47145,1,8,0:0:0:0:
256,192,47242,1,0,0:0:0:0:
256,192,47338,1,0,0:0:0:0:
256,192,47435,1,8,0:0:0:0:
256,192,47532,1,8,0:0:0:0:
256,192,47629,1,0,0:0:0:0:
256,192,47725,1,8,0:0:0:0:
256,192,48112,1,0,0:0:0:0:
256,192,48209,1,0,0:0:0:0:
256,192,48306,1,8,0:0:0:0:
256,192,48403,1,8,0:0:0:0:
256,192,48500,1,0,0:0:0:0:
256,192,48596,1,0,0:0:0:0:
256,192,48693,1,8,0:0:0:0:
256,192,48790,1,8,0:0:0:0:
256,192,48887,1,0,0:0:0:0:
256,192,48983,1,8,0:0:0:0:
256,192,49080,1,8,0:0:0:0:
256,192,49177,1,0,0:0:0:0:
256,192,49274,1,8,0:0:0:0:
256,192,49371,1,8,0:0:0:0:
256,192,49467,1,0,0:0:0:0:
256,192,49564,1,0,0:0:0:0:
256,192,49661,1,8,0:0:0:0:
256,192,49758,1,8,0:0:0:0:
256,192,49854,1,0,0:0:0:0:
256,192,49951,1,0,0:0:0:0:
256,192,50048,1,8,0:0:0:0:
256,192,50145,1,8,0:0:0:0:
256,192,50242,1,0,0:0:0:0:
256,192,50338,1,0,0:0:0:0:
256,192,50435,1,8,0:0:0:0:
256,192,50532,1,8,0:0:0:0:
256,192,50629,1,0,0:0:0:0:
256,192,50725,1,8,0:0:0:0:
256,192,50822,1,8,0:0:0:0:
256,192,50919,1,8,0:0:0:0:
256,192,51016,1,0,0:0:0:0:
256,192,51112,1,0,0:0:0:0:
256,192,51209,1,12,0:0:0:0:
256,192,51596,1,8,0:0:0:0:
256,192,51983,1,12,0:0:0:0:
256,192,52371,1,8,0:0:0:0:
256,192,52758,1,12,0:0:0:0:
256,192,53145,1,8,0:0:0:0:
256,192,53532,1,12,0:0:0:0:
256,192,53919,1,8,0:0:0:0:
256,192,54306,1,12,0:0:0:0:
256,192,55854,5,8,0:0:0:0:
256,192,55951,1,8,0:0:0:0:
256,192,56048,1,8,0:0:0:0:
256,192,56145,1,8,0:0:0:0:
256,192,56242,1,0,0:0:0:0:
256,184,56338,1,0,0:0:0:0:
256,192,56435,1,0,0:0:0:0:
256,192,56532,1,0,0:0:0:0:
256,192,56629,1,4,0:0:0:0:
256,192,57403,5,0,0:0:0:0:
256,192,57500,1,0,0:0:0:0:
256,192,57596,1,8,0:0:0:0:
256,192,57693,1,0,0:0:0:0:
256,192,57790,1,0,0:0:0:0:
256,192,57887,1,0,0:0:0:0:
256,192,57983,1,8,0:0:0:0:
256,192,58080,1,0,0:0:0:0:
256,192,58177,1,0,0:0:0:0:
256,192,58274,1,0,0:0:0:0:
256,192,58371,1,8,0:0:0:0:
256,192,58467,1,0,0:0:0:0:
256,192,58564,1,0,0:0:0:0:
256,192,58661,1,0,0:0:0:0:
256,192,58758,1,8,0:0:0:0:
256,192,58854,1,8,0:0:0:0:
256,192,58951,1,0,0:0:0:0:
256,192,59048,1,0,0:0:0:0:
256,192,59145,1,8,0:0:0:0:
256,192,59242,1,0,0:0:0:0:
256,192,59338,1,0,0:0:0:0:
256,192,59435,1,0,0:0:0:0:
256,192,59532,1,8,0:0:0:0:
256,192,59629,1,0,0:0:0:0:
256,192,59725,1,0,0:0:0:0:
256,192,59822,1,0,0:0:0:0:
256,192,59919,1,8,0:0:0:0:
256,192,60016,1,0,0:0:0:0:
256,192,60112,1,0,0:0:0:0:
256,192,60209,1,0,0:0:0:0:
256,192,60306,1,8,0:0:0:0:
256,192,60403,1,8,0:0:0:0:
256,192,60500,1,0,0:0:0:0:
256,192,60596,1,8,0:0:0:0:
256,192,60693,1,0,0:0:0:0:
256,192,60790,1,0,0:0:0:0:
256,192,60887,1,8,0:0:0:0:
256,192,60983,1,0,0:0:0:0:
256,192,61080,1,0,0:0:0:0:
256,192,61177,1,8,0:0:0:0:
256,192,61274,1,8,0:0:0:0:
256,192,61371,1,0,0:0:0:0:
256,192,61467,1,8,0:0:0:0:
256,192,61564,1,0,0:0:0:0:
256,192,61661,1,8,0:0:0:0:
256,184,61758,1,0,0:0:0:0:
256,184,61854,1,8,0:0:0:0:
256,184,61951,1,0,0:0:0:0:
256,192,62048,1,8,0:0:0:0:
256,192,62145,1,8,0:0:0:0:
256,192,62242,1,0,0:0:0:0:
256,192,62338,1,0,0:0:0:0:
256,192,62435,1,8,0:0:0:0:
256,192,62532,1,8,0:0:0:0:
256,192,62629,1,0,0:0:0:0:
256,192,62725,1,0,0:0:0:0:
256,192,62822,1,8,0:0:0:0:
256,192,62919,1,8,0:0:0:0:
256,192,63016,1,0,0:0:0:0:
256,192,63112,1,0,0:0:0:0:
256,192,63209,1,8,0:0:0:0:
256,192,63306,1,8,0:0:0:0:
256,192,63403,1,8,0:0:0:0:
256,192,63500,1,8,0:0:0:0:
256,192,63596,5,0,0:0:0:0:
256,192,63693,1,0,0:0:0:0:
256,192,63789,1,8,0:0:0:0:
256,192,63886,1,0,0:0:0:0:
256,192,63983,1,0,0:0:0:0:
256,192,64080,1,0,0:0:0:0:
256,192,64176,1,8,0:0:0:0:
256,192,64273,1,0,0:0:0:0:
256,192,64370,1,0,0:0:0:0:
256,192,64467,1,0,0:0:0:0:
256,192,64564,1,8,0:0:0:0:
256,192,64660,1,0,0:0:0:0:
256,192,64757,1,0,0:0:0:0:
256,192,64854,1,0,0:0:0:0:
256,192,64951,1,8,0:0:0:0:
256,192,65047,1,8,0:0:0:0:
256,192,65144,1,0,0:0:0:0:
256,192,65241,1,0,0:0:0:0:
256,192,65338,1,8,0:0:0:0:
256,192,65435,1,0,0:0:0:0:
256,192,65531,1,0,0:0:0:0:
256,192,65628,1,0,0:0:0:0:
256,192,65725,1,8,0:0:0:0:
256,192,65822,1,0,0:0:0:0:
256,192,65918,1,0,0:0:0:0:
256,192,66015,1,0,0:0:0:0:
256,192,66112,1,8,0:0:0:0:
256,192,66209,1,0,0:0:0:0:
256,192,66305,1,0,0:0:0:0:
256,192,66402,1,0,0:0:0:0:
256,192,66499,1,8,0:0:0:0:
256,192,66596,1,8,0:0:0:0:
256,192,66693,1,0,0:0:0:0:
256,192,66789,1,8,0:0:0:0:
256,192,66886,1,0,0:0:0:0:
256,192,66983,1,0,0:0:0:0:
256,192,67080,1,8,0:0:0:0:
256,192,67176,1,0,0:0:0:0:
256,192,67273,1,0,0:0:0:0:
256,192,67370,1,8,0:0:0:0:
256,192,67467,1,8,0:0:0:0:
256,192,67564,1,0,0:0:0:0:
256,192,67660,1,8,0:0:0:0:
256,192,67757,1,0,0:0:0:0:
256,192,67854,1,8,0:0:0:0:
256,184,67951,1,0,0:0:0:0:
256,184,68047,1,8,0:0:0:0:
256,184,68144,1,0,0:0:0:0:
256,192,68241,1,8,0:0:0:0:
256,192,68338,1,8,0:0:0:0:
256,192,68435,1,0,0:0:0:0:
256,192,68531,1,0,0:0:0:0:
256,192,68628,1,8,0:0:0:0:
256,192,68725,1,8,0:0:0:0:
256,192,68822,1,0,0:0:0:0:
256,192,68918,1,0,0:0:0:0:
256,192,69015,1,8,0:0:0:0:
256,192,69112,1,8,0:0:0:0:
256,192,69209,1,0,0:0:0:0:
256,192,69305,1,0,0:0:0:0:
256,192,69402,1,8,0:0:0:0:
256,192,69499,1,8,0:0:0:0:
256,192,69596,1,8,0:0:0:0:
256,192,69693,1,8,0:0:0:0:
256,192,69790,5,0,0:0:0:0:
256,192,69887,1,0,0:0:0:0:
256,192,69983,1,8,0:0:0:0:
256,192,70080,1,0,0:0:0:0:
256,192,70177,1,0,0:0:0:0:
256,192,70274,1,0,0:0:0:0:
256,192,70370,1,8,0:0:0:0:
256,192,70467,1,0,0:0:0:0:
256,192,70564,1,0,0:0:0:0:
256,192,70661,1,0,0:0:0:0:
256,192,70758,1,8,0:0:0:0:
256,192,70854,1,0,0:0:0:0:
256,192,70951,1,0,0:0:0:0:
256,192,71048,1,0,0:0:0:0:
256,192,71145,1,8,0:0:0:0:
256,192,71241,1,8,0:0:0:0:
256,192,71338,1,0,0:0:0:0:
256,192,71435,1,0,0:0:0:0:
256,192,71532,1,8,0:0:0:0:
256,192,71629,1,0,0:0:0:0:
256,192,71725,1,0,0:0:0:0:
256,192,71822,1,0,0:0:0:0:
256,192,71919,1,8,0:0:0:0:
256,192,72016,1,0,0:0:0:0:
256,192,72112,1,0,0:0:0:0:
256,192,72209,1,0,0:0:0:0:
256,192,72306,1,8,0:0:0:0:
256,192,72403,1,0,0:0:0:0:
256,192,72499,1,0,0:0:0:0:
256,192,72596,1,0,0:0:0:0:
256,192,72693,1,8,0:0:0:0:
256,192,72790,1,8,0:0:0:0:
256,192,72887,1,0,0:0:0:0:
256,192,72983,1,8,0:0:0:0:
256,192,73080,1,0,0:0:0:0:
256,192,73177,1,0,0:0:0:0:
256,192,73274,1,8,0:0:0:0:
256,192,73370,1,0,0:0:0:0:
256,192,73467,1,0,0:0:0:0:
256,192,73564,1,8,0:0:0:0:
256,192,73661,1,8,0:0:0:0:
256,192,73758,1,0,0:0:0:0:
256,192,73854,1,8,0:0:0:0:
256,192,73951,1,0,0:0:0:0:
256,192,74048,1,8,0:0:0:0:
256,184,74145,1,0,0:0:0:0:
256,184,74241,1,8,0:0:0:0:
256,184,74338,1,0,0:0:0:0:
256,192,74435,1,8,0:0:0:0:
256,192,74532,1,8,0:0:0:0:
256,192,74629,1,0,0:0:0:0:
256,192,74725,1,0,0:0:0:0:
256,192,74822,1,8,0:0:0:0:
256,192,74919,1,8,0:0:0:0:
256,192,75016,1,0,0:0:0:0:
256,192,75112,1,0,0:0:0:0:
256,192,75209,1,8,0:0:0:0:
256,192,75306,1,8,0:0:0:0:
256,192,75403,1,0,0:0:0:0:
256,192,75499,1,0,0:0:0:0:
256,192,75596,1,8,0:0:0:0:
256,192,75693,1,8,0:0:0:0:
256,192,75790,1,8,0:0:0:0:
256,192,75887,1,8,0:0:0:0:
256,192,75983,5,0,0:0:0:0:
256,192,76080,1,0,0:0:0:0:
256,192,76176,1,8,0:0:0:0:
256,192,76273,1,0,0:0:0:0:
256,192,76370,1,0,0:0:0:0:
256,192,76467,1,0,0:0:0:0:
256,192,76563,1,8,0:0:0:0:
256,192,76660,1,0,0:0:0:0:
256,192,76757,1,0,0:0:0:0:
256,192,76854,1,0,0:0:0:0:
256,192,76951,1,8,0:0:0:0:
256,192,77047,1,0,0:0:0:0:
256,192,77144,1,0,0:0:0:0:
256,192,77241,1,0,0:0:0:0:
256,192,77338,1,8,0:0:0:0:
256,192,77434,1,8,0:0:0:0:
256,192,77531,1,0,0:0:0:0:
256,192,77628,1,0,0:0:0:0:
256,192,77725,1,8,0:0:0:0:
256,192,77822,1,0,0:0:0:0:
256,192,77918,1,0,0:0:0:0:
256,192,78015,1,0,0:0:0:0:
256,192,78112,1,8,0:0:0:0:
256,192,78209,1,0,0:0:0:0:
256,192,78305,1,0,0:0:0:0:
256,192,78402,1,0,0:0:0:0:
256,192,78499,1,8,0:0:0:0:
256,192,78596,1,0,0:0:0:0:
256,192,78692,1,0,0:0:0:0:
256,192,78789,1,0,0:0:0:0:
256,192,78886,1,8,0:0:0:0:
256,192,78983,1,8,0:0:0:0:
256,192,79080,1,0,0:0:0:0:
256,192,79176,1,8,0:0:0:0:
256,192,79273,1,0,0:0:0:0:
256,192,79370,1,0,0:0:0:0:
256,192,79467,1,8,0:0:0:0:
256,192,79563,1,0,0:0:0:0:
256,192,79660,1,0,0:0:0:0:
256,192,79757,1,8,0:0:0:0:
256,192,79854,1,8,0:0:0:0:
256,192,79951,1,0,0:0:0:0:
256,192,80047,1,8,0:0:0:0:
256,192,80144,1,0,0:0:0:0:
256,192,80241,1,8,0:0:0:0:
256,184,80338,1,0,0:0:0:0:
256,184,80434,1,8,0:0:0:0:
256,184,80531,1,0,0:0:0:0:
256,192,80628,1,8,0:0:0:0:
256,192,80725,1,8,0:0:0:0:
256,192,80822,1,0,0:0:0:0:
256,192,80918,1,0,0:0:0:0:
256,192,81015,5,8,0:0:0:0:
256,192,81112,1,8,0:0:0:0:
256,192,81209,1,0,0:0:0:0:
256,192,81305,1,0,0:0:0:0:
256,192,81402,1,8,0:0:0:0:
256,192,81499,1,8,0:0:0:0:
256,192,81596,1,0,0:0:0:0:
256,192,81692,1,0,0:0:0:0:
256,192,81789,1,8,0:0:0:0:
256,192,81886,1,8,0:0:0:0:
256,192,81983,1,8,0:0:0:0:
256,192,82080,1,8,0:0:0:0:
257,192,82177,5,0,0:0:0:0:
253,189,82273,1,0,0:0:0:0:
253,189,82370,1,8,0:0:0:0:
253,189,82467,1,0,0:0:0:0:
257,192,82564,1,8,0:0:0:0:
257,192,82660,1,0,0:0:0:0:
257,192,82757,1,0,0:0:0:0:
257,192,82854,1,8,0:0:0:0:
264,187,82951,1,0,0:0:0:0:
257,192,83047,1,8,0:0:0:0:
257,192,83144,1,0,0:0:0:0:
259,189,83241,1,0,0:0:0:0:
261,195,83338,1,8,0:0:0:0:
259,192,83435,1,0,0:0:0:0:
257,192,83531,1,0,0:0:0:0:
257,192,83628,1,8,0:0:0:0:
257,192,83725,1,8,0:0:0:0:
253,189,83822,1,0,0:0:0:0:
253,189,83919,1,8,0:0:0:0:
253,189,84016,1,0,0:0:0:0:
257,192,84113,1,8,0:0:0:0:
257,192,84209,1,0,0:0:0:0:
257,192,84306,1,0,0:0:0:0:
257,192,84403,1,8,0:0:0:0:
264,187,84500,1,0,0:0:0:0:
257,192,84596,1,8,0:0:0:0:
257,192,84693,1,0,0:0:0:0:
259,189,84790,1,0,0:0:0:0:
261,195,84887,1,8,0:0:0:0:
259,192,84984,1,8,0:0:0:0:
257,192,85080,1,8,0:0:0:0:
257,192,85177,1,8,0:0:0:0:
257,192,85274,1,0,0:0:0:0:
257,192,85371,1,0,0:0:0:0:
253,189,85467,1,8,0:0:0:0:
253,189,85564,1,0,0:0:0:0:
257,192,85661,1,8,0:0:0:0:
257,192,85757,1,0,0:0:0:0:
257,192,85854,1,0,0:0:0:0:
257,192,85951,1,8,0:0:0:0:
264,187,86048,1,0,0:0:0:0:
257,192,86144,1,8,0:0:0:0:
257,192,86241,1,0,0:0:0:0:
259,189,86338,1,0,0:0:0:0:
261,195,86435,1,8,0:0:0:0:
259,192,86532,1,0,0:0:0:0:
257,192,86628,1,0,0:0:0:0:
257,192,86725,1,8,0:0:0:0:
257,192,86822,1,8,0:0:0:0:
253,189,86919,1,0,0:0:0:0:
253,189,87016,1,8,0:0:0:0:
253,189,87113,1,0,0:0:0:0:
257,192,87210,5,8,0:0:0:0:
257,192,87306,1,0,0:0:0:0:
257,192,87403,1,0,0:0:0:0:
257,192,87500,1,8,0:0:0:0:
264,187,87597,1,0,0:0:0:0:
257,192,87693,1,8,0:0:0:0:
257,192,87790,1,0,0:0:0:0:
259,189,87887,1,0,0:0:0:0:
261,195,87984,1,8,0:0:0:0:
259,192,88081,1,8,0:0:0:0:
257,192,88177,1,0,0:0:0:0:
257,192,88274,1,0,0:0:0:0:
257,192,88370,5,0,0:0:0:0:
253,189,88466,1,0,0:0:0:0:
253,189,88563,1,8,0:0:0:0:
253,189,88660,1,0,0:0:0:0:
257,192,88757,1,8,0:0:0:0:
257,192,88853,1,0,0:0:0:0:
257,192,88950,1,0,0:0:0:0:
257,192,89047,1,8,0:0:0:0:
264,187,89144,1,0,0:0:0:0:
257,192,89240,1,8,0:0:0:0:
257,192,89337,1,0,0:0:0:0:
259,189,89434,1,0,0:0:0:0:
261,195,89531,1,8,0:0:0:0:
259,192,89628,1,0,0:0:0:0:
257,192,89724,1,0,0:0:0:0:
257,192,89821,1,8,0:0:0:0:
257,192,89918,1,8,0:0:0:0:
253,189,90015,1,0,0:0:0:0:
253,189,90112,1,8,0:0:0:0:
253,189,90209,1,0,0:0:0:0:
257,192,90306,1,8,0:0:0:0:
257,192,90402,1,0,0:0:0:0:
257,192,90499,1,0,0:0:0:0:
257,192,90596,1,8,0:0:0:0:
264,187,90693,1,0,0:0:0:0:
257,192,90789,1,8,0:0:0:0:
257,192,90886,1,0,0:0:0:0:
259,189,90983,1,0,0:0:0:0:
261,195,91080,1,8,0:0:0:0:
259,192,91177,1,8,0:0:0:0:
257,192,91273,1,8,0:0:0:0:
257,192,91370,1,8,0:0:0:0:
257,192,91467,1,0,0:0:0:0:
257,192,91564,1,0,0:0:0:0:
253,189,91660,1,8,0:0:0:0:
253,189,91757,1,0,0:0:0:0:
257,192,91854,1,8,0:0:0:0:
257,192,91950,1,0,0:0:0:0:
257,192,92047,1,0,0:0:0:0:
257,192,92144,1,8,0:0:0:0:
264,187,92241,1,0,0:0:0:0:
257,192,92337,1,8,0:0:0:0:
257,192,92434,1,0,0:0:0:0:
259,189,92531,1,0,0:0:0:0:
261,195,92628,1,8,0:0:0:0:
259,192,92725,1,0,0:0:0:0:
257,192,92821,1,0,0:0:0:0:
257,192,92918,1,8,0:0:0:0:
257,192,93015,1,8,0:0:0:0:
253,189,93112,1,0,0:0:0:0:
253,189,93209,1,8,0:0:0:0:
253,189,93306,1,0,0:0:0:0:
257,192,93403,5,8,0:0:0:0:
257,192,93499,1,0,0:0:0:0:
257,192,93596,1,0,0:0:0:0:
257,192,93693,1,8,0:0:0:0:
264,187,93790,1,0,0:0:0:0:
257,192,93886,1,8,0:0:0:0:
257,192,93983,1,0,0:0:0:0:
259,189,94080,1,0,0:0:0:0:
261,195,94177,1,8,0:0:0:0:
259,192,94274,1,8,0:0:0:0:
257,192,94370,1,0,0:0:0:0:
257,192,94467,1,0,0:0:0:0:
257,192,94563,1,0,0:0:0:0:
256,192,94758,1,0,0:0:0:0:
257,192,94952,1,8,0:0:0:0:
256,192,95048,1,8,0:0:0:0:
261,195,95145,1,0,0:0:0:0:
257,192,95339,1,0,0:0:0:0:
257,192,95532,1,0,0:0:0:0:
248,200,95629,1,0,0:0:0:0:
256,192,95726,1,8,0:0:0:0:
257,192,95823,1,8,0:0:0:0:
257,192,95919,1,0,0:0:0:0:
256,192,96113,1,0,0:0:0:0:
257,192,96307,1,0,0:0:0:0:
256,184,96403,1,0,0:0:0:0:
257,192,96500,1,8,0:0:0:0:
256,192,96597,1,8,0:0:0:0:
256,192,96694,1,0,0:0:0:0:
257,192,96887,1,0,0:0:0:0:
256,192,97081,1,0,0:0:0:0:
257,192,97274,1,8,0:0:0:0:
257,192,97371,1,8,0:0:0:0:
257,192,97468,1,0,0:0:0:0:
248,200,97565,1,0,0:0:0:0:
256,192,97661,1,0,0:0:0:0:
257,192,97855,1,0,0:0:0:0:
256,192,98048,1,8,0:0:0:0:
257,192,98145,1,8,0:0:0:0:
257,192,98242,1,0,0:0:0:0:
257,192,98436,1,0,0:0:0:0:
256,192,98629,1,0,0:0:0:0:
256,200,98726,1,0,0:0:0:0:
257,192,98823,1,8,0:0:0:0:
256,192,98919,1,8,0:0:0:0:
256,192,99016,1,0,0:0:0:0:
256,192,99209,1,0,0:0:0:0:
256,192,99306,1,0,0:0:0:0:
256,192,99499,1,0,0:0:0:0:
256,192,99596,1,0,0:0:0:0:
256,192,99789,1,0,0:0:0:0:
256,192,99886,1,0,0:0:0:0:
256,192,99983,1,0,0:0:0:0:
256,192,100080,1,8,0:0:0:0:
256,192,100177,1,8,0:0:0:0:
256,192,100273,1,0,0:0:0:0:
256,192,100370,1,0,0:0:0:0:
256,192,100467,1,8,0:0:0:0:
256,192,100564,1,8,0:0:0:0:
256,192,100660,1,0,0:0:0:0:
256,192,100757,1,0,0:0:0:0:
256,192,100951,1,0,0:0:0:0:
257,192,101145,1,8,0:0:0:0:
256,192,101241,1,8,0:0:0:0:
261,195,101338,1,0,0:0:0:0:
257,192,101532,1,0,0:0:0:0:
257,192,101725,1,0,0:0:0:0:
248,200,101822,1,0,0:0:0:0:
256,192,101919,1,8,0:0:0:0:
257,192,102016,1,8,0:0:0:0:
257,192,102112,1,0,0:0:0:0:
256,192,102306,1,0,0:0:0:0:
257,192,102500,1,0,0:0:0:0:
256,184,102596,1,0,0:0:0:0:
257,192,102693,1,8,0:0:0:0:
256,192,102790,1,8,0:0:0:0:
256,192,102887,1,0,0:0:0:0:
257,192,103080,1,0,0:0:0:0:
256,192,103274,1,0,0:0:0:0:
257,192,103467,1,8,0:0:0:0:
257,192,103564,1,8,0:0:0:0:
257,192,103661,1,0,0:0:0:0:
248,200,103758,1,0,0:0:0:0:
256,192,103854,1,0,0:0:0:0:
257,192,104048,1,0,0:0:0:0:
256,192,104241,1,8,0:0:0:0:
257,192,104338,1,8,0:0:0:0:
257,192,104435,1,0,0:0:0:0:
257,192,104629,1,0,0:0:0:0:
256,192,104822,1,0,0:0:0:0:
256,200,104919,1,0,0:0:0:0:
257,192,105016,1,8,0:0:0:0:
256,192,105112,1,8,0:0:0:0:
256,192,105209,1,0,0:0:0:0:
256,192,105403,1,0,0:0:0:0:
256,192,105500,1,8,0:0:0:0:
256,192,105597,1,8,0:0:0:0:
256,192,105694,1,8,0:0:0:0:
256,192,105790,1,0,0:0:0:0:
256,192,105887,1,8,0:0:0:0:
256,192,105984,1,8,0:0:0:0:
256,192,106081,1,8,0:0:0:0:
256,192,106178,1,0,0:0:0:0:
256,192,106274,1,8,0:0:0:0:
256,192,106371,1,8,0:0:0:0:
256,192,106468,1,0,0:0:0:0:
256,192,106565,1,8,0:0:0:0:
256,192,106661,1,8,0:0:0:0:
256,192,106758,1,0,0:0:0:0:
256,184,106855,1,0,0:0:0:0:
256,192,106952,5,8,0:0:0:0:
256,192,107048,1,8,0:0:0:0:
256,192,107145,1,0,0:0:0:0:
256,192,107242,1,0,0:0:0:0:
256,192,107339,5,8,0:0:0:0:
256,192,107435,1,8,0:0:0:0:
256,192,107532,1,0,0:0:0:0:
256,192,107629,1,0,0:0:0:0:
256,192,107726,5,8,0:0:0:0:
256,192,107822,1,8,0:0:0:0:
256,192,107919,1,0,0:0:0:0:
256,192,108016,1,0,0:0:0:0:
256,192,108113,1,0,0:0:0:0:
256,192,108500,1,0,0:0:0:0:
256,192,108597,1,8,0:0:0:0:
256,192,108694,1,8,0:0:0:0:
256,192,108790,1,0,0:0:0:0:
256,192,108887,1,0,0:0:0:0:
256,192,108984,1,8,0:0:0:0:
256,192,109081,1,8,0:0:0:0:
256,192,109178,1,0,0:0:0:0:
256,192,109274,1,0,0:0:0:0:
256,192,109371,1,8,0:0:0:0:
256,192,109468,1,8,0:0:0:0:
256,192,109565,1,0,0:0:0:0:
256,192,109661,1,8,0:0:0:0:
256,192,110048,1,0,0:0:0:0:
256,192,110145,1,0,0:0:0:0:
256,192,110242,1,8,0:0:0:0:
256,192,110339,1,8,0:0:0:0:
256,192,110436,1,0,0:0:0:0:
256,192,110532,1,0,0:0:0:0:
256,192,110629,1,8,0:0:0:0:
256,192,110726,1,8,0:0:0:0:
256,192,110823,1,0,0:0:0:0:
256,192,110919,1,8,0:0:0:0:
256,192,111016,1,8,0:0:0:0:
256,192,111113,1,0,0:0:0:0:
256,192,111210,1,8,0:0:0:0:
256,192,111307,1,8,0:0:0:0:
256,192,111403,1,0,0:0:0:0:
256,192,111500,1,0,0:0:0:0:
256,192,111597,1,8,0:0:0:0:
256,192,111694,1,8,0:0:0:0:
256,192,111790,1,0,0:0:0:0:
256,192,111887,1,0,0:0:0:0:
256,192,111984,1,8,0:0:0:0:
256,192,112081,1,8,0:0:0:0:
256,192,112178,1,0,0:0:0:0:
256,192,112274,1,0,0:0:0:0:
256,192,112371,1,8,0:0:0:0:
256,192,112468,1,8,0:0:0:0:
256,192,112565,1,0,0:0:0:0:
256,192,112661,1,8,0:0:0:0:
256,192,112758,1,8,0:0:0:0:
256,192,112855,1,8,0:0:0:0:
256,192,112952,1,0,0:0:0:0:
256,192,113048,1,0,0:0:0:0:
256,192,113145,1,12,0:0:0:0:
256,192,113532,1,8,0:0:0:0:
256,192,113919,1,12,0:0:0:0:
256,192,114307,1,8,0:0:0:0:
256,192,114694,1,12,0:0:0:0:
256,192,115081,1,8,0:0:0:0:
256,192,115468,1,12,0:0:0:0:
256,192,115855,1,8,0:0:0:0:
256,192,116242,1,12,0:0:0:0:
256,192,117790,5,0,0:0:0:0:
256,192,117887,1,0,0:0:0:0:
256,192,117984,1,0,0:0:0:0:
256,192,118081,1,0,0:0:0:0:
256,192,118178,1,8,0:0:0:0:
256,184,118274,1,8,0:0:0:0:
256,192,118371,1,0,0:0:0:0:
256,192,118468,1,0,0:0:0:0:
256,192,118565,1,8,0:0:0:0:
256,192,119338,5,0,0:0:0:0:
256,192,119435,1,0,0:0:0:0:
256,192,119531,1,8,0:0:0:0:
256,192,119628,1,0,0:0:0:0:
256,192,119725,1,0,0:0:0:0:
256,192,119822,1,0,0:0:0:0:
256,192,119918,1,8,0:0:0:0:
256,192,120015,1,0,0:0:0:0:
256,192,120112,1,0,0:0:0:0:
256,192,120209,1,0,0:0:0:0:
256,192,120306,1,8,0:0:0:0:
256,192,120402,1,0,0:0:0:0:
256,192,120499,1,0,0:0:0:0:
256,192,120596,1,0,0:0:0:0:
256,192,120693,1,8,0:0:0:0:
256,192,120789,1,8,0:0:0:0:
256,192,120886,1,0,0:0:0:0:
256,192,120983,1,0,0:0:0:0:
256,192,121080,1,8,0:0:0:0:
256,192,121177,1,0,0:0:0:0:
256,192,121273,1,0,0:0:0:0:
256,192,121370,1,0,0:0:0:0:
256,192,121467,1,8,0:0:0:0:
256,192,121564,1,0,0:0:0:0:
256,192,121660,1,0,0:0:0:0:
256,192,121757,1,0,0:0:0:0:
256,192,121854,1,8,0:0:0:0:
256,192,121951,1,0,0:0:0:0:
256,192,122047,1,0,0:0:0:0:
256,192,122144,1,0,0:0:0:0:
256,192,122241,1,8,0:0:0:0:
256,192,122338,1,8,0:0:0:0:
256,192,122435,1,0,0:0:0:0:
256,192,122531,1,8,0:0:0:0:
256,192,122628,1,0,0:0:0:0:
256,192,122725,1,0,0:0:0:0:
256,192,122822,1,8,0:0:0:0:
256,192,122918,1,0,0:0:0:0:
256,192,123015,1,0,0:0:0:0:
256,192,123112,1,8,0:0:0:0:
256,192,123209,1,8,0:0:0:0:
256,192,123306,1,0,0:0:0:0:
256,192,123402,1,8,0:0:0:0:
256,192,123499,1,0,0:0:0:0:
256,192,123596,1,8,0:0:0:0:
256,184,123693,1,0,0:0:0:0:
256,184,123789,1,8,0:0:0:0:
256,184,123886,1,0,0:0:0:0:
256,192,123983,1,8,0:0:0:0:
256,192,124080,1,8,0:0:0:0:
256,192,124177,1,0,0:0:0:0:
256,192,124273,1,0,0:0:0:0:
256,192,124370,1,8,0:0:0:0:
256,192,124467,1,8,0:0:0:0:
256,192,124564,1,0,0:0:0:0:
256,192,124660,1,0,0:0:0:0:
256,192,124757,1,8,0:0:0:0:
256,192,124854,1,8,0:0:0:0:
256,192,124951,1,0,0:0:0:0:
256,192,125047,1,0,0:0:0:0:
256,192,125144,1,8,0:0:0:0:
256,192,125241,1,8,0:0:0:0:
256,192,125338,1,8,0:0:0:0:
256,192,125435,1,8,0:0:0:0:
256,192,125531,5,0,0:0:0:0:
256,192,125628,1,0,0:0:0:0:
256,192,125724,1,8,0:0:0:0:
256,192,125821,1,0,0:0:0:0:
256,192,125918,1,0,0:0:0:0:
256,192,126015,1,0,0:0:0:0:
256,192,126111,1,8,0:0:0:0:
256,192,126208,1,0,0:0:0:0:
256,192,126305,1,0,0:0:0:0:
256,192,126402,1,0,0:0:0:0:
256,192,126499,1,8,0:0:0:0:
256,192,126595,1,0,0:0:0:0:
256,192,126692,1,0,0:0:0:0:
256,192,126789,1,0,0:0:0:0:
256,192,126886,1,8,0:0:0:0:
256,192,126982,1,8,0:0:0:0:
256,192,127079,1,0,0:0:0:0:
256,192,127176,1,0,0:0:0:0:
256,192,127273,1,8,0:0:0:0:
256,192,127370,1,0,0:0:0:0:
256,192,127466,1,0,0:0:0:0:
256,192,127563,1,0,0:0:0:0:
256,192,127660,1,8,0:0:0:0:
256,192,127757,1,0,0:0:0:0:
256,192,127853,1,0,0:0:0:0:
256,192,127950,1,0,0:0:0:0:
256,192,128047,1,8,0:0:0:0:
256,192,128144,1,0,0:0:0:0:
256,192,128240,1,0,0:0:0:0:
256,192,128337,1,0,0:0:0:0:
256,192,128434,1,8,0:0:0:0:
256,192,128531,1,8,0:0:0:0:
256,192,128628,1,0,0:0:0:0:
256,192,128724,1,8,0:0:0:0:
256,192,128821,1,0,0:0:0:0:
256,192,128918,1,0,0:0:0:0:
256,192,129015,1,8,0:0:0:0:
256,192,129111,1,0,0:0:0:0:
256,192,129208,1,0,0:0:0:0:
256,192,129305,1,8,0:0:0:0:
256,192,129402,1,8,0:0:0:0:
256,192,129499,1,0,0:0:0:0:
256,192,129595,1,8,0:0:0:0:
256,192,129692,1,0,0:0:0:0:
256,192,129789,1,8,0:0:0:0:
256,184,129886,1,0,0:0:0:0:
256,184,129982,1,8,0:0:0:0:
256,184,130079,1,0,0:0:0:0:
256,192,130176,1,8,0:0:0:0:
256,192,130273,1,8,0:0:0:0:
256,192,130370,1,0,0:0:0:0:
256,192,130466,1,0,0:0:0:0:
256,192,130563,1,8,0:0:0:0:
256,192,130660,1,8,0:0:0:0:
256,192,130757,1,0,0:0:0:0:
256,192,130853,1,0,0:0:0:0:
256,192,130950,1,8,0:0:0:0:
256,192,131047,1,8,0:0:0:0:
256,192,131144,1,0,0:0:0:0:
256,192,131240,1,0,0:0:0:0:
256,192,131337,1,8,0:0:0:0:
256,192,131434,1,8,0:0:0:0:
256,192,131531,1,8,0:0:0:0:
256,192,131628,1,8,0:0:0:0:
256,192,131725,5,0,0:0:0:0:
256,192,131822,1,0,0:0:0:0:
256,192,131918,1,8,0:0:0:0:
256,192,132015,1,0,0:0:0:0:
256,192,132112,1,0,0:0:0:0:
256,192,132209,1,0,0:0:0:0:
256,192,132305,1,8,0:0:0:0:
256,192,132402,1,0,0:0:0:0:
256,192,132499,1,0,0:0:0:0:
256,192,132596,1,0,0:0:0:0:
256,192,132693,1,8,0:0:0:0:
256,192,132789,1,0,0:0:0:0:
256,192,132886,1,0,0:0:0:0:
256,192,132983,1,0,0:0:0:0:
256,192,133080,1,8,0:0:0:0:
256,192,133176,1,8,0:0:0:0:
256,192,133273,1,0,0:0:0:0:
256,192,133370,1,0,0:0:0:0:
256,192,133467,1,8,0:0:0:0:
256,192,133564,1,0,0:0:0:0:
256,192,133660,1,0,0:0:0:0:
256,192,133757,1,0,0:0:0:0:
256,192,133854,1,8,0:0:0:0:
256,192,133951,1,0,0:0:0:0:
256,192,134047,1,0,0:0:0:0:
256,192,134144,1,0,0:0:0:0:
256,192,134241,1,8,0:0:0:0:
256,192,134338,1,0,0:0:0:0:
256,192,134434,1,0,0:0:0:0:
256,192,134531,1,0,0:0:0:0:
256,192,134628,1,8,0:0:0:0:
256,192,134725,1,8,0:0:0:0:
256,192,134822,1,0,0:0:0:0:
256,192,134918,1,8,0:0:0:0:
256,192,135015,1,0,0:0:0:0:
256,192,135112,1,0,0:0:0:0:
256,192,135209,1,8,0:0:0:0:
256,192,135305,1,0,0:0:0:0:
256,192,135402,1,0,0:0:0:0:
256,192,135499,1,8,0:0:0:0:
256,192,135596,1,8,0:0:0:0:
256,192,135693,1,0,0:0:0:0:
256,192,135789,1,8,0:0:0:0:
256,192,135886,1,0,0:0:0:0:
256,192,135983,1,8,0:0:0:0:
256,184,136080,1,0,0:0:0:0:
256,184,136176,1,8,0:0:0:0:
256,184,136273,1,0,0:0:0:0:
256,192,136370,1,8,0:0:0:0:
256,192,136467,1,8,0:0:0:0:
256,192,136564,1,0,0:0:0:0:
256,192,136660,1,0,0:0:0:0:
256,192,136757,1,8,0:0:0:0:
256,192,136854,1,8,0:0:0:0:
256,192,136951,1,0,0:0:0:0:
256,192,137047,1,0,0:0:0:0:
256,192,137144,1,8,0:0:0:0:
256,192,137241,1,8,0:0:0:0:
256,192,137338,1,0,0:0:0:0:
256,192,137434,1,0,0:0:0:0:
256,192,137531,1,8,0:0:0:0:
256,192,137628,1,8,0:0:0:0:
256,192,137725,1,8,0:0:0:0:
256,192,137822,1,8,0:0:0:0:
256,192,137918,5,0,0:0:0:0:
256,192,138015,1,0,0:0:0:0:
256,192,138111,1,8,0:0:0:0:
256,192,138208,1,0,0:0:0:0:
256,192,138305,1,0,0:0:0:0:
256,192,138402,1,0,0:0:0:0:
256,192,138498,1,8,0:0:0:0:
256,192,138595,1,0,0:0:0:0:
256,192,138692,1,0,0:0:0:0:
256,192,138789,1,0,0:0:0:0:
256,192,138886,1,8,0:0:0:0:
256,192,138982,1,0,0:0:0:0:
256,192,139079,1,0,0:0:0:0:
256,192,139176,1,0,0:0:0:0:
256,192,139273,1,8,0:0:0:0:
256,192,139369,1,8,0:0:0:0:
256,192,139466,1,0,0:0:0:0:
256,192,139563,1,0,0:0:0:0:
256,192,139660,1,8,0:0:0:0:
256,192,139757,1,0,0:0:0:0:
256,192,139853,1,0,0:0:0:0:
256,192,139950,1,0,0:0:0:0:
256,192,140047,1,8,0:0:0:0:
256,192,140144,1,0,0:0:0:0:
256,192,140240,1,0,0:0:0:0:
256,192,140337,1,0,0:0:0:0:
256,192,140434,1,8,0:0:0:0:
256,192,140531,1,0,0:0:0:0:
256,192,140627,1,0,0:0:0:0:
256,192,140724,1,0,0:0:0:0:
256,192,140821,1,8,0:0:0:0:
256,192,140918,1,8,0:0:0:0:
256,192,141015,1,0,0:0:0:0:
256,192,141111,1,8,0:0:0:0:
256,192,141208,1,0,0:0:0:0:
256,192,141305,1,0,0:0:0:0:
256,192,141402,1,8,0:0:0:0:
256,192,141498,1,0,0:0:0:0:
256,192,141595,1,0,0:0:0:0:
256,192,141692,1,8,0:0:0:0:
256,192,141789,1,8,0:0:0:0:
256,192,141886,1,0,0:0:0:0:
256,192,141982,1,8,0:0:0:0:
256,192,142079,1,0,0:0:0:0:
256,192,142176,1,8,0:0:0:0:
256,184,142273,1,0,0:0:0:0:
256,184,142369,1,8,0:0:0:0:
256,184,142466,1,0,0:0:0:0:
256,192,142563,1,8,0:0:0:0:
256,192,142660,1,8,0:0:0:0:
256,192,142757,1,0,0:0:0:0:
256,192,142853,1,0,0:0:0:0:
256,192,142950,5,8,0:0:0:0:
256,192,143047,1,8,0:0:0:0:
256,192,143144,1,0,0:0:0:0:
256,192,143240,1,0,0:0:0:0:
256,192,143337,1,8,0:0:0:0:
256,192,143434,1,8,0:0:0:0:
256,192,143531,1,0,0:0:0:0:
256,192,143627,1,0,0:0:0:0:
256,192,143724,1,8,0:0:0:0:
256,192,143821,1,8,0:0:0:0:
256,192,143918,1,8,0:0:0:0:
256,192,144015,1,8,0:0:0:0:
257,192,144112,5,0,0:0:0:0:
253,189,144208,1,0,0:0:0:0:
253,189,144305,1,8,0:0:0:0:
253,189,144402,1,0,0:0:0:0:
257,192,144499,1,8,0:0:0:0:
257,192,144595,1,0,0:0:0:0:
257,192,144692,1,0,0:0:0:0:
257,192,144789,1,8,0:0:0:0:
264,187,144886,1,0,0:0:0:0:
257,192,144982,1,8,0:0:0:0:
257,192,145079,1,0,0:0:0:0:
259,189,145176,1,0,0:0:0:0:
261,195,145273,1,8,0:0:0:0:
259,192,145370,1,0,0:0:0:0:
257,192,145466,1,0,0:0:0:0:
257,192,145563,1,8,0:0:0:0:
257,192,145660,1,8,0:0:0:0:
253,189,145757,1,0,0:0:0:0:
253,189,145854,1,8,0:0:0:0:
253,189,145951,1,0,0:0:0:0:
257,192,146048,1,8,0:0:0:0:
257,192,146144,1,0,0:0:0:0:
257,192,146241,1,0,0:0:0:0:
257,192,146338,1,8,0:0:0:0:
264,187,146435,1,0,0:0:0:0:
257,192,146531,1,8,0:0:0:0:
257,192,146628,1,0,0:0:0:0:
259,189,146725,1,0,0:0:0:0:
261,195,146822,1,8,0:0:0:0:
259,192,146919,1,8,0:0:0:0:
257,192,147015,1,8,0:0:0:0:
257,192,147112,1,8,0:0:0:0:
257,192,147209,1,0,0:0:0:0:
257,192,147306,1,0,0:0:0:0:
253,189,147402,1,8,0:0:0:0:
253,189,147499,1,0,0:0:0:0:
257,192,147596,1,8,0:0:0:0:
257,192,147692,1,0,0:0:0:0:
257,192,147789,1,0,0:0:0:0:
257,192,147886,1,8,0:0:0:0:
264,187,147983,1,0,0:0:0:0:
257,192,148079,1,8,0:0:0:0:
257,192,148176,1,0,0:0:0:0:
259,189,148273,1,0,0:0:0:0:
261,195,148370,1,8,0:0:0:0:
259,192,148467,1,0,0:0:0:0:
257,192,148563,1,0,0:0:0:0:
257,192,148660,1,8,0:0:0:0:
257,192,148757,1,8,0:0:0:0:
253,189,148854,1,0,0:0:0:0:
253,189,148951,1,8,0:0:0:0:
253,189,149048,1,0,0:0:0:0:
257,192,149145,5,8,0:0:0:0:
257,192,149241,1,0,0:0:0:0:
257,192,149338,1,0,0:0:0:0:
257,192,149435,1,8,0:0:0:0:
264,187,149532,1,0,0:0:0:0:
257,192,149628,1,8,0:0:0:0:
257,192,149725,1,0,0:0:0:0:
259,189,149822,1,0,0:0:0:0:
261,195,149919,1,8,0:0:0:0:
259,192,150016,1,8,0:0:0:0:
257,192,150112,1,0,0:0:0:0:
257,192,150209,1,0,0:0:0:0:
257,192,150305,5,0,0:0:0:0:
253,189,150401,1,0,0:0:0:0:
253,189,150498,1,8,0:0:0:0:
253,189,150595,1,0,0:0:0:0:
257,192,150692,1,8,0:0:0:0:
257,192,150788,1,0,0:0:0:0:
257,192,150885,1,0,0:0:0:0:
257,192,150982,1,8,0:0:0:0:
264,187,151079,1,0,0:0:0:0:
257,192,151175,1,8,0:0:0:0:
257,192,151272,1,0,0:0:0:0:
259,189,151369,1,0,0:0:0:0:
261,195,151466,1,8,0:0:0:0:
259,192,151563,1,0,0:0:0:0:
257,192,151659,1,0,0:0:0:0:
257,192,151756,1,8,0:0:0:0:
257,192,151853,1,8,0:0:0:0:
253,189,151950,1,0,0:0:0:0:
253,189,152047,1,8,0:0:0:0:
253,189,152144,1,0,0:0:0:0:
257,192,152241,1,8,0:0:0:0:
257,192,152337,1,0,0:0:0:0:
257,192,152434,1,0,0:0:0:0:
257,192,152531,1,8,0:0:0:0:
264,187,152628,1,0,0:0:0:0:
257,192,152724,1,8,0:0:0:0:
257,192,152821,1,0,0:0:0:0:
259,189,152918,1,0,0:0:0:0:
261,195,153015,1,8,0:0:0:0:
259,192,153112,1,8,0:0:0:0:
257,192,153208,1,8,0:0:0:0:
257,192,153305,1,8,0:0:0:0:
257,192,153402,1,0,0:0:0:0:
257,192,153499,1,0,0:0:0:0:
253,189,153595,1,8,0:0:0:0:
253,189,153692,1,0,0:0:0:0:
257,192,153789,1,8,0:0:0:0:
257,192,153885,1,0,0:0:0:0:
257,192,153982,1,0,0:0:0:0:
257,192,154079,1,8,0:0:0:0:
264,187,154176,1,0,0:0:0:0:
257,192,154272,1,8,0:0:0:0:
257,192,154369,1,0,0:0:0:0:
259,189,154466,1,0,0:0:0:0:
261,195,154563,1,8,0:0:0:0:
259,192,154660,1,0,0:0:0:0:
257,192,154756,1,0,0:0:0:0:
257,192,154853,1,8,0:0:0:0:
257,192,154950,1,8,0:0:0:0:
253,189,155047,1,0,0:0:0:0:
253,189,155144,1,8,0:0:0:0:
253,189,155241,1,0,0:0:0:0:
257,192,155338,5,8,0:0:0:0:
257,192,155434,1,0,0:0:0:0:
257,192,155531,1,0,0:0:0:0:
257,192,155628,1,8,0:0:0:0:
264,187,155725,1,0,0:0:0:0:
257,192,155821,1,8,0:0:0:0:
257,192,155918,1,0,0:0:0:0:
259,189,156015,1,0,0:0:0:0:
261,195,156112,1,8,0:0:0:0:
259,192,156209,1,8,0:0:0:0:
257,192,156305,1,0,0:0:0:0:
257,192,156402,1,0,0:0:0:0:
257,192,156498,1,0,0:0:0:0:
257,192,156887,1,8,0:0:0:0:
257,192,157274,1,0,0:0:0:0:
257,192,157661,1,8,0:0:0:0:
257,192,157758,1,8,0:0:0:0:
257,192,157854,1,8,0:0:0:0:
257,192,157951,1,8,0:0:0:0:
256,192,158048,1,0,0:0:0:0:
257,192,158435,1,8,0:0:0:0:
257,192,158822,1,0,0:0:0:0:
257,192,158919,1,8,0:0:0:0:
256,192,159016,1,8,0:0:0:0:
257,192,159112,1,0,0:0:0:0:
256,192,159209,1,0,0:0:0:0:
256,192,159306,1,0,0:0:0:0:
257,192,159403,1,8,0:0:0:0:
257,192,159500,1,8,0:0:0:0:
257,192,159596,1,0,0:0:0:0:
256,192,159983,1,8,0:0:0:0:
256,192,160371,1,0,0:0:0:0:
256,192,160758,1,8,0:0:0:0:
256,192,160854,1,8,0:0:0:0:
256,192,160951,1,8,0:0:0:0:
256,192,161048,1,8,0:0:0:0:
256,192,161145,1,0,0:0:0:0:
256,192,161338,1,0,0:0:0:0:
256,192,161435,1,0,0:0:0:0:
256,192,161629,1,8,0:0:0:0:
256,192,161725,1,0,0:0:0:0:
256,192,161822,1,0,0:0:0:0:
256,192,161919,1,0,0:0:0:0:
256,192,162016,1,8,0:0:0:0:
256,192,162112,1,0,0:0:0:0:
256,192,162209,1,0,0:0:0:0:
256,192,162306,1,0,0:0:0:0:
256,192,162403,1,8,0:0:0:0:
256,192,162500,1,0,0:0:0:0:
256,192,162596,1,0,0:0:0:0:
256,192,162693,1,0,0:0:0:0:
256,192,163080,1,8,0:0:0:0:
256,192,163467,1,0,0:0:0:0:
256,192,163854,1,8,0:0:0:0:
256,192,163951,1,8,0:0:0:0:
256,192,164048,1,8,0:0:0:0:
256,192,164145,1,8,0:0:0:0:
256,192,164242,1,0,0:0:0:0:
256,192,164629,1,8,0:0:0:0:
256,192,165016,1,0,0:0:0:0:
256,192,165209,1,8,0:0:0:0:
256,192,165306,1,8,0:0:0:0:
256,192,165403,1,0,0:0:0:0:
256,192,165500,1,0,0:0:0:0:
256,192,165596,1,8,0:0:0:0:
256,192,165693,1,0,0:0:0:0:
256,192,165790,1,0,0:0:0:0:
256,192,166177,1,8,0:0:0:0:
256,192,166564,1,0,0:0:0:0:
256,192,166951,1,8,0:0:0:0:
256,192,167048,1,8,0:0:0:0:
256,192,167145,1,8,0:0:0:0:
256,192,167242,1,8,0:0:0:0:
256,192,167338,1,0,0:0:0:0:
256,192,167435,1,0,0:0:0:0:
256,192,167532,1,8,0:0:0:0:
256,192,167629,1,8,0:0:0:0:
256,192,167725,1,0,0:0:0:0:
256,192,167822,1,0,0:0:0:0:
256,192,167919,1,8,0:0:0:0:
256,192,168016,1,8,0:0:0:0:
256,192,168112,1,0,0:0:0:0:
256,192,168209,1,8,0:0:0:0:
256,192,168306,1,8,0:0:0:0:
256,192,168403,1,8,0:0:0:0:
256,192,168500,1,0,0:0:0:0:
256,192,168596,1,8,0:0:0:0:
256,192,168693,1,8,0:0:0:0:
256,192,168790,1,8,0:0:0:0:
256,192,168887,1,0,0:0:0:0:
256,192,168983,1,0,0:0:0:0:
256,192,169080,1,0,0:0:0:0:
256,192,169177,1,0,0:0:0:0:
256,192,169274,1,8,0:0:0:0:
256,192,169371,1,8,0:0:0:0:
256,192,169467,1,0,0:0:0:0:
256,192,169564,1,0,0:0:0:0:
256,192,169661,1,0,0:0:0:0:
256,192,169758,1,0,0:0:0:0:
256,192,169854,1,0,0:0:0:0:
256,192,169951,1,0,0:0:0:0:
256,192,170048,1,8,0:0:0:0:
256,192,170145,1,8,0:0:0:0:
256,192,170241,1,0,0:0:0:0:
256,192,170338,1,0,0:0:0:0:
256,192,170435,1,0,0:0:0:0:
256,192,170532,1,0,0:0:0:0:
256,192,170628,1,0,0:0:0:0:
256,192,170725,1,0,0:0:0:0:
256,192,170822,1,8,0:0:0:0:
256,192,170919,1,8,0:0:0:0:
256,192,171015,1,0,0:0:0:0:
256,192,171112,1,0,0:0:0:0:
256,192,171209,1,0,0:0:0:0:
256,192,171306,1,0,0:0:0:0:
256,192,171402,1,0,0:0:0:0:
256,192,171499,1,0,0:0:0:0:
256,192,171596,1,8,0:0:0:0:
256,192,171693,1,8,0:0:0:0:
256,192,171789,1,0,0:0:0:0:
256,192,171886,1,0,0:0:0:0:
256,192,171983,1,0,0:0:0:0:
256,192,172080,1,0,0:0:0:0:
256,192,172176,1,0,0:0:0:0:
256,192,172273,1,0,0:0:0:0:
256,192,172370,1,8,0:0:0:0:
256,192,172467,1,8,0:0:0:0:
256,192,172563,1,0,0:0:0:0:
256,192,172660,1,0,0:0:0:0:
256,192,172757,1,0,0:0:0:0:
256,192,172854,1,0,0:0:0:0:
256,192,172950,1,0,0:0:0:0:
256,192,173047,1,0,0:0:0:0:
256,192,173144,1,8,0:0:0:0:
256,192,173242,1,8,0:0:0:0:
256,192,173338,1,0,0:0:0:0:
256,192,173435,1,0,0:0:0:0:
256,192,173532,1,8,0:0:0:0:
256,192,173629,1,8,0:0:0:0:
256,192,173725,1,0,0:0:0:0:
256,192,173822,1,8,0:0:0:0:
256,192,173919,1,8,0:0:0:0:
256,192,174016,1,0,0:0:0:0:
256,192,174112,1,0,0:0:0:0:
256,192,174209,1,0,0:0:0:0:
256,192,174306,1,0,0:0:0:0:
256,192,174403,1,8,0:0:0:0:
256,192,174500,1,8,0:0:0:0:
256,192,174596,1,0,0:0:0:0:
256,192,174693,1,0,0:0:0:0:
256,192,174790,1,8,0:0:0:0:
256,192,174887,1,8,0:0:0:0:
256,192,174984,1,0,0:0:0:0:
256,192,175081,1,0,0:0:0:0:
256,192,175178,1,0,0:0:0:0:
256,192,175274,1,0,0:0:0:0:
256,192,175371,1,0,0:0:0:0:
256,192,175468,1,8,0:0:0:0:
256,192,175565,1,8,0:0:0:0:
256,192,175661,1,0,0:0:0:0:
256,192,175758,1,0,0:0:0:0:
256,192,175855,1,0,0:0:0:0:
256,192,175952,1,0,0:0:0:0:
256,192,176048,1,0,0:0:0:0:
256,192,176145,1,0,0:0:0:0:
256,192,176242,1,8,0:0:0:0:
256,192,176339,1,8,0:0:0:0:
256,192,176435,1,0,0:0:0:0:
256,192,176532,1,0,0:0:0:0:
256,192,176629,1,0,0:0:0:0:
256,192,176726,1,0,0:0:0:0:
256,192,176822,1,0,0:0:0:0:
256,192,176919,1,0,0:0:0:0:
256,192,177016,1,8,0:0:0:0:
256,192,177113,1,8,0:0:0:0:
256,192,177209,1,0,0:0:0:0:
256,192,177306,1,0,0:0:0:0:
256,192,177403,1,0,0:0:0:0:
256,192,177500,1,0,0:0:0:0:
256,192,177596,1,0,0:0:0:0:
256,192,177693,1,0,0:0:0:0:
256,192,177790,1,8,0:0:0:0:
256,192,177887,1,8,0:0:0:0:
256,192,177983,1,0,0:0:0:0:
256,192,178080,1,0,0:0:0:0:
256,192,178177,1,0,0:0:0:0:
256,192,178274,1,0,0:0:0:0:
256,192,178370,1,0,0:0:0:0:
256,192,178467,1,0,0:0:0:0:
256,192,178564,1,8,0:0:0:0:
256,192,178661,1,8,0:0:0:0:
256,192,178758,1,0,0:0:0:0:
256,192,178855,1,0,0:0:0:0:
256,192,178952,1,0,0:0:0:0:
256,192,179049,1,0,0:0:0:0:
256,192,179145,1,0,0:0:0:0:
256,192,179242,1,0,0:0:0:0:
256,192,179339,1,8,0:0:0:0:
256,192,179436,1,8,0:0:0:0:
256,192,179532,1,0,0:0:0:0:
256,192,179629,1,0,0:0:0:0:
256,192,179725,1,8,0:0:0:0:
256,192,179822,1,8,0:0:0:0:
256,192,179919,1,0,0:0:0:0:
256,192,180016,1,0,0:0:0:0:
256,192,180112,1,8,0:0:0:0:
256,192,180209,1,8,0:0:0:0:
256,192,180306,1,0,0:0:0:0:
256,192,180403,1,0,0:0:0:0:
256,192,180500,1,0,0:0:0:0:
256,192,180596,1,8,0:0:0:0:
256,192,180693,1,8,0:0:0:0:
256,192,180790,1,0,0:0:0:0:
256,192,180887,1,0,0:0:0:0:
256,192,180983,1,0,0:0:0:0:
256,192,181080,1,0,0:0:0:0:
256,192,181177,1,0,0:0:0:0:
256,192,181274,1,8,0:0:0:0:
256,192,181467,1,8,0:0:0:0:
256,192,181661,1,8,0:0:0:0:
256,192,181854,1,8,0:0:0:0:
256,192,182048,1,8,0:0:0:0:
256,192,182242,1,8,0:0:0:0:
256,192,182435,1,8,0:0:0:0:
256,192,182629,1,0,0:0:0:0:
248,192,182725,1,0,0:0:0:0:
256,192,182822,1,0,0:0:0:0:
256,192,183016,1,8,0:0:0:0:
256,192,183209,1,8,0:0:0:0:
256,192,183403,1,8,0:0:0:0:
256,192,183596,1,8,0:0:0:0:
256,192,183790,1,8,0:0:0:0:
256,192,183983,1,8,0:0:0:0:
256,192,184177,1,0,0:0:0:0:
256,200,184371,1,0,0:0:0:0:
256,192,184564,1,8,0:0:0:0:
256,192,184661,1,8,0:0:0:0:
256,192,184758,1,8,0:0:0:0:
256,192,184951,1,0,0:0:0:0:
256,192,185145,1,8,0:0:0:0:
256,192,185242,1,8,0:0:0:0:
256,192,185338,1,0,0:0:0:0:
256,192,185532,1,8,0:0:0:0:
256,192,185725,1,8,0:0:0:0:
248,184,185822,1,8,0:0:0:0:
248,184,185919,1,0,0:0:0:0:
256,192,186112,1,8,0:0:0:0:
256,192,186306,1,8,0:0:0:0:
256,192,186500,1,8,0:0:0:0:
256,192,186693,1,8,0:0:0:0:
256,192,186887,1,8,0:0:0:0:
256,192,187080,1,8,0:0:0:0:
256,192,187274,1,0,0:0:0:0:
256,192,187467,1,12,0:0:0:0:
256,192,187854,1,8,0:0:0:0:
256,192,188242,1,12,0:0:0:0:
256,192,188629,1,8,0:0:0:0:
256,192,189016,1,12,0:0:0:0:
256,192,189403,1,8,0:0:0:0:
256,184,189790,1,12,0:0:0:0:
256,192,190177,1,8,0:0:0:0:
256,192,190371,1,12,0:0:0:0:
256,192,190758,1,8,0:0:0:0:
256,192,190951,1,8,0:0:0:0:
256,192,191145,1,8,0:0:0:0:
256,192,191338,1,0,0:0:0:0:
256,192,191532,1,8,0:0:0:0:
256,192,191725,1,0,0:0:0:0:
256,192,191919,1,8,0:0:0:0:
256,192,192112,5,0,0:0:0:0:
256,192,192209,1,0,0:0:0:0:
256,192,192306,1,0,0:0:0:0:
256,192,192403,1,0,0:0:0:0:
256,192,192500,5,8,0:0:0:0:
256,184,192596,1,8,0:0:0:0:
256,192,192693,1,0,0:0:0:0:
256,192,192790,1,0,0:0:0:0:
256,192,192887,1,8,0:0:0:0:
256,192,193661,5,0,0:0:0:0:
256,192,193758,1,0,0:0:0:0:
256,192,193854,1,8,0:0:0:0:
256,192,193951,1,0,0:0:0:0:
256,192,194048,1,0,0:0:0:0:
256,192,194145,1,0,0:0:0:0:
256,192,194241,1,8,0:0:0:0:
256,192,194338,1,0,0:0:0:0:
256,192,194435,1,0,0:0:0:0:
256,192,194532,1,0,0:0:0:0:
256,192,194629,1,8,0:0:0:0:
256,192,194725,1,0,0:0:0:0:
256,192,194822,1,0,0:0:0:0:
256,192,194919,1,0,0:0:0:0:
256,192,195016,1,8,0:0:0:0:
256,192,195112,1,8,0:0:0:0:
256,192,195209,1,0,0:0:0:0:
256,192,195306,1,0,0:0:0:0:
256,192,195403,1,8,0:0:0:0:
256,192,195500,1,0,0:0:0:0:
256,192,195596,1,0,0:0:0:0:
256,192,195693,1,0,0:0:0:0:
256,192,195790,1,8,0:0:0:0:
256,192,195887,1,0,0:0:0:0:
256,192,195983,1,0,0:0:0:0:
256,192,196080,1,0,0:0:0:0:
256,192,196177,1,8,0:0:0:0:
256,192,196274,1,0,0:0:0:0:
256,192,196370,1,0,0:0:0:0:
256,192,196467,1,0,0:0:0:0:
256,192,196564,1,8,0:0:0:0:
256,192,196661,1,8,0:0:0:0:
256,192,196758,1,0,0:0:0:0:
256,192,196854,1,8,0:0:0:0:
256,192,196951,1,0,0:0:0:0:
256,192,197048,1,0,0:0:0:0:
256,192,197145,1,8,0:0:0:0:
256,192,197241,1,0,0:0:0:0:
256,192,197338,1,0,0:0:0:0:
256,192,197435,1,8,0:0:0:0:
256,192,197532,1,8,0:0:0:0:
256,192,197629,1,0,0:0:0:0:
256,192,197725,1,8,0:0:0:0:
256,192,197822,1,0,0:0:0:0:
256,192,197919,1,8,0:0:0:0:
256,184,198016,1,0,0:0:0:0:
256,184,198112,1,8,0:0:0:0:
256,184,198209,1,0,0:0:0:0:
256,192,198306,1,8,0:0:0:0:
256,192,198403,1,8,0:0:0:0:
256,192,198500,1,0,0:0:0:0:
256,192,198596,1,0,0:0:0:0:
256,192,198693,1,8,0:0:0:0:
256,192,198790,1,8,0:0:0:0:
256,192,198887,1,0,0:0:0:0:
256,192,198983,1,0,0:0:0:0:
256,192,199080,1,8,0:0:0:0:
256,192,199177,1,8,0:0:0:0:
256,192,199274,1,0,0:0:0:0:
256,192,199370,1,0,0:0:0:0:
256,192,199467,1,8,0:0:0:0:
256,192,199564,1,8,0:0:0:0:
256,192,199661,1,8,0:0:0:0:
256,192,199758,1,8,0:0:0:0:
256,192,199854,5,0,0:0:0:0:
256,192,199951,1,0,0:0:0:0:
256,192,200047,1,8,0:0:0:0:
256,192,200144,1,0,0:0:0:0:
256,192,200241,1,0,0:0:0:0:
256,192,200338,1,0,0:0:0:0:
256,192,200434,1,8,0:0:0:0:
256,192,200531,1,0,0:0:0:0:
256,192,200628,1,0,0:0:0:0:
256,192,200725,1,0,0:0:0:0:
256,192,200822,1,8,0:0:0:0:
256,192,200918,1,0,0:0:0:0:
256,192,201015,1,0,0:0:0:0:
256,192,201112,1,0,0:0:0:0:
256,192,201209,1,8,0:0:0:0:
256,192,201305,1,8,0:0:0:0:
256,192,201402,1,0,0:0:0:0:
256,192,201499,1,0,0:0:0:0:
256,192,201596,1,8,0:0:0:0:
256,192,201693,1,0,0:0:0:0:
256,192,201789,1,0,0:0:0:0:
256,192,201886,1,0,0:0:0:0:
256,192,201983,1,8,0:0:0:0:
256,192,202080,1,0,0:0:0:0:
256,192,202176,1,0,0:0:0:0:
256,192,202273,1,0,0:0:0:0:
256,192,202370,1,8,0:0:0:0:
256,192,202467,1,0,0:0:0:0:
256,192,202563,1,0,0:0:0:0:
256,192,202660,1,0,0:0:0:0:
256,192,202757,1,8,0:0:0:0:
256,192,202854,1,8,0:0:0:0:
256,192,202951,1,0,0:0:0:0:
256,192,203047,1,8,0:0:0:0:
256,192,203144,1,0,0:0:0:0:
256,192,203241,1,0,0:0:0:0:
256,192,203338,1,8,0:0:0:0:
256,192,203434,1,0,0:0:0:0:
256,192,203531,1,0,0:0:0:0:
256,192,203628,1,8,0:0:0:0:
256,192,203725,1,8,0:0:0:0:
256,192,203822,1,0,0:0:0:0:
256,192,203918,1,8,0:0:0:0:
256,192,204015,1,0,0:0:0:0:
256,192,204112,1,8,0:0:0:0:
256,184,204209,1,0,0:0:0:0:
256,184,204305,1,8,0:0:0:0:
256,184,204402,1,0,0:0:0:0:
256,192,204499,1,8,0:0:0:0:
256,192,204596,1,8,0:0:0:0:
256,192,204693,1,0,0:0:0:0:
256,192,204789,1,0,0:0:0:0:
256,192,204886,1,8,0:0:0:0:
256,192,204983,1,8,0:0:0:0:
256,192,205080,1,0,0:0:0:0:
256,192,205176,1,0,0:0:0:0:
256,192,205273,1,8,0:0:0:0:
256,192,205370,1,8,0:0:0:0:
256,192,205467,1,0,0:0:0:0:
256,192,205563,1,0,0:0:0:0:
256,192,205660,1,8,0:0:0:0:
256,192,205757,1,8,0:0:0:0:
256,192,205854,1,8,0:0:0:0:
256,192,205951,1,8,0:0:0:0:
256,192,206048,5,4,0:0:0:0:
256,192,206822,1,4,0:0:0:0:
256,192,207403,1,4,0:0:0:0:
256,192,207596,1,0,0:0:0:0:
256,192,207693,1,0,0:0:0:0:
256,192,207790,1,8,0:0:0:0:
256,192,207887,1,0,0:0:0:0:
256,192,207983,1,0,0:0:0:0:
256,192,208080,1,0,0:0:0:0:
256,192,208177,1,8,0:0:0:0:
256,192,208274,1,0,0:0:0:0:
256,192,208370,1,0,0:0:0:0:
256,192,208467,1,0,0:0:0:0:
256,192,208564,1,8,0:0:0:0:
256,192,208661,1,0,0:0:0:0:
256,192,208757,1,0,0:0:0:0:
256,192,208854,1,0,0:0:0:0:
256,192,208951,1,8,0:0:0:0:
256,192,209048,1,8,0:0:0:0:
256,192,209145,1,0,0:0:0:0:
256,192,209241,1,8,0:0:0:0:
256,192,209338,1,0,0:0:0:0:
256,192,209435,1,0,0:0:0:0:
256,192,209532,1,8,0:0:0:0:
256,192,209628,1,0,0:0:0:0:
256,192,209725,1,0,0:0:0:0:
256,192,209822,1,8,0:0:0:0:
256,192,209919,1,8,0:0:0:0:
256,192,210016,1,0,0:0:0:0:
256,192,210112,1,8,0:0:0:0:
256,192,210209,1,0,0:0:0:0:
256,192,210306,1,8,0:0:0:0:
256,184,210403,1,0,0:0:0:0:
256,184,210499,1,8,0:0:0:0:
256,184,210596,1,0,0:0:0:0:
256,192,210693,1,8,0:0:0:0:
256,192,210790,1,8,0:0:0:0:
256,192,210887,1,0,0:0:0:0:
256,192,210983,1,0,0:0:0:0:
256,192,211080,1,8,0:0:0:0:
256,192,211177,1,8,0:0:0:0:
256,192,211274,1,0,0:0:0:0:
256,192,211370,1,0,0:0:0:0:
256,192,211467,1,8,0:0:0:0:
256,192,211564,1,8,0:0:0:0:
256,192,211661,1,0,0:0:0:0:
256,192,211757,1,0,0:0:0:0:
256,192,211854,1,8,0:0:0:0:
256,192,211951,1,8,0:0:0:0:
256,192,212048,1,8,0:0:0:0:
256,192,212145,1,8,0:0:0:0:
256,192,212241,5,0,0:0:0:0:
256,192,212338,1,0,0:0:0:0:
256,192,212434,1,8,0:0:0:0:
256,192,212531,1,0,0:0:0:0:
256,192,212628,1,0,0:0:0:0:
256,192,212725,1,0,0:0:0:0:
256,192,212821,1,8,0:0:0:0:
256,192,212918,1,0,0:0:0:0:
256,192,213015,1,0,0:0:0:0:
256,192,213112,1,0,0:0:0:0:
256,192,213209,1,8,0:0:0:0:
256,192,213305,1,0,0:0:0:0:
256,192,213402,1,0,0:0:0:0:
256,192,213499,1,0,0:0:0:0:
256,192,213596,1,8,0:0:0:0:
256,192,213692,1,8,0:0:0:0:
256,192,213789,1,0,0:0:0:0:
256,192,213886,1,0,0:0:0:0:
256,192,213983,1,8,0:0:0:0:
256,192,214080,1,0,0:0:0:0:
256,192,214176,1,0,0:0:0:0:
256,192,214273,1,0,0:0:0:0:
256,192,214370,1,8,0:0:0:0:
256,192,214467,1,0,0:0:0:0:
256,192,214563,1,0,0:0:0:0:
256,192,214660,1,0,0:0:0:0:
256,192,214757,1,8,0:0:0:0:
256,192,214854,1,0,0:0:0:0:
256,192,214950,1,0,0:0:0:0:
256,192,215047,1,0,0:0:0:0:
256,192,215144,1,8,0:0:0:0:
256,192,215241,1,8,0:0:0:0:
256,192,215338,1,0,0:0:0:0:
256,192,215434,1,8,0:0:0:0:
256,192,215531,1,0,0:0:0:0:
256,192,215628,1,0,0:0:0:0:
256,192,215725,1,8,0:0:0:0:
256,192,215821,1,0,0:0:0:0:
256,192,215918,1,0,0:0:0:0:
256,192,216015,1,8,0:0:0:0:
256,192,216112,1,8,0:0:0:0:
256,192,216209,1,0,0:0:0:0:
256,192,216305,1,8,0:0:0:0:
256,192,216402,1,0,0:0:0:0:
256,192,216499,1,8,0:0:0:0:
256,184,216596,1,0,0:0:0:0:
256,184,216692,1,8,0:0:0:0:
256,184,216789,1,0,0:0:0:0:
256,192,216886,1,8,0:0:0:0:
256,192,216983,1,8,0:0:0:0:
256,192,217080,1,0,0:0:0:0:
256,192,217176,1,0,0:0:0:0:
256,192,217273,5,8,0:0:0:0:
256,192,217370,5,8,0:0:0:0:
256,192,217467,1,0,0:0:0:0:
256,192,217563,1,0,0:0:0:0:
256,192,217660,1,8,0:0:0:0:
256,192,217757,1,8,0:0:0:0:
256,192,217854,1,0,0:0:0:0:
256,192,217950,1,0,0:0:0:0:
256,192,218047,1,8,0:0:0:0:
256,192,218144,1,8,0:0:0:0:
256,192,218241,1,8,0:0:0:0:
256,192,218338,1,8,0:0:0:0:
256,192,218435,1,0,0:0:0:0:
253,189,218531,5,0,0:0:0:0:
253,189,218628,1,8,0:0:0:0:
253,189,218725,1,0,0:0:0:0:
257,192,218822,1,8,0:0:0:0:
257,192,218918,1,0,0:0:0:0:
257,192,219015,1,0,0:0:0:0:
257,192,219112,1,8,0:0:0:0:
264,187,219209,1,0,0:0:0:0:
257,192,219305,1,8,0:0:0:0:
257,192,219402,1,0,0:0:0:0:
259,189,219499,1,0,0:0:0:0:
261,195,219596,1,8,0:0:0:0:
259,192,219693,1,0,0:0:0:0:
257,192,219789,1,0,0:0:0:0:
257,192,219886,1,8,0:0:0:0:
257,192,219983,1,8,0:0:0:0:
253,189,220080,1,0,0:0:0:0:
253,189,220177,1,8,0:0:0:0:
253,189,220274,1,0,0:0:0:0:
257,192,220371,1,8,0:0:0:0:
257,192,220467,1,0,0:0:0:0:
257,192,220564,1,0,0:0:0:0:
257,192,220661,1,8,0:0:0:0:
264,187,220758,1,0,0:0:0:0:
257,192,220854,1,8,0:0:0:0:
257,192,220951,1,0,0:0:0:0:
259,189,221048,1,0,0:0:0:0:
261,195,221145,1,8,0:0:0:0:
259,192,221242,1,8,0:0:0:0:
257,192,221338,1,8,0:0:0:0:
257,192,221435,1,8,0:0:0:0:
257,192,221532,1,0,0:0:0:0:
257,192,221629,1,0,0:0:0:0:
253,189,221725,1,8,0:0:0:0:
253,189,221822,1,0,0:0:0:0:
257,192,221919,1,8,0:0:0:0:
257,192,222015,1,0,0:0:0:0:
257,192,222112,1,0,0:0:0:0:
257,192,222209,1,8,0:0:0:0:
264,187,222306,1,0,0:0:0:0:
257,192,222402,1,8,0:0:0:0:
257,192,222499,1,0,0:0:0:0:
259,189,222596,1,0,0:0:0:0:
261,195,222693,1,8,0:0:0:0:
259,192,222790,1,0,0:0:0:0:
257,192,222886,1,0,0:0:0:0:
257,192,222983,1,8,0:0:0:0:
257,192,223080,1,8,0:0:0:0:
253,189,223177,1,0,0:0:0:0:
253,189,223274,1,8,0:0:0:0:
253,189,223371,1,0,0:0:0:0:
257,192,223468,5,8,0:0:0:0:
257,192,223564,1,0,0:0:0:0:
257,192,223661,1,0,0:0:0:0:
257,192,223758,1,8,0:0:0:0:
264,187,223855,1,0,0:0:0:0:
257,192,223951,1,8,0:0:0:0:
257,192,224048,1,0,0:0:0:0:
259,189,224145,1,0,0:0:0:0:
261,195,224242,1,8,0:0:0:0:
259,192,224339,1,8,0:0:0:0:
257,192,224435,1,0,0:0:0:0:
257,192,224532,1,0,0:0:0:0:
257,192,224628,5,0,0:0:0:0:
253,189,224724,1,0,0:0:0:0:
253,189,224821,1,8,0:0:0:0:
253,189,224918,1,0,0:0:0:0:
257,192,225015,1,8,0:0:0:0:
257,192,225111,1,0,0:0:0:0:
257,192,225208,1,0,0:0:0:0:
257,192,225305,1,8,0:0:0:0:
264,187,225402,1,0,0:0:0:0:
257,192,225498,1,8,0:0:0:0:
257,192,225595,1,0,0:0:0:0:
259,189,225692,1,0,0:0:0:0:
261,195,225789,1,8,0:0:0:0:
259,192,225886,1,0,0:0:0:0:
257,192,225982,1,0,0:0:0:0:
257,192,226079,1,8,0:0:0:0:
257,192,226176,1,8,0:0:0:0:
253,189,226273,1,0,0:0:0:0:
253,189,226370,1,8,0:0:0:0:
253,189,226467,1,0,0:0:0:0:
257,192,226564,1,8,0:0:0:0:
257,192,226660,1,0,0:0:0:0:
257,192,226757,1,0,0:0:0:0:
257,192,226854,1,8,0:0:0:0:
264,187,226951,1,0,0:0:0:0:
257,192,227047,1,8,0:0:0:0:
257,192,227144,1,0,0:0:0:0:
259,189,227241,1,0,0:0:0:0:
261,195,227338,1,8,0:0:0:0:
259,192,227435,1,8,0:0:0:0:
257,192,227531,1,8,0:0:0:0:
257,192,227628,1,8,0:0:0:0:
257,192,227725,1,0,0:0:0:0:
257,192,227822,1,0,0:0:0:0:
253,189,227918,1,8,0:0:0:0:
253,189,228015,1,0,0:0:0:0:
257,192,228112,1,8,0:0:0:0:
257,192,228208,1,0,0:0:0:0:
257,192,228305,1,0,0:0:0:0:
257,192,228402,1,8,0:0:0:0:
264,187,228499,1,0,0:0:0:0:
257,192,228595,1,8,0:0:0:0:
257,192,228692,1,0,0:0:0:0:
259,189,228789,1,0,0:0:0:0:
261,195,228886,1,8,0:0:0:0:
259,192,228983,1,0,0:0:0:0:
257,192,229079,1,0,0:0:0:0:
257,192,229176,1,8,0:0:0:0:
257,192,229273,1,8,0:0:0:0:
253,189,229370,1,0,0:0:0:0:
253,189,229467,1,8,0:0:0:0:
253,189,229564,1,0,0:0:0:0:
257,192,229661,5,8,0:0:0:0:
257,192,229757,1,0,0:0:0:0:
257,192,229854,1,0,0:0:0:0:
257,192,229951,1,8,0:0:0:0:
264,187,230048,1,0,0:0:0:0:
257,192,230144,1,8,0:0:0:0:
257,192,230241,1,0,0:0:0:0:
259,189,230338,1,0,0:0:0:0:
261,195,230435,1,8,0:0:0:0:
259,192,230532,1,8,0:0:0:0:
257,192,230629,1,0,0:0:0:0:
257,192,230822,1,4,0:0:0:0:
