osu file format v14

[General]
AudioFilename: audio.mp3
AudioLeadIn: 0
PreviewTime: 57811
Countdown: 0
SampleSet: Soft
StackLeniency: 0
Mode: 0
LetterboxInBreaks: 0
WidescreenStoryboard: 1

[Editor]
Bookmarks: 2627,12732,22837,43048,58205,73363,76048,78416,93574,96100
DistanceSpacing: 1.5
BeatDivisor: 4
GridSize: 32
TimelineZoom: 2.599999

[Metadata]
Title:Re:TrymenT
TitleUnicode:Re:TrymenT
Artist:Hotaru Murasaki
ArtistUnicode:紫咲ほたる
Creator:Pincus
Version:Hitsounds
Source:Re:LieF〜親愛なるあなたへ〜
Tags:retryment rask relief Shin'ainaru Anata e opening full eroge visual novel amari saya piano mugiwarasekai iceluin shirahane suou wen kirishima-
BeatmapID:3257645
BeatmapSetID:1587754

[Difficulty]
HPDrainRate:6
CircleSize:4.2
OverallDifficulty:8.8
ApproachRate:9.3
SliderMultiplier:1.8
SliderTickRate:1

[Events]
//Background and Video events
0,0,"relief.jpg",0,0
//Break Periods
//Storyboard Layer 0 (Background)
//Storyboard Layer 1 (Fail)
//Storyboard Layer 2 (Pass)
//Storyboard Layer 3 (Foreground)
//Storyboard Layer 4 (Overlay)
//Storyboard Sound Samples

[TimingPoints]
2627,315.789473684211,4,2,5,40,1,0
2627,-142.857142857143,4,2,5,40,0,0
10205,-142.857142857143,4,2,5,45,0,0
11469,-142.857142857143,4,2,5,50,0,0
11942,-142.857142857143,4,2,5,55,0,0
12416,-142.857142857143,4,2,5,50,0,0
12732,-111.111111111111,4,2,5,55,0,0
21574,-249.999999999999,4,2,5,55,0,0
22837,-142.857142857142,4,2,5,45,0,0
43048,-124.999999999999,4,2,5,50,0,0
57574,-124.999999999999,4,2,10,50,0,0
57890,-124.999999999999,4,2,5,35,0,0
58205,-90.9090909090904,4,2,5,60,0,1
78416,-142.85714285714,4,2,5,45,0,0
79521,-166.666666666663,4,2,5,45,0,0
80942,-142.85714285714,4,2,5,45,0,0
82048,-166.666666666663,4,2,5,45,0,0
87100,-199.999999999995,4,2,5,45,0,0
88521,-249.999999999992,4,2,5,45,0,0
91048,-199.999999999996,4,2,5,45,0,0

[Colours]
Combo1 : 156,108,18
Combo2 : 202,108,238
Combo3 : 255,0,255
Combo4 : 155,155,155

[HitObjects]
256,192,2627,5,2,0:0:0:0:
256,192,2784,5,2,0:0:0:0:
256,192,2942,5,2,0:0:0:0:
256,192,3100,5,2,0:0:0:0:
256,192,3574,5,2,0:0:0:0:
256,192,3890,5,2,0:0:0:0:
256,192,4048,5,2,0:0:0:0:
256,192,4205,5,2,0:0:0:0:
256,192,4363,5,2,0:0:0:0:
256,192,4837,5,2,0:0:0:0:
256,192,5153,5,2,0:0:0:0:
256,192,5311,5,2,0:0:0:0:
256,192,5469,5,2,0:0:0:0:
256,192,5627,5,2,0:0:0:0:
256,192,5784,5,2,0:0:0:0:
256,192,5942,5,2,0:0:0:0:
256,192,6100,5,2,0:0:0:0:
256,192,6416,5,2,0:0:0:0:
256,192,6890,5,2,0:0:0:0:
256,192,7048,5,2,0:0:0:0:
256,192,7363,5,2,0:0:0:0:
256,192,7679,5,2,0:0:0:0:
256,192,7995,5,2,0:0:0:0:
256,192,8153,5,2,0:0:0:0:
256,192,8469,5,2,0:0:0:0:
256,192,8627,5,2,0:0:0:0:
256,192,8942,5,2,0:0:0:0:
256,192,9258,5,2,0:0:0:0:
256,192,9574,5,2,0:0:0:0:
256,192,9890,5,2,0:0:0:0:
256,192,10205,5,2,0:0:0:0:
256,192,10521,5,2,0:0:0:0:
256,192,10679,5,2,0:0:0:0:
256,192,11153,5,2,0:0:0:0:
256,192,11469,5,2,0:0:0:0:
256,192,11942,5,2,0:0:0:0:
256,192,12416,5,2,1:2:0:0:
256,192,12495,5,0,1:2:0:0:
256,192,12574,5,0,1:2:0:0:
256,192,12653,5,0,1:2:0:0:
256,192,12732,5,4,1:0:0:0:
256,192,13048,5,0,1:2:0:0:
256,192,13205,5,0,0:0:0:0:
256,192,13363,5,0,1:2:0:0:
256,192,13521,5,0,1:2:0:0:
256,192,13679,5,0,1:2:0:0:
256,192,13837,5,0,0:0:0:0:
256,192,13995,5,2,1:2:0:0:
256,192,14153,5,0,0:0:0:0:
256,192,14311,5,0,1:2:0:0:
256,192,14469,5,8,0:3:0:0:
256,192,14627,5,0,1:2:0:0:
256,192,14784,5,8,0:3:0:0:
256,192,14942,5,2,1:2:0:0:
256,192,15100,5,8,0:3:0:0:
256,192,15258,5,4,1:0:0:0:
256,192,15416,5,0,0:0:0:0:
256,192,15574,5,2,1:2:0:0:
256,192,15732,5,2,0:0:0:0:
256,192,15890,5,0,1:2:0:0:
256,192,16048,5,2,0:0:0:0:
256,192,16205,5,0,1:2:0:0:
256,192,16363,5,2,0:0:0:0:
256,192,16521,5,0,0:0:0:0:
256,192,16679,5,8,0:0:0:0:
256,192,16758,5,0,1:2:0:0:
256,192,16837,5,0,1:2:0:0:
256,192,16995,5,8,0:3:0:0:
256,192,17153,5,0,1:2:0:0:
256,192,17311,5,8,0:3:0:0:
256,192,17469,5,8,0:3:0:0:
256,192,17627,5,8,0:3:0:0:
256,192,17784,5,4,1:2:0:0:
256,192,17942,5,0,0:0:0:0:
256,192,18100,5,0,1:2:0:0:
256,192,18258,5,8,0:3:0:0:
256,192,18416,5,0,1:2:0:0:
256,192,18574,5,0,1:2:0:0:
256,192,18732,5,8,0:3:0:0:
256,192,18890,5,0,1:2:0:0:
256,192,18969,5,0,1:2:0:0:
256,192,19048,5,0,1:2:0:0:
256,192,19205,5,2,0:0:0:0:
256,192,19363,5,0,1:2:0:0:
256,192,19521,5,10,0:3:0:0:
256,192,19679,5,0,0:0:0:0:
256,192,19837,5,8,0:3:0:0:
256,192,19995,5,0,1:2:0:0:
256,192,20153,5,0,0:0:0:0:
256,192,20311,5,8,0:3:0:0:
256,192,20469,5,0,1:2:0:0:
256,192,20627,5,0,1:2:0:0:
256,192,20784,5,0,1:2:0:0:
256,192,20942,5,4,1:2:0:0:
256,192,21100,5,0,1:2:0:0:
256,192,21258,5,0,1:2:0:0:
256,192,21416,5,0,1:2:0:0:
256,192,21574,5,0,1:2:0:0:
256,192,22048,5,2,0:0:0:0:
256,192,22127,5,2,0:0:0:0:
256,192,22205,5,2,0:0:0:0:
256,192,22837,5,0,1:2:0:0:
256,192,23153,5,2,0:0:0:0:
256,192,23469,5,2,0:0:0:0:
256,192,23942,5,2,0:0:0:0:
256,192,24100,5,2,0:0:0:0:
256,192,24416,5,2,0:0:0:0:
256,192,24732,5,2,0:0:0:0:
256,192,25048,5,2,0:0:0:0:
256,192,25363,5,2,0:0:0:0:
256,192,25679,5,2,0:0:0:0:
256,192,25995,5,2,0:0:0:0:
256,192,26469,5,2,0:0:0:0:
256,192,26627,5,2,0:0:0:0:
256,192,26942,5,2,0:0:0:0:
256,192,27258,5,2,0:0:0:0:
256,192,27574,5,2,0:0:0:0:
256,192,27890,5,0,1:2:0:0:
256,192,28048,5,0,1:2:0:0:
256,192,28205,5,2,0:0:0:0:
256,192,28521,5,2,0:0:0:0:
256,192,28837,5,2,0:0:0:0:
256,192,28995,5,2,0:0:0:0:
256,192,29469,5,2,0:0:0:0:
256,192,29784,5,2,0:0:0:0:
256,192,30100,5,2,0:0:0:0:
256,192,30416,5,2,0:0:0:0:
256,192,30732,5,2,0:0:0:0:
256,192,30890,5,2,0:0:0:0:
256,192,31363,5,2,0:0:0:0:
256,192,31679,5,2,0:0:0:0:
256,192,31995,5,2,0:0:0:0:
256,192,32153,5,2,0:0:0:0:
256,192,32311,5,0,1:2:0:0:
256,192,32469,5,0,1:2:0:0:
256,192,32627,5,2,0:0:0:0:
256,192,32784,5,0,1:2:0:0:
256,192,32942,5,0,1:2:0:0:
256,192,33100,5,0,1:2:0:0:
256,192,33258,5,2,0:0:0:0:
256,192,33574,5,2,1:2:0:0:
256,192,33732,5,2,0:0:0:0:
256,192,34048,5,2,0:0:0:0:
256,192,34205,5,2,0:0:0:0:
256,192,34521,5,2,0:0:0:0:
256,192,34837,5,2,1:2:0:0:
256,192,35153,5,2,0:0:0:0:
256,192,35469,5,2,0:0:0:0:
256,192,35784,5,2,0:0:0:0:
256,192,36100,5,2,0:0:0:0:
256,192,36258,5,2,0:0:0:0:
256,192,36574,5,2,0:0:0:0:
256,192,36732,5,2,0:0:0:0:
256,192,37048,5,2,0:0:0:0:
256,192,37363,5,2,1:2:0:0:
256,192,37679,5,2,0:0:0:0:
256,192,37995,5,0,1:2:0:0:
256,192,38153,5,0,1:2:0:0:
256,192,38311,5,2,0:0:0:0:
256,192,38627,5,2,1:2:0:0:
256,192,38942,5,2,0:0:0:0:
256,192,39100,5,2,0:0:0:0:
256,192,39416,5,0,1:2:0:0:
256,192,39574,5,2,0:0:0:0:
256,192,39890,5,0,1:2:0:0:
256,192,40205,5,2,0:0:0:0:
256,192,40521,5,2,0:0:0:0:
256,192,41153,5,0,1:2:0:0:
256,192,41469,5,2,0:0:0:0:
256,192,41627,5,2,1:2:0:0:
256,192,41942,5,0,1:2:0:0:
256,192,42100,5,0,1:2:0:0:
256,192,42258,5,0,1:2:0:0:
256,192,42416,5,0,1:2:0:0:
256,192,42574,5,0,1:2:0:0:
256,192,42732,5,0,1:2:0:0:
256,192,42890,5,0,1:2:0:0:
256,192,43048,5,6,1:0:0:0:
256,192,43363,5,0,1:2:0:0:
256,192,43521,5,2,0:0:0:0:
256,192,43995,5,0,1:2:0:0:
256,192,44153,5,8,0:3:0:0:
256,192,44311,5,0,1:2:0:0:
256,192,44469,5,8,0:3:0:0:
256,192,44627,5,0,1:2:0:0:
256,192,44942,5,0,1:2:0:0:
256,192,45100,5,0,0:0:0:0:
256,192,45258,5,2,1:2:0:0:
256,192,45416,5,0,1:2:0:0:
256,192,45574,5,6,1:2:0:0:
256,192,45890,5,0,1:2:0:0:
256,192,46048,5,2,0:0:0:0:
256,192,46205,5,0,1:2:0:0:
256,192,46521,5,2,1:2:0:0:
256,192,46679,5,10,0:3:0:0:
256,192,46837,5,0,1:2:0:0:
256,192,46995,5,8,0:3:0:0:
256,192,47153,5,8,0:3:0:0:
256,192,47311,5,2,0:0:0:0:
256,192,47469,5,2,1:2:0:0:
256,192,47627,5,10,0:0:0:0:
256,192,47784,5,2,1:2:0:0:
256,192,47942,5,10,0:3:0:0:
256,192,48100,5,4,1:2:0:0:
256,192,48416,5,2,0:0:0:0:
256,192,48574,5,0,1:2:0:0:
256,192,48732,5,10,0:0:0:0:
256,192,49048,5,2,1:2:0:0:
256,192,49205,5,0,1:2:0:0:
256,192,49521,5,8,0:0:0:0:
256,192,49837,5,0,1:2:0:0:
256,192,49995,5,8,0:0:0:0:
256,192,50153,5,8,0:0:0:0:
256,192,50311,5,10,0:3:0:0:
256,192,50469,5,8,0:3:0:0:
256,192,50627,5,0,1:2:0:0:
256,192,50942,5,2,0:0:0:0:
256,192,51100,5,0,1:2:0:0:
256,192,51258,5,10,0:0:0:0:
256,192,51416,5,0,1:2:0:0:
256,192,51574,5,2,1:2:0:0:
256,192,51732,5,2,1:2:0:0:
256,192,52205,5,10,0:0:0:0:
256,192,52363,5,0,1:2:0:0:
256,192,52521,5,8,0:0:0:0:
256,192,52679,5,8,0:0:0:0:
256,192,52837,5,10,0:3:0:0:
256,192,53153,5,4,1:2:0:0:
256,192,53469,5,2,1:2:0:0:
256,192,53627,5,0,1:2:0:0:
256,192,53705,5,0,1:2:0:0:
256,192,53784,5,2,1:2:0:0:
256,192,53942,5,0,1:2:0:0:
256,192,54100,5,2,1:2:0:0:
256,192,54258,5,0,1:2:0:0:
256,192,54337,5,0,1:2:0:0:
256,192,54416,5,0,1:2:0:0:
256,192,54574,5,0,1:2:0:0:
256,192,54732,5,2,1:2:0:0:
256,192,55048,5,2,1:2:0:0:
256,192,55363,5,2,1:2:0:0:
256,192,55521,5,0,1:2:0:0:
256,192,55600,5,0,1:2:0:0:
256,192,55679,5,4,1:0:0:0:
256,192,55995,5,0,1:2:0:0:
256,192,56153,5,0,1:2:0:0:
256,192,56311,5,0,1:2:0:0:
256,192,56469,5,0,1:2:0:0:
256,192,56627,5,2,1:2:0:0:
256,192,56784,5,10,0:0:0:0:
256,192,57574,5,2,1:2:0:0:
256,192,57890,5,2,1:2:0:0:
256,192,57929,5,2,0:0:0:0:
256,192,57969,5,2,0:0:0:0:
256,192,58008,5,2,0:0:0:0:
256,192,58048,5,2,0:0:0:0:
256,192,58087,5,2,0:0:0:0:
256,192,58127,5,2,0:0:0:0:
256,192,58205,5,6,1:0:0:0:
256,192,58363,5,0,1:2:0:0:
256,192,58521,5,10,0:0:0:0:
256,192,58679,5,2,0:0:0:0:
256,192,58758,5,2,0:0:0:0:
256,192,58837,5,0,1:2:0:0:
256,192,58995,5,0,1:2:0:0:
256,192,59153,5,10,0:0:0:0:
256,192,59311,5,2,0:0:0:0:
256,192,59469,5,0,1:2:0:0:
256,192,59784,5,10,0:0:0:0:
256,192,59942,5,0,1:2:0:0:
256,192,60100,5,2,0:0:0:0:
256,192,60258,5,0,1:2:0:0:
256,192,60416,5,10,0:0:0:0:
256,192,60574,5,2,0:0:0:0:
256,192,60732,5,2,1:2:0:0:
256,192,60890,5,0,1:2:0:0:
256,192,61048,5,10,0:0:0:0:
256,192,61205,5,2,0:0:0:0:
256,192,61521,5,0,1:2:0:0:
256,192,61679,5,10,0:0:0:0:
256,192,61837,5,2,0:0:0:0:
256,192,61995,5,2,1:2:0:0:
256,192,62153,5,0,1:2:0:0:
256,192,62311,5,10,0:0:0:0:
256,192,62469,5,0,1:2:0:0:
256,192,62627,5,0,1:2:0:0:
256,192,62784,5,0,1:2:0:0:
256,192,62942,5,10,0:0:0:0:
256,192,63258,5,2,1:2:0:0:
256,192,63416,5,0,1:2:0:0:
256,192,63574,5,8,0:0:0:0:
256,192,63732,5,2,0:0:0:0:
256,192,63811,5,2,0:0:0:0:
256,192,63890,5,2,0:0:0:0:
256,192,64048,5,0,1:2:0:0:
256,192,64205,5,10,0:0:0:0:
256,192,64363,5,2,1:2:0:0:
256,192,64442,5,0,1:2:0:0:
256,192,64521,5,0,1:2:0:0:
256,192,64837,5,10,0:0:0:0:
256,192,64995,5,0,1:2:0:0:
256,192,65153,5,2,0:0:0:0:
256,192,65311,5,0,1:2:0:0:
256,192,65469,5,10,0:0:0:0:
256,192,65627,5,0,1:2:0:0:
256,192,65784,5,6,1:0:0:0:
256,192,65942,5,0,1:2:0:0:
256,192,66100,5,10,0:0:0:0:
256,192,66416,5,6,1:0:0:0:
256,192,66574,5,0,1:2:0:0:
256,192,66732,5,10,0:0:0:0:
256,192,67048,5,6,1:0:0:0:
256,192,67205,5,0,1:2:0:0:
256,192,67363,5,8,0:0:0:0:
256,192,67521,5,0,1:2:0:0:
256,192,67679,5,10,0:3:0:0:
256,192,67837,5,0,1:2:0:0:
256,192,67995,5,8,0:0:0:0:
256,192,68311,5,6,1:0:0:0:
256,192,68469,5,0,1:2:0:0:
256,192,68627,5,8,0:0:0:0:
256,192,68784,5,2,1:2:0:0:
256,192,68942,5,2,1:2:0:0:
256,192,69100,5,0,1:2:0:0:
256,192,69258,5,8,0:0:0:0:
256,192,69416,5,2,0:0:0:0:
256,192,69574,5,6,1:0:0:0:
256,192,69732,5,0,1:2:0:0:
256,192,69890,5,8,0:0:0:0:
256,192,70048,5,2,1:2:0:0:
256,192,70205,5,0,1:2:0:0:
256,192,70363,5,0,1:2:0:0:
256,192,70521,5,10,0:0:0:0:
256,192,70679,5,2,0:0:0:0:
256,192,70837,5,6,1:0:0:0:
256,192,70995,5,0,1:2:0:0:
256,192,71153,5,10,0:0:0:0:
256,192,71469,5,2,1:2:0:0:
256,192,71627,5,0,1:2:0:0:
256,192,71784,5,10,0:0:0:0:
256,192,71942,5,0,1:2:0:0:
256,192,72100,5,2,1:2:0:0:
256,192,72258,5,0,1:2:0:0:
256,192,72416,5,10,0:0:0:0:
256,192,72574,5,0,1:2:0:0:
256,192,72732,5,2,1:2:0:0:
256,192,72811,5,0,1:2:0:0:
256,192,72890,5,0,1:2:0:0:
256,192,72969,5,0,1:2:0:0:
256,192,73048,5,10,0:3:0:0:
256,192,73127,5,8,0:3:0:0:
256,192,73205,5,8,0:3:0:0:
256,192,73284,5,8,0:3:0:0:
256,192,73363,5,6,1:0:0:0:
256,192,73521,5,0,1:2:0:0:
256,192,73679,5,10,0:0:0:0:
256,192,73837,5,0,1:2:0:0:
256,192,73995,5,10,0:0:0:0:
256,192,74153,5,0,1:2:0:0:
256,192,74311,5,10,0:0:0:0:
256,192,74469,5,2,1:2:0:0:
256,192,74627,5,14,0:0:0:0:
256,192,74784,5,0,1:2:0:0:
256,192,74942,5,10,0:0:0:0:
256,192,75100,5,0,1:2:0:0:
256,192,75258,5,10,0:0:0:0:
256,192,75416,5,0,1:2:0:0:
256,192,75574,5,10,0:0:0:0:
256,192,75732,5,0,1:2:0:0:
256,192,75890,5,6,1:2:0:0:
256,192,76048,5,0,1:2:0:0:
256,192,76205,5,8,0:0:0:0:
256,192,76363,5,0,1:2:0:0:
256,192,76521,5,8,0:0:0:0:
256,192,76679,5,0,1:2:0:0:
256,192,76837,5,2,1:2:0:0:
256,192,76995,5,14,0:0:0:0:
256,192,77311,5,2,1:2:0:0:
256,192,77390,5,2,1:2:0:0:
256,192,77469,5,2,1:2:0:0:
256,192,77548,5,2,1:2:0:0:
256,192,77627,5,2,1:2:0:0:
256,192,77705,5,2,1:2:0:0:
256,192,77784,5,0,1:2:0:0:
256,192,77863,5,0,1:2:0:0:
256,192,77942,5,0,1:2:0:0:
256,192,78021,5,0,1:2:0:0:
256,192,78100,5,2,1:2:0:0:
256,192,78179,5,0,1:2:0:0:
256,192,78258,5,0,1:2:0:0:
256,192,78337,5,0,1:2:0:0:
256,192,78416,5,6,0:0:0:0:
256,192,78574,5,2,0:0:0:0:
256,192,78732,5,2,0:0:0:0:
256,192,78890,5,2,0:0:0:0:
256,192,79363,5,2,0:0:0:0:
256,192,79521,5,2,0:0:0:0:
256,192,79679,5,2,0:0:0:0:
256,192,79995,5,2,0:0:0:0:
256,192,80311,5,2,0:0:0:0:
256,192,80627,5,2,0:0:0:0:
256,192,80784,5,2,0:0:0:0:
256,192,80863,5,2,0:0:0:0:
256,192,80942,5,2,0:0:0:0:
256,192,81258,5,2,0:0:0:0:
256,192,81416,5,2,0:0:0:0:
256,192,81890,5,2,0:0:0:0:
256,192,82048,5,2,0:0:0:0:
256,192,82205,5,2,0:0:0:0:
256,192,82521,5,2,0:0:0:0:
256,192,82837,5,2,0:0:0:0:
256,192,83153,5,2,0:0:0:0:
256,192,83311,5,2,0:0:0:0:
256,192,83390,5,2,0:0:0:0:
256,192,83469,5,2,0:0:0:0:
256,192,83784,5,2,0:0:0:0:
256,192,83942,5,2,0:0:0:0:
256,192,84416,5,2,0:0:0:0:
256,192,84574,5,2,0:0:0:0:
256,192,84732,5,2,0:0:0:0:
256,192,85048,5,2,0:0:0:0:
256,192,85363,5,2,0:0:0:0:
256,192,85679,5,2,0:0:0:0:
256,192,85995,5,2,0:0:0:0:
256,192,86311,5,2,0:0:0:0:
256,192,86469,5,2,0:0:0:0:
256,192,86627,5,2,0:0:0:0:
256,192,86942,5,2,0:0:0:0:
256,192,87100,5,2,0:0:0:0:
256,192,87258,5,2,0:0:0:0:
256,192,87890,5,2,0:0:0:0:
256,192,88205,5,2,0:0:0:0:
256,192,88363,5,2,0:0:0:0:
256,192,88442,5,2,0:0:0:0:
256,192,88521,5,2,0:0:0:0:
256,192,89469,5,2,0:0:0:0:
256,192,89627,5,2,0:0:0:0:
256,192,89784,5,2,0:0:0:0:
256,192,90100,5,0,1:2:0:0:
256,192,90416,5,2,0:0:0:0:
256,192,90732,5,2,0:0:0:0:
256,192,91048,5,2,0:0:0:0:
256,192,92311,5,2,0:0:0:0:
256,192,92942,5,2,0:0:0:0:
256,192,93100,5,2,0:0:0:0:
256,192,93258,5,2,0:0:0:0:
256,192,93574,5,2,0:0:0:0:
256,192,94048,5,2,0:0:0:0:
256,192,94521,5,2,0:0:0:0:
256,192,94837,5,2,0:0:0:0:
256,192,94995,5,2,0:0:0:0:
256,192,95153,5,2,0:0:0:0:
256,192,95311,5,2,0:0:0:0:
256,192,96100,5,2,0:0:0:0:
