osu file format v14

[General]
AudioFilename: audio.mp3
AudioLeadIn: 0
PreviewTime: 57811
Countdown: 0
SampleSet: Soft
StackLeniency: 0.7
Mode: 0
LetterboxInBreaks: 0
WidescreenStoryboard: 0

[Editor]
DistanceSpacing: 1.2
BeatDivisor: 4
GridSize: 4
TimelineZoom: 1.6

[Metadata]
Title:Re:TrymenT
TitleUnicode:Re:TrymenT
Artist:Hotaru Murasaki
ArtistUnicode:紫咲ほたる
Creator:eLy
Version:wring's Hard
Source:Re:LieF〜親愛なるあなたへ〜
Tags:rask レリーフ relief Shin'ainaru Anata e DeaR YoU retryment opening op short eroge game visual novel 甘利紗陽 amari saya piano homura- wring lecana litoluna cookiezi asahina momoko mokori kawaiwkyik rizia vellya alyce 5hiki
BeatmapID:1165781
BeatmapSetID:519521

[Difficulty]
HPDrainRate:5
CircleSize:3.5
OverallDifficulty:6
ApproachRate:7.5
SliderMultiplier:1.4
SliderTickRate:2

[Events]
//Background and Video events
0,0,"BGwring.jpg",0,0
//Break Periods
//Storyboard Layer 0 (Background)
//Storyboard Layer 1 (Fail)
//Storyboard Layer 2 (Pass)
//Storyboard Layer 3 (Foreground)
//Storyboard Sound Samples

[TimingPoints]
2627,315.789473684211,4,2,2,40,1,0
2627,-100,4,2,2,40,0,0
11469,-100,4,2,2,40,0,0
12732,-100,4,2,1,60,0,0
21574,-100,4,2,1,60,0,0
22837,-133.333333333333,4,2,2,40,0,0
27890,-133.333333333333,4,2,1,40,0,0
28205,-133.333333333333,4,2,2,40,0,0
31679,-133.333333333333,4,2,2,40,0,0
43048,-100,4,2,1,60,0,0
47311,-100,4,2,1,65,0,0
47469,-100,4,2,1,70,0,0
47627,-100,4,2,1,75,0,0
47784,-100,4,2,1,80,0,0
47942,-100,4,2,1,85,0,0
48100,-100,4,2,1,70,0,0
53153,-100,4,2,1,80,0,0
55679,-100,4,2,1,40,0,0
55995,-100,4,2,1,50,0,0
56311,-100,4,2,1,60,0,0
56784,-100,4,2,1,70,0,0
56942,-100,4,2,2,70,0,0
58205,-100,4,2,1,100,0,1
63179,-100,4,2,1,5,0,1
63258,-100,4,2,1,100,0,1
68311,-100,4,2,1,60,0,1
69574,-100,4,2,1,70,0,1
70837,-100,4,2,1,80,0,1
72100,-100,4,2,1,90,0,1
73363,-100,4,2,1,100,0,1
78416,-100,4,2,1,60,0,0
78890,-100,4,2,2,60,0,0
87100,-100,4,2,2,60,0,0
88521,-100,4,2,2,40,0,0
94205,-100,4,2,2,30,0,0
94837,-100,4,2,2,20,0,0
95469,-100,4,2,2,10,0,0
96100,-100,4,2,2,5,0,0

[Colours]
Combo1 : 214,164,107
Combo2 : 186,186,199
Combo3 : 175,254,58
Combo4 : 112,96,255

[HitObjects]
434,94,2627,6,0,P|424:56|434:11,2,70,4|0|0,0:0|0:0|0:0,0:0:0:0:
490,155,3100,2,0,P|432:121|347:131,1,140,2|0,0:0|0:0,0:0:0:0:
308,190,3574,2,0,L|317:274,1,70,2|0,0:0|0:0,0:0:0:0:
280,336,3890,6,0,P|217:368|152:354,1,140,2|0,0:0|0:0,0:0:0:0:
100,287,4363,2,0,L|111:135,1,140,2|0,0:0|0:0,0:0:0:0:
27,127,4837,2,0,P|40:95|67:73,1,70,2|0,0:0|0:0,0:0:0:0:
110,147,5153,5,2,0:0:0:0:
191,169,5311,1,0,0:0:0:0:
264,128,5469,1,0,0:0:0:0:
305,54,5627,2,0,L|316:201,1,140,2|0,0:0|0:0,0:0:0:0:
325,277,6100,2,0,P|289:276|256:255,1,70,2|0,0:0|0:0,0:0:0:0:
233,179,6416,6,0,P|186:232|120:242,1,140,2|0,0:0|0:0,0:0:0:0:
48,287,6890,2,0,P|36:254|47:201,2,70,2|0|0,0:0|0:0|0:0,0:0:0:0:
120,329,7363,2,0,P|97:355|46:372,1,70,2|0,0:0|0:0,0:0:0:0:
273,334,7679,6,0,P|235:332|198:311,2,70,2|0|0,0:0|0:0|0:0,0:0:0:0:
392,229,8153,2,0,P|323:223|260:250,1,140,2|0,0:0|0:0,0:0:0:0:
206,318,8627,2,0,P|177:276|177:236,1,70,2|0,0:0|0:0,0:0:0:0:
106,209,8942,6,0,L|257:222,1,140,2|0,0:0|0:0,0:0:0:0:
393,92,9574,2,0,L|242:105,1,140,2|0,0:0|0:0,0:0:0:0:
46,146,10205,6,0,P|19:209|58:282,1,140,2|0,0:0|0:0,0:0:0:0:
122,306,10679,2,0,P|191:294|249:344,1,140,2|0,0:0|0:0,0:0:0:0:
326,349,11153,2,0,P|349:320|398:309,1,70,2|0,0:0|0:0,0:0:0:0:
455,271,11469,6,0,P|400:226|324:243,1,140,2|0,0:0|0:0,0:0:0:0:
264,189,11942,2,0,P|230:129|253:55,1,140,2|0,0:0|0:0,0:0:0:0:
161,44,12416,2,0,L|114:33,3,35
85,28,12732,6,0,L|98:180,1,140,4|2,0:0|0:0,0:0:0:0:
169,209,13205,1,0,0:0:0:0:
197,288,13363,2,0,L|182:364,1,70,2|0,0:0|0:0,0:0:0:0:
102,330,13679,2,0,L|87:254,1,70,2|0,0:0|0:0,0:0:0:0:
96,167,13995,6,0,P|165:186|229:155,1,140,2|2,0:0|0:0,0:0:0:0:
271,88,14469,2,0,P|331:54|403:68,1,140,8|2,0:0|0:0,0:0:0:0:
460,122,14942,2,0,L|451:203,1,70,2|0,0:0|0:0,0:0:0:0:
356,321,15258,6,0,L|370:192,1,105,4|0,0:0|0:0,0:0:0:0:
344,180,15574,2,0,P|311:167|267:174,2,70,2|0|2,0:0|0:0|0:0,0:0:0:0:
218,230,16048,2,0,P|198:201|193:167,1,70,0|2,0:0|0:0,0:0:0:0:
299,252,16363,2,0,P|284:283|256:304,1,70,0|2,0:0|0:0,0:0:0:0:
277,169,16679,5,8,0:0:0:0:
277,147,16758,1,8,0:0:0:0:
282,126,16837,2,0,P|297:93|324:73,1,70,2|0,0:0|0:0,0:0:0:0:
388,127,17153,2,0,P|429:128|466:146,1,70,2|0,0:0|0:0,0:0:0:0:
456,223,17469,2,0,P|481:254|488:290,1,70,2|0,0:0|0:0,0:0:0:0:
414,323,17784,6,0,P|363:366|281:358,1,140,0|2,0:0|0:0,0:0:0:0:
192,277,18258,2,0,P|266:284|349:281,1,140,8|0,0:0|0:0,0:0:0:0:
374,209,18732,1,2,0:0:0:0:
374,209,18890,1,0,0:0:0:0:
321,142,19048,6,0,P|290:81|314:5,1,140,0|2,0:0|0:0,0:0:0:0:
209,85,19521,2,0,P|143:104|75:66,1,140,8|2,0:0|0:0,0:0:0:0:
13,123,19995,1,2,0:0:0:0:
13,123,20153,1,0,0:0:0:0:
61,191,20311,6,0,L|68:343,1,140,4|0,0:0|0:0,0:0:0:0:
154,364,20784,1,0,0:0:0:0:
154,364,20942,2,0,P|190:366|231:343,1,70,4|0,0:3|0:0,0:0:0:0:
272,286,21258,1,0,0:0:0:0:
302,207,21416,1,0,0:0:0:0:
270,129,21574,1,2,0:0:0:0:
256,192,21653,12,4,22837,0:3:0:0:
138,93,23153,6,0,P|87:100|42:68,2,105.000004005432,2|0|2,0:0|0:0|0:0,0:0:0:0:
195,39,23942,1,0,0:0:0:0:
255,89,24100,6,0,L|243:204,1,105.000004005432
302,247,24574,1,0,0:0:0:0:
281,323,24732,2,0,P|253:316|214:316,1,52.5000020027161,2|0,0:0|0:0,0:0:0:0:
169,263,25048,2,0,P|140:264|110:273,1,52.5000020027161,2|0,0:0|0:0,0:0:0:0:
39,278,25363,5,2,0:0:0:0:
24,271,25679,2,0,L|31:335,1,52.5000020027161,2|0,0:0|0:0,0:0:0:0:
7,186,25995,2,0,P|56:193|112:168,1,105.000004005432,0|2,0:0|0:0,0:0:0:0:
163,117,26469,1,0,0:0:0:0:
207,51,26627,6,0,L|269:46,1,52.5000020027161
336,30,26942,2,0,P|314:79|343:143,1,105.000004005432,0|2,0:0|0:0,0:0:0:0:
394,83,27416,1,0,0:0:0:0:
398,161,27574,2,0,P|377:189|345:203,1,52.5000020027161,2|0,0:0|0:0,0:0:0:0:
283,192,27890,6,0,P|241:218|180:210,1,105.000004005432,2|0,0:0|0:0,0:0:0:0:
328,305,28521,2,0,P|370:279|431:287,1,105.000004005432,2|0,0:0|0:0,0:0:0:0:
463,214,28995,6,0,P|487:167|476:117,1,105.000004005432,2|0,0:0|0:0,0:0:0:0:
420,61,29469,2,0,P|393:65|359:64,1,52.5000020027161
291,45,29784,2,0,L|299:116,1,52.5000020027161
220,190,30100,2,0,L|228:119,1,52.5000020027161
173,260,30416,6,0,P|226:244|273:257,1,105.000004005432,2|0,0:0|0:0,0:0:0:0:
337,302,30890,2,0,P|319:253|330:201,1,105.000004005432,2|0,0:0|0:0,0:0:0:0:
384,146,31363,1,0,0:0:0:0:
373,67,31521,1,0,0:0:0:0:
294,57,31679,5,0,0:0:0:0:
222,23,31837,2,0,L|157:16,2,52.5000020027161,2|2|2,0:0|0:0|0:0,0:0:0:0:
294,57,32311,6,0,P|277:84|241:100,1,52.5000020027161,2|0,3:2|0:0,0:0:0:0:
180,94,32627,2,0,P|153:104|133:129,1,52.5000020027161,2|0,3:2|0:0,0:0:0:0:
59,132,32942,6,0,P|48:77|66:25,2,105.000004005432,2|0|0,0:0|0:0|0:0,0:0:0:0:
107,194,33732,2,0,P|118:249|100:301,1,105.000004005432,2|0,0:0|0:0,0:0:0:0:
173,257,34205,6,0,L|236:254,1,52.5000020027161,2|0,0:0|0:0,0:0:0:0:
294,293,34521,2,0,L|288:363,1,52.5000020027161
371,264,34837,2,0,L|377:194,1,52.5000020027161,2|0,3:2|0:0,0:0:0:0:
438,311,35153,2,0,L|501:314,1,52.5000020027161
499,233,35469,6,0,P|517:185|509:133,2,105.000004005432,2|2|0,0:0|0:0|0:0,0:0:0:0:
440,96,36258,2,0,P|394:74|339:84,1,105.000004005432,2|0,0:0|0:0,0:0:0:0:
289,23,36732,6,0,L|219:31,1,52.5000020027161,2|0,0:0|0:0,0:0:0:0:
173,76,37048,2,0,L|160:148,1,52.5000020027161
235,224,37363,2,0,L|222:152,1,52.5000020027161,2|0,3:2|0:0,0:0:0:0:
302,154,37679,2,0,L|372:162,1,52.5000020027161
419,205,37995,5,2,0:0:0:0:
428,214,38311,2,0,P|443:263|423:334,1,105.000004005432,2|0,0:0|0:0,0:0:0:0:
355,303,38784,2,0,P|325:296|288:297,1,52.5000020027161,0|2,0:0|0:0,0:0:0:0:
224,286,39100,2,0,L|231:347,2,52.5000020027161
165,232,39574,6,0,P|188:185|183:131,1,105.000004005432,2|0,0:0|0:0,0:0:0:0:
244,82,40048,1,2,0:0:0:0:
271,155,40205,2,0,P|314:167|359:160,1,78.7500030040742,2|0,0:0|0:0,0:0:0:0:
381,142,40521,6,0,L|371:269,1,105.000004005432,2|0,0:0|0:0,0:0:0:0:
387,324,40995,1,0,0:0:0:0:
318,363,41153,2,0,P|258:371|204:349,1,105.000004005432,2|0,3:2|0:0,0:0:0:0:
178,287,41627,2,0,L|112:293,1,52.5000020027161
78,229,41942,5,2,0:0:0:0:
100,153,42100,1,2,0:0:0:0:
126,78,42258,1,2,0:0:0:0:
48,92,42416,6,0,P|29:117|22:155,1,52.5000020027161,2|0,3:2|0:0,0:0:0:0:
155,213,42732,2,0,P|175:181|179:146,1,52.5000020027161,2|0,3:2|0:0,0:0:0:0:
180,21,43048,6,0,P|248:51|314:40,1,140,4|2,0:0|0:0,0:0:0:0:
393,22,43521,2,0,P|395:61|406:101,1,70,0|2,0:0|0:0,0:0:0:0:
463,149,43837,2,0,P|456:191|436:237,1,70,0|2,0:0|0:0,0:0:0:0:
411,293,44153,6,0,P|355:266|271:289,1,140,8|8,0:3|0:3,0:0:0:0:
206,320,44627,2,0,L|136:324,1,70,8|0,0:3|0:0,0:0:0:0:
83,258,44942,1,2,0:0:0:0:
83,258,45100,1,0,0:0:0:0:
113,179,45258,2,0,L|183:175,1,70,2|0,0:0|0:0,0:0:0:0:
238,111,45574,6,0,P|213:176|254:244,1,140,4|2,0:0|0:0,0:0:0:0:
297,170,46048,1,0,0:0:0:0:
242,235,46205,2,0,P|276:252|320:251,1,70,2|0,0:0|0:0,0:0:0:0:
374,202,46521,1,2,0:0:0:0:
363,118,46679,6,0,P|298:87|234:113,1,140,8|8,0:3|0:3,0:0:0:0:
182,175,47153,2,0,P|163:206|161:253,1,70,2|0,0:0|0:0,0:0:0:0:
181,320,47469,1,2,0:0:0:0:
260,293,47627,1,8,0:0:0:0:
339,266,47784,1,2,0:0:0:0:
370,343,47942,1,8,0:0:0:0:
260,293,48100,6,0,P|242:223|256:153,1,140,4|0,0:0|0:0,0:0:0:0:
320,105,48574,1,2,0:0:0:0:
262,43,48732,2,0,P|331:68|418:59,1,140,8|2,0:0|0:0,0:0:0:0:
447,131,49205,1,2,0:0:0:0:
414,208,49363,6,0,L|339:221,1,70,0|0,3:0|3:0,0:0:0:0:
273,265,49679,2,0,P|227:288|160:278,1,105,2|0,0:0|0:0,0:0:0:0:
138,262,49995,2,0,L|145:175,1,70,8|0,0:0|0:0,0:0:0:0:
199,129,50311,2,0,L|192:42,1,70,8|0,0:3|0:0,0:0:0:0:
49,102,50627,6,0,P|80:114|123:113,1,70,2|0,0:0|0:0,0:0:0:0:
225,210,50942,2,0,P|286:180|358:187,1,140,0|8,0:0|0:0,0:0:0:0:
426,138,51416,1,2,0:0:0:0:
350,101,51574,6,0,P|408:56|479:71,2,140,2|2|0,0:0|0:3|1:0,0:0:0:0:
297,35,52363,1,2,0:0:0:0:
216,9,52521,2,0,P|182:5|137:13,1,70,0|0,3:0|0:0,0:0:0:0:
92,74,52837,2,0,P|59:86|27:114,1,70,8|0,0:3|0:0,0:0:0:0:
37,192,53153,6,0,P|13:218|3:256,1,70,4|0,0:0|3:0,0:0:0:0:
73,297,53469,2,0,P|71:338|87:377,1,70,2|0,0:0|3:0,0:0:0:0:
98,375,53705,1,0,0:0:0:0:
118,376,53784,2,0,P|160:374|190:364,1,70,2|0,0:0|3:0,0:0:0:0:
275,293,54100,2,0,L|270:362,1,70,2|0,0:0|3:0,0:0:0:0:
359,279,54416,6,0,P|347:246|310:214,1,70,2|0,0:0|3:0,0:0:0:0:
251,176,54732,2,0,P|324:185|378:142,1,140,2|2,0:0|0:0,0:0:0:0:
369,63,55205,1,0,3:0:0:0:
291,29,55363,2,0,L|216:35,1,70,2|0,0:0|3:0,0:0:0:0:
200,39,55600,1,0,0:0:0:0:
184,53,55679,6,0,P|172:88|174:127,1,70,4|0,0:0|0:0,0:0:0:0:
89,137,55995,2,0,P|100:171|101:215,1,70,2|0,0:0|0:0,0:0:0:0:
41,345,56311,5,2,0:0:0:0:
104,289,56469,1,2,0:0:0:0:
174,334,56627,1,2,0:0:0:0:
237,279,56784,1,2,3:2:0:0:
237,279,56863,1,0,0:0:0:0:
237,279,56942,6,0,B|210:188|287:126|287:126|336:197|303:237,1,280,2|0,0:0|0:0,0:0:0:0:
317,238,57890,6,0,L|353:245,3,35,2|2|2|2,0:0|0:0|0:0|0:0,0:0:0:0:
393,239,58205,2,0,P|396:164|363:90,1,140,4|8,0:0|0:0,0:0:0:0:
316,41,58679,1,0,0:0:0:0:
231,147,58837,2,0,P|268:144|303:114,1,70,0|2,0:0|0:0,0:0:0:0:
236,64,59153,1,8,0:0:0:0:
160,101,59311,2,0,P|148:169|190:223,1,140
262,338,59784,6,0,L|252:258,1,70,8|2,0:0|0:0,0:0:0:0:
339,169,60100,2,0,L|329:249,1,70,0|2,0:0|0:0,0:0:0:0:
415,131,60416,2,0,L|405:51,1,70,8|2,0:0|0:0,0:0:0:0:
290,103,60732,6,0,P|348:141|428:122,1,140,4|8,0:0|0:0,0:0:0:0:
481,79,61205,1,0,0:0:0:0:
497,161,61363,2,0,P|498:200|489:245,1,70,0|2,0:0|0:0,0:0:0:0:
426,282,61679,1,8,0:0:0:0:
349,247,61837,2,0,P|278:237|210:283,1,140
91,314,62311,6,0,L|160:328,1,70,8|2,0:0|0:0,0:0:0:0:
75,233,62627,2,0,L|6:246,1,70,0|2,0:0|0:0,0:0:0:0:
167,167,62942,2,0,L|99:154,1,70,8|2,0:0|0:0,0:0:0:0:
2,90,63258,6,0,L|70:77,1,70,4|2,0:0|0:0,0:0:0:0:
215,58,63574,2,0,P|264:96|282:153,1,105,8|0,0:0|0:0,0:0:0:0:
277,177,63890,2,0,L|259:265,1,70,0|2,0:0|0:0,0:0:0:0:
292,328,64205,1,8,0:0:0:0:
292,328,64363,1,0,0:0:0:0:
371,299,64521,6,0,P|357:264|359:227,1,70
463,160,64837,2,0,L|394:155,1,70,8|2,0:0|0:0,0:0:0:0:
309,161,65153,2,0,P|280:180|234:179,1,70,0|2,0:0|0:0,0:0:0:0:
330,21,65469,2,0,P|345:53|347:88,1,70,4|2,0:0|0:0,0:0:0:0:
241,80,65784,5,4,0:0:0:0:
173,136,65942,2,0,L|105:121,1,70,2|2,0:0|0:0,0:0:0:0:
245,182,66258,5,2,0:0:0:0:
313,242,66416,2,0,L|381:227,1,70,4|2,0:0|0:0,0:0:0:0:
159,210,66732,6,0,L|138:277,1,70,2|2,0:0|0:0,0:0:0:0:
261,92,67048,2,0,L|215:41,2,70,4|2|0,0:0|0:0|1:0,0:0:0:0:
245,182,67521,5,0,0:0:0:0:
245,182,67679,2,0,P|310:173|352:113,1,140,2|8,0:0|0:0,0:0:0:0:
104,104,68311,6,0,P|70:161|91:242,1,140,4|8,0:0|0:0,0:0:0:0:
137,294,68784,1,2,0:0:0:0:
215,263,68942,2,0,P|284:256|345:292,1,140,0|8,3:0|0:0,0:0:0:0:
403,350,69416,1,2,0:0:0:0:
476,309,69574,6,0,L|485:227,1,70,4|0,0:0|0:0,0:0:0:0:
405,123,69890,2,0,L|414:205,1,70,8|2,0:0|0:0,0:0:0:0:
320,176,70205,2,0,P|252:191|176:150,1,140,0|8,3:0|0:0,0:0:0:0:
126,220,70679,1,2,0:0:0:0:
107,137,70837,6,0,P|129:100|167:80,1,70,4|2,0:0|0:0,0:0:0:0:
272,26,71153,2,0,P|259:56|261:107,1,70,8|2,0:0|0:0,0:0:0:0:
320,176,71469,2,0,L|328:255,1,70,0|2,3:0|0:0,0:0:0:0:
235,322,71784,2,0,L|243:243,1,70,8|2,0:0|0:0,0:0:0:0:
183,191,72100,6,0,B|140:169|140:169|39:190,1,140,4|0,0:0|1:0,0:0:0:0:
86,73,72574,1,2,0:0:0:0:
205,72,72732,2,0,B|248:94|248:94|349:73,1,140,2|2,0:0|0:0,0:0:0:0:
348,56,73363,6,0,L|362:199,1,140,4|0,0:0|1:0,0:0:0:0:
438,230,73837,1,2,0:0:0:0:
438,230,73995,2,0,L|515:258,1,70,0|0,1:0|0:0,0:0:0:0:
508,338,74311,1,0,1:0:0:0:
428,366,74469,1,2,0:0:0:0:
380,296,74627,6,0,P|314:285|253:337,1,140,4|0,0:0|1:0,0:0:0:0:
197,267,75100,1,2,0:0:0:0:
197,267,75258,2,0,P|160:251|137:223,1,70,0|0,1:0|0:0,0:0:0:0:
67,187,75574,2,0,P|54:152|54:113,1,70,0|0,1:0|0:0,0:0:0:0:
145,62,75890,5,4,0:0:0:0:
145,62,76048,2,0,L|136:139,1,70,2|0,0:1|1:0,0:0:0:0:
217,185,76363,2,0,L|226:108,1,70,2|0,0:1|1:0,0:0:0:0:
298,213,76679,2,0,P|278:249|249:267,1,70,2|0,0:1|1:0,0:0:0:0:
225,115,76995,6,0,P|286:89|359:104,1,140,4|2,0:0|0:1,0:0:0:0:
394,193,77469,1,2,0:0:0:0:
486,161,77627,1,0,0:0:0:0:
485,258,77784,2,0,L|484:310,3,35,2|0|0|0,0:0|0:0|0:0|0:0,0:0:0:0:
446,312,78100,2,0,L|416:362,3,35,2|0|0|0,0:0|0:0|0:0|0:0,0:0:0:0:
386,348,78416,6,0,P|320:366|249:352,1,140,4|2,0:0|0:1,0:0:0:0:
183,301,78890,1,0,0:0:0:0:
170,307,79205,2,0,L|172:380,2,70,0|2|0,0:0|0:0|0:0,0:0:0:0:
244,266,79679,6,0,P|279:214|266:133,1,140,2|2,0:0|0:0,0:0:0:0:
219,72,80153,1,0,0:0:0:0:
219,72,80311,2,0,B|170:78|170:78|129:63|129:63|83:69,1,140,2|2,0:0|0:0,0:0:0:0:
30,135,80784,1,2,0:0:0:0:
112,149,80942,6,0,L|94:304,1,140,2|0,0:0|0:0,0:0:0:0:
39,351,81416,2,0,P|103:319|167:332,1,140,2|0,0:0|0:0,0:0:0:0:
247,304,81890,1,2,0:0:0:0:
225,222,82048,1,2,0:0:0:0:
296,178,82205,6,0,P|332:121|321:50,2,140,2|2|2,0:0|0:0|0:0,0:0:0:0:
167,332,83153,1,2,0:0:0:0:
127,158,83469,6,0,P|195:147|258:177,1,140,2|0,0:0|0:0,0:0:0:0:
338,153,83942,2,0,B|345:204|345:204|322:233|322:233|330:283,1,140,2|0,0:0|0:0,0:0:0:0:
256,348,84416,2,0,L|244:278,1,70,2|2,0:0|0:0,0:0:0:0:
163,243,84732,6,0,P|188:180|254:162,1,140,2|0,0:0|0:0,0:0:0:0:
338,153,85205,1,0,0:0:0:0:
400,96,85363,2,0,P|329:94|258:62,1,140,2|0,0:0|0:0,0:0:0:0:
50,162,85995,6,0,P|121:164|192:196,1,140,2|0,0:0|0:0,0:0:0:0:
349,374,86627,2,0,P|381:316|329:283,1,140,2|0,0:0|0:0,0:0:0:0:
257,239,87100,1,0,0:0:0:0:
331,199,87258,6,0,P|392:169|474:177,1,140,2|0,0:0|0:0,0:0:0:0:
180,215,87890,2,0,P|113:217|49:179,1,140,2|0,0:0|0:0,0:0:0:0:
247,68,88521,6,0,B|328:58|357:128|345:190|258:206|258:206|284:205|312:218|324:248|309:280|323:321|350:335|350:335|377:339,1,420,2|0,0:0|0:0,0:0:0:0:
180,215,89784,2,0,P|189:285|193:362,1,140,2|0,0:0|0:0,0:0:0:0:
168,75,90416,2,0,P|171:142|181:222,1,140,2|0,0:0|0:0,0:0:0:0:
317,116,91048,6,0,P|389:110|442:152,1,140,2|0,0:0|0:0,0:0:0:0:
350,328,91679,2,0,P|358:258|364:187,1,140,2|0,0:0|0:0,0:0:0:0:
173,145,92311,2,0,P|103:155|32:131,1,140,2|0,0:0|0:0,0:0:0:0:
238,92,92942,5,2,0:0:0:0:
238,92,93100,1,2,0:0:0:0:
270,169,93258,1,2,0:0:0:0:
229,242,93416,1,2,0:0:0:0:
262,318,93574,5,4,0:0:0:0:
256,192,93732,12,0,96100,0:0:0:0:
