osu file format v14

[General]
AudioFilename: audio.mp3
AudioLeadIn: 0
PreviewTime: 57811
Countdown: 0
SampleSet: Soft
StackLeniency: 0.7
Mode: 0
LetterboxInBreaks: 0
WidescreenStoryboard: 0

[Editor]
Bookmarks: 61995,67679,71153,71311,71627
DistanceSpacing: 1.6
BeatDivisor: 4
GridSize: 4
TimelineZoom: 2.1

[Metadata]
Title:Re:TrymenT
TitleUnicode:Re:TrymenT
Artist:Hotaru Murasaki
ArtistUnicode:紫咲ほたる
Creator:eLy
Version:vellya's Expert
Source:Re:LieF〜親愛なるあなたへ〜
Tags:rask レリーフ relief Shin'ainaru Anata e DeaR YoU retryment opening op short eroge game visual novel 甘利紗陽 amari saya piano homura- wring lecana litoluna cookiezi asahina momoko mokori kawaiwkyik rizia vellya alyce 5hiki
BeatmapID:1458573
BeatmapSetID:519521

[Difficulty]
HPDrainRate:6
CircleSize:4
OverallDifficulty:8
ApproachRate:9
SliderMultiplier:1.72
SliderTickRate:2

[Events]
//Background and Video events
0,0,"BGvellya.jpg",0,0
//Break Periods
//Storyboard Layer 0 (Background)
//Storyboard Layer 1 (Fail)
//Storyboard Layer 2 (Pass)
//Storyboard Layer 3 (Foreground)
//Storyboard Sound Samples

[TimingPoints]
2627,315.789473684211,4,2,52,30,1,0
2784,-166.666666666667,4,2,52,30,0,0
2942,-166.666666666667,4,2,52,30,0,0
3100,-166.666666666667,4,2,51,30,0,0
3179,-166.666666666667,4,2,51,30,0,0
3416,-166.666666666667,4,2,51,30,0,0
3574,-166.666666666667,4,2,48,30,0,0
3890,-166.666666666667,4,2,40,30,0,0
4048,-166.666666666667,4,2,40,30,0,0
4363,-166.666666666667,4,2,41,30,0,0
4442,-166.666666666667,4,2,41,30,0,0
4679,-166.666666666667,4,2,41,30,0,0
4837,-166.666666666667,4,2,46,30,0,0
5153,-166.666666666667,4,2,44,30,0,0
5311,-166.666666666667,4,2,34,30,0,0
5469,-166.666666666667,4,2,38,30,0,0
5627,-166.666666666667,4,2,40,30,0,0
5705,-166.666666666667,4,2,40,30,0,0
5942,-166.666666666667,4,2,34,30,0,0
6100,-166.666666666667,4,2,42,30,0,0
6179,-166.666666666667,4,2,42,30,0,0
6416,-166.666666666667,4,2,41,30,0,0
6495,-166.666666666667,4,2,41,30,0,0
6732,-166.666666666667,4,2,41,30,0,0
6890,-166.666666666667,4,2,48,30,0,0
7048,-166.666666666667,4,2,38,30,0,0
7363,-166.666666666667,4,2,51,30,0,0
7679,-166.666666666667,4,2,52,30,0,0
7837,-166.666666666667,4,2,52,30,0,0
7995,-166.666666666667,4,2,52,30,0,0
8153,-166.666666666667,4,2,51,30,0,0
8232,-166.666666666667,4,2,51,30,0,0
8469,-166.666666666667,4,2,51,30,0,0
8627,-166.666666666667,4,2,48,30,0,0
8942,-166.666666666667,4,2,42,30,0,0
9258,-166.666666666667,4,2,36,30,0,0
9574,-166.666666666667,4,2,40,30,0,0
9732,-166.666666666667,4,2,40,30,0,0
9890,-166.666666666667,4,2,44,30,0,0
10048,-166.666666666667,4,2,44,30,0,0
10205,-166.666666666667,4,2,46,30,0,0
10284,-166.666666666667,4,2,46,30,0,0
10521,-166.666666666667,4,2,46,30,0,0
10679,-166.666666666667,4,2,44,30,0,0
10758,-166.666666666667,4,2,44,30,0,0
10995,-166.666666666667,4,2,44,30,0,0
11153,-166.666666666667,4,2,48,30,0,0
11232,-166.666666666667,4,2,48,30,0,0
11469,-166.666666666667,4,2,51,40,0,0
11548,-166.666666666667,4,2,51,40,0,0
11942,-166.666666666667,4,2,52,40,0,0
12021,-166.666666666667,4,2,52,40,0,0
12416,-111.111111111111,4,2,54,50,0,0
12495,-111.111111111111,4,2,54,50,0,0
12574,-111.111111111111,4,2,54,50,0,0
12653,-111.111111111111,4,2,54,50,0,0
12732,-111.111111111111,4,2,52,60,0,0
12890,-111.111111111111,4,2,52,60,0,0
13995,-111.111111111111,4,2,78,60,0,0
14153,-111.111111111111,4,2,78,60,0,0
14469,-111.111111111111,4,2,77,60,0,0
14548,-111.111111111111,4,2,77,60,0,0
14784,-111.111111111111,4,2,81,60,0,0
14942,-111.111111111111,4,2,76,60,0,0
15021,-111.111111111111,4,2,76,60,0,0
15258,-111.111111111111,4,2,76,60,0,0
15495,-111.111111111111,4,2,76,60,0,0
15574,-111.111111111111,4,2,77,60,0,0
15653,-111.111111111111,4,2,77,60,0,0
15732,-111.111111111111,4,2,76,60,0,0
15890,-111.111111111111,4,2,83,50,0,0
15969,-111.111111111111,4,2,76,60,0,0
16048,-111.111111111111,4,2,72,60,0,0
16363,-111.111111111111,4,2,68,60,0,0
16679,-111.111111111111,4,2,54,60,0,0
16758,-111.111111111111,4,2,56,60,0,0
16837,-111.111111111111,4,2,57,60,0,0
16995,-111.111111111111,4,2,56,60,0,0
17074,-111.111111111111,4,2,56,60,0,0
17153,-111.111111111111,4,2,54,60,0,0
17311,-111.111111111111,4,2,52,60,0,0
17390,-111.111111111111,4,2,52,60,0,0
17469,-111.111111111111,4,2,51,60,0,0
17548,-111.111111111111,4,2,51,60,0,0
17627,-111.111111111111,4,2,48,60,0,0
17784,-111.111111111111,4,2,74,60,0,0
18100,-111.111111111111,4,2,48,60,0,0
18258,-111.111111111111,4,2,74,60,0,0
18416,-111.111111111111,4,2,83,50,0,0
18574,-111.111111111111,4,2,51,60,0,0
18732,-111.111111111111,4,2,46,60,0,0
18890,-111.111111111111,4,2,51,60,0,0
19048,-111.111111111111,4,2,74,60,0,0
19205,-111.111111111111,4,2,46,60,0,0
19363,-111.111111111111,4,2,50,60,0,0
19521,-111.111111111111,4,2,76,60,0,0
19679,-111.111111111111,4,2,83,50,0,0
19837,-111.111111111111,4,2,50,60,0,0
19995,-111.111111111111,4,2,74,60,0,0
20153,-111.111111111111,4,2,74,60,0,0
20311,-111.111111111111,4,2,73,60,0,0
20469,-111.111111111111,4,2,50,60,0,0
20627,-111.111111111111,4,2,46,60,0,0
20784,-111.111111111111,4,2,44,60,0,0
20942,-111.111111111111,4,2,43,50,0,0
21100,-111.111111111111,4,2,40,50,0,0
21258,-111.111111111111,4,2,36,50,0,0
21416,-111.111111111111,4,2,34,50,0,0
21574,-111.111111111111,4,2,33,40,0,0
22048,-111.111111111111,4,2,1,40,0,0
22837,-166.666666666667,4,2,10,30,0,0
23153,-166.666666666667,4,2,34,35,0,0
23311,-166.666666666667,4,2,34,35,0,0
23469,-166.666666666667,4,2,34,35,0,0
23784,-166.666666666667,4,2,34,35,0,0
23942,-166.666666666667,4,2,32,35,0,0
24100,-166.666666666667,4,2,34,35,0,0
24416,-166.666666666667,4,2,36,35,0,0
24574,-166.666666666667,4,2,36,35,0,0
24732,-166.666666666667,4,2,34,35,0,0
24811,-166.666666666667,4,2,34,35,0,0
25048,-166.666666666667,4,2,32,35,0,0
25127,-166.666666666667,4,2,32,35,0,0
25363,-166.666666666667,4,2,11,45,0,0
25521,-166.666666666667,4,2,11,45,0,0
25679,-166.666666666667,4,2,34,30,0,0
25837,-166.666666666667,4,2,34,30,0,0
25995,-166.666666666667,4,2,34,30,0,0
26311,-166.666666666667,4,2,34,30,0,0
26469,-166.666666666667,4,2,32,30,0,0
26627,-166.666666666667,4,2,34,30,0,0
26942,-166.666666666667,4,2,36,30,0,0
27258,-166.666666666667,4,2,34,30,0,0
27416,-166.666666666667,4,2,34,30,0,0
27574,-166.666666666667,4,2,32,30,0,0
27890,-166.666666666667,4,2,12,45,0,0
28048,-166.666666666667,4,2,12,45,0,0
28205,-166.666666666667,4,2,28,30,0,0
28363,-166.666666666667,4,2,28,30,0,0
28837,-166.666666666667,4,2,32,30,0,0
28995,-166.666666666667,4,2,34,30,0,0
29469,-166.666666666667,4,2,32,30,0,0
29784,-166.666666666667,4,2,31,30,0,0
29942,-166.666666666667,4,2,31,30,0,0
30100,-166.666666666667,4,2,32,30,0,0
30416,-166.666666666667,4,2,13,30,0,0
30732,-166.666666666667,4,2,32,30,0,0
30890,-166.666666666667,4,2,32,30,0,0
31048,-166.666666666667,4,2,32,30,0,0
31363,-166.666666666667,4,2,38,30,0,0
31442,-166.666666666667,4,2,38,30,0,0
31521,-166.666666666667,4,2,38,30,0,0
31679,-166.666666666667,4,2,34,30,0,0
31837,-166.666666666667,4,2,34,30,0,0
31916,-166.666666666667,4,2,34,30,0,0
31995,-166.666666666667,4,2,48,45,0,0
32153,-166.666666666667,4,2,46,42,0,0
32311,-166.666666666667,4,2,42,40,0,0
32469,-166.666666666667,4,2,41,38,0,0
32627,-166.666666666667,4,2,38,36,0,0
32784,-166.666666666667,4,2,34,30,0,0
32942,-166.666666666667,4,2,14,30,0,0
33258,-166.666666666667,4,2,36,30,0,0
33416,-166.666666666667,4,2,36,30,0,0
33574,-166.666666666667,4,2,34,30,0,0
33732,-166.666666666667,4,2,36,30,0,0
33890,-166.666666666667,4,2,36,30,0,0
34048,-166.666666666667,4,2,36,30,0,0
34205,-166.666666666667,4,2,37,30,0,0
34521,-166.666666666667,4,2,36,30,0,0
34837,-166.666666666667,4,2,34,30,0,0
35153,-166.666666666667,4,2,32,30,0,0
35311,-166.666666666667,4,2,32,30,0,0
35469,-166.666666666667,4,2,15,45,0,0
35627,-166.666666666667,4,2,15,45,0,0
35784,-166.666666666667,4,2,36,30,0,0
35942,-166.666666666667,4,2,36,30,0,0
36100,-166.666666666667,4,2,34,30,0,0
36258,-166.666666666667,4,2,36,30,0,0
36416,-166.666666666667,4,2,36,30,0,0
36574,-166.666666666667,4,2,36,30,0,0
36732,-166.666666666667,4,2,16,30,0,0
36890,-166.666666666667,4,2,16,30,0,0
37048,-166.666666666667,4,2,36,30,0,0
37205,-166.666666666667,4,2,36,30,0,0
37363,-166.666666666667,4,2,34,30,0,0
37521,-166.666666666667,4,2,34,30,0,0
37679,-166.666666666667,4,2,32,30,0,0
37837,-166.666666666667,4,2,32,30,0,0
37995,-166.666666666667,4,2,17,45,0,0
38153,-166.666666666667,4,2,17,45,0,0
38311,-166.666666666667,4,2,28,30,0,0
38390,-166.666666666667,4,2,28,30,0,0
38548,-166.666666666667,4,2,28,30,0,0
38627,-166.666666666667,4,2,28,30,0,0
38784,-166.666666666667,4,2,28,30,0,0
38942,-166.666666666667,4,2,32,30,0,0
39100,-166.666666666667,4,2,34,30,0,0
39258,-166.666666666667,4,2,34,30,0,0
39416,-166.666666666667,4,2,34,30,0,0
39574,-166.666666666667,4,2,32,30,0,0
39653,-166.666666666667,4,2,32,30,0,0
39890,-166.666666666667,4,2,31,30,0,0
40048,-166.666666666667,4,2,31,30,0,0
40205,-166.666666666667,4,2,32,30,0,0
40363,-166.666666666667,4,2,32,30,0,0
40521,-166.666666666667,4,2,18,35,0,0
40679,-166.666666666667,4,2,18,35,0,0
40837,-166.666666666667,4,2,18,35,0,0
40995,-166.666666666667,4,2,18,35,0,0
41153,-166.666666666667,4,2,30,30,0,0
41311,-166.666666666667,4,2,30,30,0,0
41469,-166.666666666667,4,2,30,30,0,0
41627,-166.666666666667,4,2,30,30,0,0
41942,-166.666666666667,4,2,38,38,0,0
42021,-166.666666666667,4,2,38,38,0,0
42100,-166.666666666667,4,2,48,52,0,0
42179,-166.666666666667,4,2,48,52,0,0
42258,-166.666666666667,4,2,44,35,0,0
42337,-166.666666666667,4,2,44,35,0,0
42416,-166.666666666667,4,2,42,44,0,0
42495,-166.666666666667,4,2,42,44,0,0
42574,-166.666666666667,4,2,41,40,0,0
42653,-166.666666666667,4,2,41,40,0,0
42732,-166.666666666667,4,2,38,36,0,0
42811,-166.666666666667,4,2,38,36,0,0
42890,-166.666666666667,4,2,34,32,0,0
42969,-166.666666666667,4,2,34,32,0,0
43048,-142.857142857143,4,2,32,60,0,0
43205,-142.857142857143,4,2,32,60,0,0
43521,-142.857142857143,4,2,34,60,0,0
43995,-142.857142857143,4,2,36,60,0,0
44232,-142.857142857143,4,2,36,60,0,0
44311,-142.857142857143,4,2,36,60,0,0
45258,-142.857142857143,4,2,36,60,0,0
45574,-142.857142857143,4,2,38,60,0,0
46048,-142.857142857143,4,2,32,60,0,0
46521,-142.857142857143,4,2,31,60,0,0
46679,-142.857142857143,4,2,32,60,0,0
47151,-142.857142857143,4,2,72,60,0,0
47311,-142.857142857143,4,2,66,60,0,0
47469,-142.857142857143,4,2,67,60,0,0
47627,-142.857142857143,4,2,68,60,0,0
47784,-142.857142857143,4,2,70,60,0,0
47942,-142.857142857143,4,2,71,60,0,0
48100,-142.857142857143,4,2,72,60,0,0
48179,-142.857142857143,4,2,72,60,0,0
48416,-142.857142857143,4,2,32,50,0,0
48732,-142.857142857143,4,2,34,50,0,0
48811,-142.857142857143,4,2,34,50,0,0
49048,-142.857142857143,4,2,35,50,0,0
49127,-142.857142857143,4,2,35,50,0,0
49205,-142.857142857143,4,2,83,30,0,0
49284,-142.857142857143,4,2,83,30,0,0
49363,-142.857142857143,4,2,20,30,0,0
49521,-142.857142857143,4,2,20,50,0,0
49679,-142.857142857143,4,2,34,50,0,0
49995,-142.857142857143,4,2,35,50,0,0
50074,-142.857142857143,4,2,35,50,0,0
50311,-142.857142857143,4,2,37,50,0,0
50390,-142.857142857143,4,2,37,50,0,0
50469,-142.857142857143,4,2,81,50,0,0
50627,-142.857142857143,4,2,15,50,0,0
50705,-142.857142857143,4,2,15,50,0,0
50942,-142.857142857143,4,2,35,50,0,0
51021,-142.857142857143,4,2,35,50,0,0
51258,-142.857142857143,4,2,37,50,0,0
51337,-142.857142857143,4,2,37,50,0,0
51416,-142.857142857143,4,2,37,50,0,0
51495,-142.857142857143,4,2,37,50,0,0
51574,-142.857142857143,4,2,38,50,0,0
51732,-142.857142857143,4,2,38,50,0,0
51811,-142.857142857143,4,2,38,50,0,0
51890,-142.857142857143,4,2,17,30,0,0
52205,-142.857142857143,4,2,38,50,0,0
52284,-142.857142857143,4,2,38,50,0,0
52521,-142.857142857143,4,2,39,50,0,0
52600,-142.857142857143,4,2,39,50,0,0
52679,-142.857142857143,4,2,39,50,0,0
52837,-142.857142857143,4,2,29,50,0,0
52916,-142.857142857143,4,2,29,50,0,0
52995,-142.857142857143,4,2,29,50,0,0
53153,-125,4,2,19,40,0,0
53232,-125,4,2,19,40,0,0
53469,-125,4,2,35,40,0,0
53784,-125,4,2,35,40,0,0
53863,-125,4,2,35,40,0,0
54100,-125,4,2,37,40,0,0
54179,-125,4,2,37,40,0,0
54416,-125,4,2,19,30,0,0
54495,-125,4,2,19,30,0,0
54732,-125,4,2,35,40,0,0
55048,-125,4,2,37,40,0,0
55127,-125,4,2,37,40,0,0
55205,-125,4,2,19,40,0,0
55363,-125,4,2,40,40,0,0
55442,-125,4,2,40,40,0,0
55521,-125,4,2,40,40,0,0
55600,-125,4,2,40,40,0,0
55679,-125,4,2,62,40,0,0
55758,-125,4,2,62,40,0,0
55995,-125,4,2,62,40,0,0
56153,-125,4,2,62,40,0,0
56311,-125,4,2,62,40,0,0
56469,-125,4,2,62,40,0,0
56627,-125,4,2,61,40,0,0
56784,-125,4,2,61,40,0,0
56942,-200,4,2,61,45,0,0
57021,-200,4,2,61,45,0,0
57574,-200,4,2,15,50,0,0
57890,-125,4,2,66,45,0,0
57969,-125,4,2,66,45,0,0
58048,-125,4,2,67,45,0,0
58127,-125,4,2,67,45,0,0
58205,-100,4,2,68,70,0,1
58363,-100,4,2,68,70,0,1
58521,-100,4,2,72,70,0,1
58600,-100,4,2,72,70,0,1
58679,-100,4,2,71,70,0,1
58758,-100,4,2,71,70,0,1
58837,-100,4,2,71,70,0,1
58916,-100,4,2,71,70,0,1
58995,-100,4,2,71,70,0,1
59153,-100,4,2,72,70,0,1
59232,-100,4,2,72,70,0,1
59311,-100,4,2,71,70,0,1
59627,-100,4,2,68,70,0,1
59784,-100,4,2,68,70,0,1
59942,-100,4,2,38,41,0,1
60100,-100,4,2,46,60,0,1
60258,-100,4,2,46,60,0,1
60416,-100,4,2,66,70,0,1
60495,-100,4,2,66,70,0,1
60574,-100,4,2,67,70,0,1
60653,-100,4,2,67,70,0,1
60732,-100,4,2,68,70,0,1
60890,-100,4,2,68,70,0,1
61048,-100,4,2,72,70,0,1
61127,-100,4,2,72,70,0,1
61205,-100,4,2,71,70,0,1
61284,-100,4,2,71,70,0,1
61521,-100,4,2,71,70,0,1
61600,-100,4,2,71,70,0,1
61679,-100,4,2,72,70,0,1
61758,-100,4,2,72,70,0,1
61837,-100,4,2,74,70,0,1
61916,-100,4,2,74,70,0,1
61995,-100,4,2,19,70,0,1
62074,-100,4,2,19,70,0,1
62232,-100,4,2,38,70,0,1
62311,-100,4,2,68,70,0,1
62469,-100,4,2,38,40,0,1
62627,-100,4,2,42,70,0,1
62784,-100,4,2,42,70,0,1
62942,-100,4,2,70,70,0,1
63021,-100,4,2,70,70,0,1
63100,-100,4,2,70,70,0,1
63179,-100,4,2,70,70,0,1
63258,-100,4,2,68,70,0,1
63416,-100,4,2,83,60,0,1
63574,-100,4,2,38,70,0,1
63732,-100,4,2,38,70,0,1
63811,-100,4,2,78,80,0,1
63890,-100,4,2,78,80,0,1
63969,-100,4,2,78,80,0,1
64048,-100,4,2,78,70,0,1
64127,-100,4,2,78,70,0,1
64205,-100,4,2,70,70,0,1
64284,-100,4,2,70,70,0,1
64363,-100,4,2,68,70,0,1
64442,-100,4,2,68,70,0,1
64600,-100,4,2,83,60,0,1
64679,-100,4,2,38,70,0,1
64837,-100,4,2,67,70,0,1
64995,-100,4,2,37,40,0,1
65153,-100,4,2,66,70,0,1
65311,-100,4,2,66,70,0,1
65469,-100,4,2,64,70,0,1
65627,-100,4,2,34,30,0,1
65784,-100,4,2,64,70,0,1
65863,-100,4,2,64,70,0,1
66021,-100,4,2,34,70,0,1
66100,-100,4,2,62,70,0,1
66258,-100,4,2,32,35,0,1
66416,-100,4,2,62,70,0,1
66495,-100,4,2,62,70,0,1
66653,-100,4,2,32,70,0,1
66732,-100,4,2,61,70,0,1
66811,-100,4,2,61,70,0,1
66890,-100,4,2,31,35,0,1
66969,-100,4,2,31,35,0,1
67048,-100,4,2,61,60,0,1
67127,-100,4,2,61,60,0,1
67284,-100,4,2,31,60,0,1
67363,-100,4,2,31,60,0,1
67521,-100,4,2,31,60,0,1
67679,-100,4,2,62,50,0,1
67758,-100,4,2,62,50,0,1
67837,-100,4,2,83,50,0,1
67916,-100,4,2,32,50,0,1
67995,-100,4,2,32,50,0,1
68153,-100,4,2,32,50,0,1
68311,-100,4,2,60,60,0,1
68390,-100,4,2,60,60,0,1
68469,-100,4,2,60,60,0,1
68627,-100,4,2,60,60,0,1
68784,-100,4,2,66,56,0,1
68863,-100,4,2,66,56,0,1
68942,-100,4,2,66,70,0,1
69021,-100,4,2,66,70,0,1
69100,-100,4,2,83,60,0,1
69258,-100,4,2,36,70,0,1
69337,-100,4,2,36,70,0,1
69416,-100,4,2,64,60,0,1
69495,-100,4,2,64,60,0,1
69574,-100,4,2,64,70,0,1
69732,-100,4,2,83,60,0,1
69890,-100,4,2,34,70,0,1
70048,-100,4,2,68,58,0,1
70127,-100,4,2,68,58,0,1
70205,-100,4,2,68,70,0,1
70284,-100,4,2,68,70,0,1
70363,-100,4,2,68,70,0,1
70442,-100,4,2,68,70,0,1
70521,-100,4,2,62,60,0,1
70600,-100,4,2,62,60,0,1
70679,-100,4,2,62,60,0,1
70758,-100,4,2,62,60,0,1
70837,-100,4,2,62,50,0,1
70916,-100,4,2,62,70,0,1
70995,-100,4,2,62,70,0,1
71153,-100,4,2,68,70,0,1
71232,-100,4,2,68,70,0,1
71311,-100,4,2,38,30,0,1
71390,-100,4,2,38,30,0,1
71469,-100,4,2,68,70,0,1
71548,-100,4,2,68,70,0,1
71627,-100,4,2,68,70,0,1
71705,-100,4,2,68,70,0,1
71784,-100,4,2,70,70,0,1
71942,-100,4,2,40,30,0,1
72100,-100,4,2,68,70,0,1
72179,-100,4,2,68,70,0,1
72258,-100,4,2,68,70,0,1
72416,-100,4,2,67,70,0,1
72495,-100,4,2,67,70,0,1
72574,-100,4,2,67,70,0,1
72653,-100,4,2,67,70,0,1
72732,-100,4,2,66,70,0,1
72811,-100,4,2,66,70,0,1
72890,-100,4,2,36,55,0,1
73048,-100,4,2,64,70,0,1
73127,-100,4,2,64,70,0,1
73205,-100,4,2,64,70,0,1
73284,-100,4,2,64,70,0,1
73363,-100,4,2,4,70,0,1
73442,-100,4,2,4,70,0,1
73679,-100,4,2,4,70,0,1
73837,-100,4,2,4,70,0,1
73995,-100,4,2,4,70,0,1
74153,-100,4,2,4,70,0,1
74311,-100,4,2,4,70,0,1
74469,-100,4,2,4,70,0,1
74627,-100,4,2,5,70,0,1
74705,-100,4,2,5,70,0,1
74784,-100,4,2,5,70,0,1
74942,-100,4,2,5,70,0,1
75100,-100,4,2,5,70,0,1
75258,-100,4,2,5,70,0,1
75416,-100,4,2,5,70,0,1
75574,-100,4,2,47,70,0,1
75653,-100,4,2,47,70,0,1
75732,-100,4,2,47,70,0,1
75811,-100,4,2,47,70,0,1
75890,-100,4,2,6,70,0,1
75969,-100,4,2,6,70,0,1
76205,-100,4,2,6,70,0,1
76284,-100,4,2,6,70,0,1
76363,-100,4,2,7,70,0,1
76442,-100,4,2,7,70,0,1
76521,-100,4,2,7,70,0,1
76679,-100,4,2,6,70,0,1
76758,-100,4,2,6,70,0,1
76837,-100,4,2,8,70,0,1
76995,-100,4,2,8,70,0,1
77074,-100,4,2,8,70,0,1
77311,-100,4,2,48,56,0,1
77390,-100,4,2,52,56,0,1
77469,-100,4,2,57,62,0,1
77548,-100,4,2,56,58,0,1
77627,-100,4,2,52,52,0,1
77705,-100,4,2,48,50,0,1
77784,-100,4,2,46,48,0,1
77863,-100,4,2,42,44,0,1
77942,-100,4,2,38,40,0,1
78021,-100,4,2,37,36,0,1
78100,-100,4,2,81,36,0,1
78179,-100,4,2,81,36,0,1
78258,-100,4,2,81,36,0,1
78337,-100,4,2,81,36,0,1
78416,-166.666666666667,4,2,81,40,0,0
78574,-166.666666666667,4,2,81,40,0,0
78732,-166.666666666667,4,2,81,40,0,0
79363,-166.666666666667,4,2,81,45,0,0
79521,-166.666666666667,4,2,81,35,0,0
79679,-166.666666666667,4,2,81,40,0,0
79995,-166.666666666667,4,2,81,45,0,0
80311,-166.666666666667,4,2,81,30,0,0
80627,-166.666666666667,4,2,81,35,0,0
80942,-166.666666666667,4,2,81,50,0,0
81258,-166.666666666667,4,2,81,30,0,0
81416,-166.666666666667,4,2,81,45,0,0
81732,-166.666666666667,4,2,81,30,0,0
81890,-166.666666666667,4,2,81,35,0,0
82205,-166.666666666667,4,2,81,40,0,0
82521,-166.666666666667,4,2,81,45,0,0
82837,-166.666666666667,4,2,81,50,0,0
83153,-166.666666666667,4,2,81,40,0,0
83469,-166.666666666667,4,2,81,45,0,0
83627,-166.666666666667,4,2,81,30,0,0
83784,-166.666666666667,4,2,81,45,0,0
83942,-166.666666666667,4,2,81,50,0,0
84258,-166.666666666667,4,2,81,30,0,0
84732,-166.666666666667,4,2,81,45,0,0
85048,-166.666666666667,4,2,81,30,0,0
85363,-166.666666666667,4,2,81,35,0,0
85995,-166.666666666667,4,2,81,45,0,0
86153,-166.666666666667,4,2,81,40,0,0
86311,-166.666666666667,4,2,81,35,0,0
86469,-166.666666666667,4,2,81,30,0,0
86627,-166.666666666667,4,2,81,45,0,0
86942,-166.666666666667,4,2,81,30,0,0
87258,-166.666666666667,4,2,81,45,0,0
87890,-166.666666666667,4,2,81,50,0,0
88205,-166.666666666667,4,2,81,35,0,0
88521,-166.666666666667,4,2,81,40,0,0
89784,-166.666666666667,4,2,81,50,0,0
90100,-166.666666666667,4,2,81,55,0,0
90416,-166.666666666667,4,2,81,60,0,0
90732,-166.666666666667,4,2,81,65,0,0
91048,-166.666666666667,4,2,81,45,0,0
91995,-166.666666666667,4,2,81,30,0,0
92311,-166.666666666667,4,2,81,35,0,0
92627,-166.666666666667,4,2,81,30,0,0
92784,-166.666666666667,4,2,81,33,0,0
92942,-166.666666666667,4,2,81,36,0,0
93100,-166.666666666667,4,2,81,40,0,0
93258,-166.666666666667,4,2,81,45,0,0
93416,-166.666666666667,4,2,81,30,0,0
93574,-166.666666666667,4,2,81,55,0,0
94048,-166.666666666667,4,2,81,50,0,0
94521,-166.666666666667,4,2,81,45,0,0
94837,-166.666666666667,4,2,81,40,0,0
94995,-166.666666666667,4,2,81,35,0,0
95311,-166.666666666667,4,2,81,40,0,0
95627,-166.666666666667,4,2,81,45,0,0
95784,-166.666666666667,4,2,81,50,0,0
96100,-166.666666666667,4,2,78,30,0,0
96153,-166.666666666667,4,2,81,40,0,0
96205,-166.666666666667,4,2,81,35,0,0

[Colours]
Combo1 : 255,214,189
Combo2 : 189,255,189
Combo3 : 189,204,255
Combo4 : 249,189,255

[HitObjects]
86,197,2627,5,2,0:0:0:0:
106,123,2784,1,0,0:0:0:0:
61,60,2942,1,0,0:0:0:0:
182,106,3100,2,0,P|232:95|283:84,1,103.199996850586,2|0,0:0|0:0,0:0:0:0:
436,115,3574,1,2,0:0:0:0:
436,115,3890,5,2,0:0:0:0:
391,178,4048,1,0,0:0:0:0:
394,254,4205,1,0,0:0:0:0:
442,314,4363,2,0,B|367:302|367:302|340:308,1,103.199996850586,2|0,0:0|0:0,0:0:0:0:
188,344,4837,1,2,0:0:0:0:
188,344,5153,5,2,0:0:0:0:
213,270,5311,1,2,0:0:0:0:
196,194,5469,1,2,0:0:0:0:
132,149,5627,2,0,P|81:137|31:125,1,103.199996850586,2|2,0:0|0:0,0:0:0:0:
247,29,6100,2,0,P|253:54|259:79,1,51.599998425293,2|0,0:0|0:0,0:0:0:0:
309,138,6416,2,0,L|285:239,1,103.199996850586,2|0,0:0|0:0,0:0:0:0:
396,349,6890,5,2,0:0:0:0:
396,349,7048,1,2,0:0:0:0:
309,139,7363,5,2,0:0:0:0:
171,319,7679,5,2,0:0:0:0:
213,254,7837,1,0,0:0:0:0:
202,177,7995,1,0,0:0:0:0:
150,119,8153,2,0,P|139:68|147:18,1,103.199996850586,2|0,0:0|0:0,0:0:0:0:
81,227,8627,5,2,0:0:0:0:
242,68,8942,5,2,0:0:0:0:
302,287,9258,5,2,0:0:0:0:
302,287,9574,6,0,P|314:311|329:332,1,51.599998425293,2|0,0:0|0:0,0:0:0:0:
402,257,9890,2,0,P|427:265|453:270,1,51.599998425293,2|0,0:0|0:0,0:0:0:0:
219,206,10205,6,0,P|207:157|206:105,1,103.199996850586,2|0,0:0|0:0,0:0:0:0:
337,28,10679,2,0,P|318:76|307:127,1,103.199996850586,2|0,0:0|0:0,0:0:0:0:
104,93,11153,2,0,P|79:85|54:77,1,51.599998425293,2|0,0:0|0:0,0:0:0:0:
1,200,11469,6,0,P|12:251|31:299,1,103.199996850586,2|0,0:0|0:0,0:0:0:0:
143,363,11942,2,0,P|155:313|174:265,1,103.199996850586,2|0,0:0|0:0,0:0:0:0:
311,126,12416,6,0,P|294:136|275:141,1,38.6999988189698,2|0,0:0|0:0,0:0:0:0:
258,64,12574,2,0,P|240:59|223:49,1,38.6999988189698,0|0,0:0|0:0,0:0:0:0:
434,41,12732,6,0,P|409:93|391:148,1,116.099996456909,6|0,3:1|0:0,0:0:0:0:
390,176,13048,2,0,L|406:251,1,77.3999976379395,0|0,3:0|0:0,0:0:0:0:
319,350,13363,1,0,3:0:0:0:
406,251,13521,1,0,0:0:0:0:
285,223,13679,2,0,P|249:211|212:199,1,77.3999976379395,0|0,3:0|0:0,0:0:0:0:
435,41,13995,6,0,P|359:41|301:90,1,154.799995275879,6|0,3:2|3:0,0:0:0:0:
221,310,14469,1,10,0:3:0:0:
221,310,14548,1,0,0:3:0:0:
221,310,14627,1,0,3:0:0:0:
142,159,14784,1,10,1:3:0:0:
259,234,14942,1,2,3:2:0:0:
136,299,15100,1,8,1:3:0:0:
115,76,15258,6,0,P|172:78|216:115,1,116.099996456909,6|0,3:2|0:0,0:0:0:0:
154,195,15574,2,0,P|146:177|142:159,1,38.6999988189698,2|0,3:2|0:0,0:0:0:0:
277,175,15732,2,0,B|356:187|356:187|390:177,1,116.099996456909,6|0,1:2|0:0,0:0:0:0:
416,167,16048,2,0,P|406:205|399:243,1,77.3999976379395,6|0,1:2|3:0,0:0:0:0:
283,61,16363,1,2,1:2:0:0:
283,61,16679,6,0,L|245:69,1,38.6999988189698,2|2,1:2|1:2,0:0:0:0:
143,68,16837,2,0,L|134:31,1,38.6999988189698,2|0,3:2|0:0,0:0:0:0:
224,169,16995,2,0,L|261:178,1,38.6999988189698,10|0,1:3|0:0,0:0:0:0:
155,245,17153,6,0,L|118:236,1,38.6999988189698,2|0,3:2|0:0,0:0:0:0:
353,223,17311,2,0,L|362:260,1,38.6999988189698,12|0,1:3|0:0,0:0:0:0:
287,355,17469,6,0,L|278:318,1,38.6999988189698,2|0,3:2|0:0,0:0:0:0:
446,183,17627,2,0,L|483:192,1,38.6999988189698,2|0,1:2|0:0,0:0:0:0:
261,178,17784,6,0,B|254:141|254:141|259:101,1,77.3999976379395,6|0,3:2|0:0,0:0:0:0:
378,62,18100,1,2,3:2:0:0:
178,34,18258,2,0,B|116:30|69:52|69:52|27:39,1,154.799995275879,10|2,0:3|0:0,0:0:0:0:
261,178,18732,1,2,3:2:0:0:
114,232,18890,1,2,0:0:0:0:
114,232,18969,1,0,0:0:0:0:
114,232,19048,5,2,3:2:0:0:
257,286,19205,1,2,0:0:0:0:
118,124,19363,1,2,3:2:0:0:
257,286,19521,2,0,B|301:279|326:264|326:264|367:267|405:284,1,154.799995275879,10|10,0:3|0:3,0:0:0:0:
261,178,19995,1,2,3:2:0:0:
337,369,20153,5,0,1:0:0:0:
337,369,20232,1,0,0:0:0:0:
337,369,20311,1,2,3:2:0:0:
165,229,20469,1,2,0:0:0:0:
357,127,20627,1,2,0:0:0:0:
257,286,20784,1,2,0:0:0:0:
169,120,20942,5,6,3:2:0:0:
265,69,21100,1,2,0:0:0:0:
353,235,21258,1,2,0:0:0:0:
257,286,21416,1,2,0:0:0:0:
261,178,21574,5,2,3:2:0:0:
73,171,22048,2,0,L|37:158,2,38.6999988189698,0|0|0,0:0|0:0|0:0,0:0:0:0:
448,185,22837,5,8,0:2:0:0:
448,185,23153,2,0,L|444:237,1,51.599998425293,2|0,0:0|0:0,0:0:0:0:
436,82,23469,2,0,P|387:98|354:137,1,103.199996850586,2|0,0:0|0:0,0:0:0:0:
255,165,23942,1,2,0:0:0:0:
167,110,24100,2,0,P|145:95|126:78,1,51.599998425293,2|0,0:0|0:0,0:0:0:0:
167,214,24416,2,0,P|171:252|182:289,1,77.3999976379395,2|0,0:0|0:0,0:0:0:0:
182,289,24732,2,0,P|206:296|230:306,1,51.599998425293,2|0,0:0|0:0,0:0:0:0:
385,327,25048,2,0,P|396:290|400:252,1,77.3999976379395,2|0,0:0|0:0,0:0:0:0:
400,251,25363,6,0,P|376:243|352:233,1,51.599998425293,8|0,0:0|0:0,0:0:0:0:
413,89,25679,1,2,0:0:0:0:
469,175,25837,1,2,0:0:0:0:
322,85,25995,2,0,P|289:125|282:176,1,103.199996850586,2|0,0:0|0:0,0:0:0:0:
250,274,26469,1,2,0:0:0:0:
132,193,26627,2,0,P|143:215|150:240,1,51.599998425293,2|0,0:0|0:0,0:0:0:0:
229,347,26942,2,0,P|235:308|250:273,1,77.3999976379395,2|0,0:0|0:0,0:0:0:0:
250,274,27258,1,2,0:0:0:0:
331,337,27416,1,0,0:0:0:0:
150,240,27574,2,0,P|136:205|129:167,1,77.3999976379395,2|0,0:0|0:0,0:0:0:0:
128,166,27890,6,0,P|134:140|139:115,1,51.599998425293,8|0,0:0|0:0,0:0:0:0:
26,190,28205,2,0,P|32:216|39:241,1,51.599998425293,2|0,0:0|0:0,0:0:0:0:
231,173,28521,2,0,L|305:150,1,77.3999976379395,2|0,0:0|0:0,0:0:0:0:
305,150,28837,1,2,0:0:0:0:
385,214,28995,2,0,B|453:232|453:232|485:226,1,103.199996850586,2|0,0:0|0:0,0:0:0:0:
400,110,29469,2,0,P|407:86|412:61,1,51.599998425293,2|0,0:0|0:0,0:0:0:0:
288,251,29784,2,0,P|295:289|309:326,1,77.3999976379395,2|0,0:0|0:0,0:0:0:0:
308,325,30100,2,0,L|358:337,1,51.599998425293,2|0,0:0|0:0,0:0:0:0:
211,362,30416,6,0,P|185:355|160:349,1,51.599998425293,10|0,0:0|0:0,0:0:0:0:
281,225,30732,1,2,0:0:0:0:
181,197,30890,2,0,P|164:148|151:98,1,103.199996850586,2|0,0:0|0:0,0:0:0:0:
266,274,31363,2,0,P|276:249|281:224,1,51.599998425293,2|0,0:0|0:0,0:0:0:0:
275,68,31679,5,2,0:0:0:0:
309,192,31837,1,0,0:0:0:0:
309,192,31916,1,0,0:0:0:0:
309,192,31995,1,2,0:0:0:0:
162,128,32153,1,2,0:0:0:0:
286,109,32311,5,2,0:0:0:0:
181,197,32469,1,2,0:0:0:0:
143,59,32627,1,2,0:0:0:0:
297,150,32784,1,2,0:0:0:0:
200,266,32942,5,10,0:0:0:0:
200,266,33258,2,0,L|214:315,1,51.599998425293,2|0,0:0|0:0,0:0:0:0:
253,176,33574,1,2,1:2:0:0:
96,259,33732,2,0,L|46:247,1,51.599998425293,2|0,0:0|0:0,0:0:0:0:
150,170,34048,1,2,0:0:0:0:
120,362,34205,6,0,L|70:350,1,51.599998425293,2|0,0:0|0:0,0:0:0:0:
302,262,34521,2,0,P|314:300|321:338,1,77.3999976379395,2|0,0:0|0:0,0:0:0:0:
320,336,34837,2,0,L|370:348,1,51.599998425293,2|0,1:2|0:0,0:0:0:0:
446,201,35153,1,2,0:0:0:0:
370,348,35311,1,0,0:0:0:0:
261,180,35469,5,8,0:0:0:0:
261,180,35784,1,2,0:0:0:0:
210,257,35942,1,0,0:0:0:0:
354,185,36100,1,0,1:2:0:0:
218,95,36258,2,0,P|211:71|207:45,1,51.599998425293,2|0,0:0|0:0,0:0:0:0:
312,101,36574,1,2,0:0:0:0:
168,174,36732,6,0,L|117:162,1,51.599998425293,10|0,0:0|0:0,0:0:0:0:
312,101,37048,2,0,L|362:112,1,51.599998425293,2|0,0:0|0:0,0:0:0:0:
304,263,37363,2,0,L|292:313,1,51.599998425293,2|0,1:2|0:0,0:0:0:0:
168,174,37679,2,0,L|179:224,1,51.599998425293,2|0,0:0|0:0,0:0:0:0:
312,101,37995,5,8,0:0:0:0:
312,101,38153,1,0,0:0:0:0:
168,174,38311,2,0,L|92:156,1,77.3999976379395,2|0,0:0|0:0,0:0:0:0:
92,156,38627,2,0,P|77:106|70:55,1,103.199996850586,2|2,1:2|0:0,0:0:0:0:
109,247,39100,1,2,0:0:0:0:
109,247,39258,6,0,L|59:259,1,51.599998425293,0|0,0:0|0:0,0:0:0:0:
156,84,39574,2,0,L|231:102,1,77.3999976379395,2|0,0:0|0:0,0:0:0:0:
231,102,39890,2,0,L|242:152,1,51.599998425293,2|0,1:2|0:0,0:0:0:0:
333,200,40205,2,0,L|322:250,1,51.599998425293,2|0,0:0|0:0,0:0:0:0:
474,125,40521,6,0,P|428:104|377:104,1,103.199996850586,10|0,0:0|0:0,0:0:0:0:
279,140,40995,1,0,0:0:0:0:
180,171,41153,2,0,L|130:159,1,51.599998425293,2|0,1:2|0:0,0:0:0:0:
97,257,41469,1,2,0:0:0:0:
97,257,41627,2,0,P|88:311|105:370,1,103.199996850586,2|2,1:2|0:0,0:0:0:0:
180,171,42100,5,0,0:0:0:0:
248,358,42258,1,2,0:0:0:0:
333,200,42416,1,2,0:0:0:0:
244,255,42574,1,2,0:0:0:0:
336,303,42732,1,2,0:0:0:0:
386,291,42811,1,0,0:0:0:0:
422,254,42890,1,2,0:0:0:0:
436,204,42969,1,0,0:0:0:0:
424,152,43048,6,0,P|401:96|406:36,1,120.399996325684,6|0,3:2|3:2,0:0:0:0:
239,158,43521,1,2,0:0:0:0:
333,200,43679,1,0,3:2:0:0:
406,36,43837,1,0,0:0:0:0:
323,98,43995,5,2,3:2:0:0:
136,14,44153,1,6,0:3:0:0:
136,14,44232,1,0,0:0:0:0:
136,14,44311,1,4,3:0:0:0:
323,98,44469,1,4,0:3:0:0:
155,217,44627,1,4,3:0:0:0:
146,116,44784,1,0,0:0:0:0:
239,158,44942,5,0,3:0:0:0:
155,217,45100,1,8,1:3:0:0:
54,174,45258,2,0,P|41:130|45:86,1,90.2999972442628,2|0,3:2|0:0,0:0:0:0:
90,20,45574,6,0,B|136:21|166:35|166:35|192:23|206:22,1,120.399996325684,2|0,3:2|3:0,0:0:0:0:
333,200,46048,1,2,0:0:0:0:
333,200,46127,1,0,0:0:0:0:
333,200,46205,1,0,3:2:0:0:
417,140,46363,1,0,0:0:0:0:
239,158,46521,1,2,3:2:0:0:
427,242,46679,5,10,0:3:0:0:
427,242,46758,1,0,0:0:0:0:
427,242,46837,1,0,3:2:0:0:
239,158,46995,1,8,1:3:0:0:
405,36,47153,6,0,P|391:40|377:45,1,30.0999990814209,2|0,3:2|0:0,0:0:0:0:
312,102,47311,2,0,P|298:97|284:92,1,30.0999990814209,2|0,1:2|0:0,0:0:0:0:
195,32,47469,6,0,P|198:46|203:60,1,30.0999990814209,2|0,1:2|0:0,0:0:0:0:
229,186,47627,2,0,P|235:171|239:157,1,30.0999990814209,2|0,1:2|0:0,0:0:0:0:
134,119,47784,6,0,L|105:110,1,30.0999990814209,10|0,0:3|0:0,0:0:0:0:
313,102,47942,2,0,L|341:110,1,30.0999990814209,6|0,0:3|0:0,0:0:0:0:
173,257,48100,6,0,P|181:302|197:344,1,90.2999972442628,6|0,3:2|0:0,0:0:0:0:
197,344,48416,2,0,L|138:329,1,60.1999981628419,2|0,0:0|3:0,0:0:0:0:
291,221,48732,2,0,P|281:248|276:278,1,60.1999981628419,2|0,1:2|0:0,0:0:0:0:
380,166,49048,1,2,3:2:0:0:
197,186,49205,6,0,L|82:149,1,120.399996325684,0|0,0:0|1:0,0:0:0:0:
289,17,49679,2,0,P|300:44|307:74,1,60.1999981628419,2|0,0:0|3:0,0:0:0:0:
312,88,49916,1,0,0:0:0:0:
316,102,49995,2,0,L|344:111,1,30.0999990814209,2|0,1:2|0:0,0:0:0:0:
448,67,50153,2,0,L|420:59,1,30.0999990814209,0|0,1:0|0:0,0:0:0:0:
375,197,50311,1,10,0:3:0:0:
241,160,50469,1,10,0:3:0:0:
375,197,50627,6,0,P|388:241|399:284,1,90.2999972442628,12|0,3:2|0:0,0:0:0:0:
397,312,50942,2,0,P|369:304|339:298,1,60.1999981628419,2|0,0:0|3:0,0:0:0:0:
240,250,51258,2,0,P|211:255|182:263,1,60.1999981628419,2|0,1:2|0:0,0:0:0:0:
255,138,51574,1,2,3:2:0:0:
135,150,51732,1,0,0:0:0:0:
135,150,51811,1,0,0:0:0:0:
135,150,51890,6,0,L|76:136,1,60.1999981628419,8|0,0:0|0:0,0:0:0:0:
269,26,52205,1,2,1:2:0:0:
241,250,52363,1,0,3:0:0:0:
241,250,52442,1,0,0:0:0:0:
241,250,52521,1,2,1:2:0:0:
255,138,52679,1,0,1:2:0:0:
289,360,52837,1,10,0:3:0:0:
323,153,52995,1,8,0:3:0:0:
323,153,53074,1,0,0:0:0:0:
323,153,53153,6,0,L|255:138,1,68.8,12|0,3:2|0:0,0:0:0:0:
444,71,53469,2,0,L|376:56,1,68.8,2|0,0:0|0:0,0:0:0:0:
438,266,53784,2,0,L|370:251,1,68.8,2|0,3:2|0:0,0:0:0:0:
157,185,54100,6,0,L|142:253,1,68.8,2|0,3:2|0:0,0:0:0:0:
61,59,54416,2,0,L|46:127,1,68.8,2|0,3:2|0:0,0:0:0:0:
355,185,54732,6,0,L|370:253,1,68.8,2|0,3:2|0:0,0:0:0:0:
451,59,55048,2,0,L|466:127,1,68.8,2|0,3:2|0:0,0:0:0:0:
256,296,55363,5,2,3:2:0:0:
200,200,55521,1,0,0:0:0:0:
200,200,55600,1,0,0:0:0:0:
200,200,55679,5,14,0:0:0:0:
256,320,55837,1,0,0:0:0:0:
312,200,55995,1,0,1:2:0:0:
148,300,56153,1,0,1:2:0:0:
364,300,56311,1,0,1:2:0:0:
256,104,56469,1,0,1:2:0:0:
112,316,56627,5,10,1:2:0:0:
400,152,56784,1,2,1:2:0:0:
256,192,56942,12,8,57574,0:0:0:0:
256,104,57890,6,0,L|223:97,1,34.4,2|0,0:0|0:0,0:0:0:0:
152,36,58048,2,0,L|119:42,1,34.4,2|0,0:0|0:0,0:0:0:0:
36,136,58205,6,0,L|54:230,1,86,6|0,3:2|3:0,0:0:0:0:
168,352,58521,1,2,1:2:0:0:
248,200,58679,1,2,0:0:0:0:
248,200,58758,1,0,0:0:0:0:
248,200,58837,2,0,L|164:183,1,86,0|0,0:0|3:2,0:0:0:0:
416,272,59153,1,2,1:2:0:0:
388,116,59311,5,2,0:0:0:0:
388,116,59390,1,0,0:0:0:0:
388,116,59469,1,0,3:0:0:0:
312,284,59627,1,2,0:0:0:0:
468,180,59784,2,0,P|484:136|484:80,1,86,2|0,1:2|3:2,0:0:0:0:
272,20,60100,2,0,P|273:62|288:102,1,86,2|0,3:2|3:2,0:0:0:0:
228,301,60416,6,0,L|240:260,1,43,2|0,1:2|0:0,0:0:0:0:
193,110,60574,2,0,L|182:152,1,43,2|0,1:2|0:0,0:0:0:0:
108,228,60732,6,0,L|23:208,1,86,2|0,3:2|3:0,0:0:0:0:
147,27,61048,1,2,1:2:0:0:
288,102,61205,2,0,B|412:128|412:128|455:114,1,172,2|0,0:0|3:2,0:0:0:0:
441,264,61679,1,2,1:2:0:0:
365,20,61837,5,2,0:0:0:0:
365,20,61916,1,0,0:0:0:0:
365,20,61995,1,0,3:2:0:0:
455,113,62153,1,0,0:0:0:0:
283,199,62311,2,0,L|198:181,1,86,2|0,1:2|3:2,0:0:0:0:
151,33,62627,2,0,L|235:50,1,86,2|0,3:2|3:2,0:0:0:0:
61,235,62942,5,2,1:2:0:0:
61,235,63021,1,0,1:0:0:0:
61,235,63100,1,0,1:0:0:0:
61,235,63179,1,0,1:0:0:0:
61,235,63258,6,0,P|115:172|198:180,1,172,2|0,3:2|1:0,0:0:0:0:
255,345,63732,1,0,0:0:0:0:
255,345,63811,1,2,0:0:0:0:
255,345,63890,2,0,L|339:363,1,86,2|0,0:0|3:2,0:0:0:0:
403,157,64205,1,2,1:2:0:0:
301,77,64363,1,2,0:0:0:0:
301,77,64442,1,0,0:0:0:0:
301,77,64521,6,0,P|276:135|283:198,1,129,0|0,3:0|0:0,0:0:0:0:
202,247,64837,2,0,L|118:229,1,86,2|0,1:2|3:2,0:0:0:0:
403,157,65153,2,0,L|487:175,1,86,2|0,3:2|3:2,0:0:0:0:
255,345,65469,2,0,L|171:327,1,86,2|0,1:2|1:0,0:0:0:0:
36,98,65784,6,0,L|43:140,1,43,6|0,3:2|0:0,0:0:0:0:
118,229,65942,2,0,L|126:187,1,43,0|0,3:0|0:0,0:0:0:0:
214,149,66100,2,0,B|256:141|256:141|298:149,1,86,2|0,1:2|3:0,0:0:0:0:
475,179,66416,6,0,L|482:221,1,43,6|0,3:2|0:0,0:0:0:0:
392,132,66574,2,0,L|400:90,1,43,0|0,3:0|0:0,0:0:0:0:
256,234,66732,2,0,B|243:301|243:301|255:360,1,129,2|0,1:2|0:0,0:0:0:0:
159,351,67048,6,0,L|116:342,1,43,6|0,3:2|0:0,0:0:0:0:
327,298,67205,2,0,L|369:306,1,43,0|0,3:0|0:0,0:0:0:0:
214,149,67363,2,0,B|206:107|206:107|214:65,1,86,0|0,1:0|3:2,0:0:0:0:
120,192,67679,5,10,0:3:0:0:
308,106,67837,1,0,1:0:0:0:
120,21,67995,1,0,1:0:0:0:
214,149,68153,1,0,0:0:0:0:
214,149,68232,1,0,0:0:0:0:
214,149,68311,6,0,B|223:210|199:257|199:257|212:283|213:315,1,172,6|0,3:2|1:2,0:0:0:0:
101,313,68784,1,2,0:0:0:0:
309,258,68942,2,0,B|371:260|431:284|431:284|475:270,1,172,2|0,0:0|1:2,0:0:0:0:
308,106,69416,1,2,0:0:0:0:
308,106,69495,1,0,0:0:0:0:
308,106,69574,6,0,B|261:109|226:130|226:130|182:128|144:105,1,172,6|0,3:2|1:2,0:0:0:0:
446,35,70048,1,2,3:2:0:0:
446,35,70127,1,0,0:0:0:0:
446,35,70205,2,0,P|405:25|365:9,1,86,2|0,0:0|3:2,0:0:0:0:
297,214,70521,6,0,P|302:235|307:256,1,43,2|0,1:2|0:0,0:0:0:0:
388,332,70679,2,0,P|393:311|398:290,1,43,2|0,1:2|0:0,0:0:0:0:
214,275,70837,6,0,L|130:253,1,86,6|0,3:2|3:2,0:0:0:0:
341,129,71153,2,0,L|424:150,1,86,2|0,1:2|3:0,0:0:0:0:
162,130,71469,2,0,L|183:46,1,86,2|0,0:0|3:2,0:0:0:0:
308,257,71784,2,0,L|287:341,1,86,2|0,1:2|3:0,0:0:0:0:
424,150,72100,5,6,1:2:0:0:
424,150,72258,1,0,3:0:0:0:
199,236,72416,5,6,1:2:0:0:
199,236,72574,1,0,3:0:0:0:
435,281,72732,5,6,1:2:0:0:
435,281,72890,1,0,1:0:0:0:
315,74,73048,5,6,1:2:0:0:
315,74,73127,1,0,1:2:0:0:
315,74,73205,1,0,1:2:0:0:
315,74,73284,1,0,1:2:0:0:
315,74,73363,6,0,P|304:120|293:159,1,86,6|0,3:2|3:0,0:0:0:0:
125,198,73679,1,6,1:2:0:0:
293,157,73837,1,0,3:2:0:0:
176,283,73995,1,6,1:2:0:0:
242,72,74153,1,0,3:2:0:0:
289,272,74311,1,6,1:2:0:0:
127,81,74469,1,0,3:2:0:0:
375,217,74627,5,6,1:2:0:0:
98,273,74784,1,0,3:2:0:0:
333,34,74942,1,6,1:2:0:0:
69,139,75100,1,0,3:2:0:0:
372,309,75258,1,6,1:2:0:0:
125,198,75416,1,0,3:2:0:0:
333,34,75574,5,2,1:2:0:0:
333,34,75653,1,0,1:0:0:0:
333,34,75732,1,0,1:0:0:0:
333,34,75811,1,0,1:0:0:0:
333,34,75890,6,0,B|344:65|344:65|338:90|338:90|363:145|336:217,1,172,6|2,3:2|1:0,0:0:0:0:
169,354,76363,1,6,3:2:0:0:
169,354,76442,1,0,0:0:0:0:
169,354,76521,1,2,1:0:0:0:
372,304,76679,1,6,3:2:0:0:
372,304,76758,1,0,0:0:0:0:
372,304,76837,1,2,1:0:0:0:
148,249,76995,6,0,B|239:271|239:271|273:262,1,129,6|0,1:2|0:0,0:0:0:0:
251,163,77311,2,0,L|209:153,1,43,2|2,0:0|0:0,0:0:0:0:
376,90,77469,1,6,3:2:0:0:
409,127,77548,1,2,0:0:0:0:
424,176,77627,1,2,0:0:0:0:
416,227,77705,1,2,0:0:0:0:
386,269,77784,5,2,1:2:0:0:
368,264,77863,1,2,1:2:0:0:
350,260,77942,1,2,1:2:0:0:
333,256,78021,1,2,1:2:0:0:
316,252,78100,6,0,L|274:262,1,43,2|0,1:2|1:0,0:0:0:0:
206,336,78258,2,0,L|164:327,1,43,0|0,1:0|1:0,0:0:0:0:
251,163,78416,6,0,B|253:125|240:98|240:98|249:75|250:62,1,103.199996850586,6|2,0:0|0:0,0:0:0:0:
60,109,78890,2,0,P|109:127|159:141,1,103.199996850586,2|0,0:0|0:0,0:0:0:0:
250,62,79363,1,2,0:0:0:0:
340,112,79521,1,2,0:0:0:0:
340,215,79679,5,2,0:0:0:0:
428,59,79995,1,2,0:0:0:0:
251,163,80311,1,2,0:0:0:0:
430,266,80627,5,2,0:0:0:0:
430,266,80784,1,2,0:0:0:0:
340,112,80942,2,0,P|349:61|364:11,1,103.199996850586,2|2,0:0|0:0,0:0:0:0:
251,163,81416,2,0,P|233:115|221:65,1,103.199996850586,2|0,0:0|0:0,0:0:0:0:
429,163,81890,1,2,0:0:0:0:
340,215,82048,1,2,0:0:0:0:
340,112,82205,5,2,0:0:0:0:
338,318,82521,1,2,0:0:0:0:
429,163,82837,1,2,0:0:0:0:
249,265,83153,6,0,P|202:290|140:317,1,103.199996850586,2|2,0:0|0:0,0:0:0:0:
251,163,83627,1,0,0:0:0:0:
340,215,83784,1,0,0:0:0:0:
161,212,83942,2,0,P|110:202|59:191,1,103.199996850586,0|0,0:0|0:0,0:0:0:0:
250,62,84416,5,2,0:0:0:0:
250,62,84574,1,2,0:0:0:0:
340,215,84732,2,0,P|390:225|441:235,1,103.199996850586,2|2,0:0|0:0,0:0:0:0:
159,315,85363,1,2,0:0:0:0:
160,113,85679,1,2,0:0:0:0:
340,215,85995,5,2,0:0:0:0:
249,265,86153,1,0,0:0:0:0:
251,163,86311,1,0,0:0:0:0:
340,112,86469,1,0,0:0:0:0:
249,265,86627,2,0,P|237:316|248:366,1,103.199996850586,2|2,0:0|0:0,0:0:0:0:
338,318,87100,1,2,0:0:0:0:
338,318,87258,2,0,B|351:268|334:216|334:216|351:167|339:114,1,206.399993701172,2|2,0:0|0:0,0:0:0:0:
157,11,88205,5,2,0:0:0:0:
75,268,88521,1,2,0:0:0:0:
251,163,89469,5,2,0:0:0:0:
251,163,89627,1,2,0:0:0:0:
249,265,89784,5,2,0:0:0:0:
70,165,90100,1,0,0:0:0:0:
250,62,90416,1,2,0:0:0:0:
429,163,90732,1,2,0:0:0:0:
249,265,91048,6,0,P|152:162|250:62,1,309.599990551758,2|2,0:0|0:0,0:0:0:0:
251,163,92311,2,0,B|301:173|301:173|352:163,1,103.199996850586,2|0,0:0|0:0,0:0:0:0:
249,265,92784,1,0,0:0:0:0:
161,212,92942,1,0,0:0:0:0:
160,113,93100,1,0,0:0:0:0:
250,62,93258,1,2,0:0:0:0:
250,62,93416,1,0,0:0:0:0:
75,268,93574,5,2,0:0:0:0:
250,62,94048,5,2,0:0:0:0:
338,318,94521,5,2,0:0:0:0:
161,212,94837,5,2,0:0:0:0:
161,212,94995,1,0,0:0:0:0:
340,112,95311,5,2,0:0:0:0:
247,367,95627,5,2,0:0:0:0:
247,367,95784,1,0,0:0:0:0:
251,163,96100,6,0,L|235:155,2,17.1999994750977,2|0|0,0:0|0:0|0:0,0:0:0:0:
