osu file format v14

[General]
AudioFilename: audio.mp3
AudioLeadIn: 0
PreviewTime: 57811
Countdown: 0
SampleSet: Soft
StackLeniency: 0.7
Mode: 0
LetterboxInBreaks: 0
WidescreenStoryboard: 0

[Editor]
DistanceSpacing: 1.4
BeatDivisor: 4
GridSize: 4
TimelineZoom: 2.5

[Metadata]
Title:Re:TrymenT
TitleUnicode:Re:TrymenT
Artist:Hotaru Murasaki
ArtistUnicode:紫咲ほたる
Creator:eLy
Version:litoluna's Insane
Source:Re:LieF〜親愛なるあなたへ〜
Tags:rask レリーフ relief Shin'ainaru Anata e DeaR YoU retryment opening op short eroge game visual novel 甘利紗陽 amari saya piano homura- wring lecana litoluna cookiezi asahina momoko mokori kawaiwkyik rizia vellya alyce 5hiki
BeatmapID:1165776
BeatmapSetID:519521

[Difficulty]
HPDrainRate:6
CircleSize:3.8
OverallDifficulty:7
ApproachRate:9
SliderMultiplier:1.6
SliderTickRate:2

[Events]
//Background and Video events
0,0,"BGlitoluna.jpg",0,0
//Break Periods
//Storyboard Layer 0 (Background)
//Storyboard Layer 1 (Fail)
//Storyboard Layer 2 (Pass)
//Storyboard Layer 3 (Foreground)
//Storyboard Sound Samples

[TimingPoints]
2627,315.789473684211,4,2,52,30,1,0
2627,-142.857142857143,4,2,52,30,0,0
3100,-142.857142857143,4,2,51,30,0,0
3574,-142.857142857143,4,2,48,30,0,0
3890,-142.857142857143,4,2,40,30,0,0
4363,-142.857142857143,4,2,41,30,0,0
4837,-142.857142857143,4,2,46,30,0,0
5153,-142.857142857143,4,2,44,30,0,0
5311,-142.857142857143,4,2,34,30,0,0
5469,-142.857142857143,4,2,38,30,0,0
5627,-142.857142857143,4,2,40,30,0,0
5942,-142.857142857143,4,2,34,30,0,0
6100,-142.857142857143,4,2,42,30,0,0
6416,-142.857142857143,4,2,41,30,0,0
6890,-142.857142857143,4,2,48,30,0,0
7048,-142.857142857143,4,2,38,30,0,0
7284,-142.857142857143,4,2,38,30,0,0
7363,-142.857142857143,4,2,51,30,0,0
7600,-142.857142857143,4,2,51,30,0,0
7679,-142.857142857143,4,2,52,30,0,0
8153,-142.857142857143,4,2,51,30,0,0
8627,-142.857142857143,4,2,48,30,0,0
8942,-142.857142857143,4,2,42,30,0,0
9258,-142.857142857143,4,2,36,30,0,0
9574,-142.857142857143,4,2,40,30,0,0
9890,-142.857142857143,4,2,44,30,0,0
10205,-142.857142857143,4,2,46,30,0,0
10679,-142.857142857143,4,2,44,30,0,0
11153,-142.857142857143,4,2,48,30,0,0
11390,-142.857142857143,4,2,48,30,0,0
11469,-142.857142857143,4,2,51,40,0,0
11942,-125,4,2,52,40,0,0
12416,-125,4,2,54,50,0,0
12732,-111.111111111111,4,2,52,60,0,0
13048,-111.111111111111,4,2,52,60,0,0
13995,-111.111111111111,4,2,78,60,0,0
14469,-111.111111111111,4,2,77,60,0,0
14627,-111.111111111111,4,2,77,60,0,0
14784,-111.111111111111,4,2,81,60,0,0
14942,-111.111111111111,4,2,76,60,0,0
15258,-111.111111111111,4,2,76,60,0,0
15574,-111.111111111111,4,2,77,60,0,0
15732,-111.111111111111,4,2,76,60,0,0
15890,-111.111111111111,4,2,83,50,0,0
15969,-111.111111111111,4,2,76,60,0,0
16048,-111.111111111111,4,2,72,60,0,0
16363,-111.111111111111,4,2,68,60,0,0
16521,-111.111111111111,4,2,68,60,0,0
16679,-111.111111111111,4,2,54,60,0,0
16758,-111.111111111111,4,2,56,60,0,0
16837,-111.111111111111,4,2,57,60,0,0
16995,-111.111111111111,4,2,56,60,0,0
17153,-111.111111111111,4,2,54,60,0,0
17311,-111.111111111111,4,2,52,60,0,0
17469,-111.111111111111,4,2,51,60,0,0
17627,-111.111111111111,4,2,48,60,0,0
17784,-111.111111111111,4,2,74,60,0,0
18100,-111.111111111111,4,2,48,60,0,0
18258,-111.111111111111,4,2,74,60,0,0
18416,-111.111111111111,4,2,83,50,0,0
18574,-111.111111111111,4,2,51,60,0,0
18732,-111.111111111111,4,2,46,60,0,0
18890,-111.111111111111,4,2,51,60,0,0
19048,-111.111111111111,4,2,74,60,0,0
19205,-111.111111111111,4,2,46,60,0,0
19363,-111.111111111111,4,2,50,60,0,0
19521,-111.111111111111,4,2,76,60,0,0
19679,-111.111111111111,4,2,83,50,0,0
19837,-111.111111111111,4,2,50,60,0,0
19995,-111.111111111111,4,2,74,60,0,0
20153,-111.111111111111,4,2,74,60,0,0
20311,-111.111111111111,4,2,73,60,0,0
20469,-111.111111111111,4,2,50,60,0,0
20627,-111.111111111111,4,2,46,60,0,0
20784,-111.111111111111,4,2,44,60,0,0
20942,-111.111111111111,4,2,43,50,0,0
21100,-111.111111111111,4,2,40,50,0,0
21258,-111.111111111111,4,2,36,50,0,0
21416,-111.111111111111,4,2,34,50,0,0
21574,-111.111111111111,4,2,33,40,0,0
22048,-111.111111111111,4,2,1,40,0,0
22837,-166.666666666667,4,2,10,30,0,0
23153,-166.666666666667,4,2,34,35,0,0
23942,-166.666666666667,4,2,32,35,0,0
24100,-166.666666666667,4,2,34,35,0,0
24416,-166.666666666667,4,2,36,35,0,0
24732,-166.666666666667,4,2,34,35,0,0
25048,-166.666666666667,4,2,32,35,0,0
25363,-166.666666666667,4,2,11,45,0,0
25679,-166.666666666667,4,2,34,30,0,0
26469,-166.666666666667,4,2,32,30,0,0
26627,-166.666666666667,4,2,34,30,0,0
26942,-166.666666666667,4,2,36,30,0,0
27258,-166.666666666667,4,2,34,30,0,0
27574,-166.666666666667,4,2,32,30,0,0
27890,-166.666666666667,4,2,12,45,0,0
28205,-166.666666666667,4,2,28,30,0,0
28837,-166.666666666667,4,2,32,30,0,0
28995,-166.666666666667,4,2,34,30,0,0
29469,-166.666666666667,4,2,32,30,0,0
29784,-166.666666666667,4,2,31,30,0,0
30100,-166.666666666667,4,2,32,30,0,0
30416,-166.666666666667,4,2,13,30,0,0
30732,-166.666666666667,4,2,32,30,0,0
31363,-166.666666666667,4,2,38,30,0,0
31600,-166.666666666667,4,2,38,30,0,0
31679,-166.666666666667,4,2,34,30,0,0
31995,-166.666666666667,4,2,48,45,0,0
32153,-166.666666666667,4,2,46,42,0,0
32311,-166.666666666667,4,2,42,40,0,0
32469,-166.666666666667,4,2,41,38,0,0
32627,-166.666666666667,4,2,38,36,0,0
32784,-166.666666666667,4,2,34,30,0,0
32942,-166.666666666667,4,2,14,30,0,0
33258,-166.666666666667,4,2,36,30,0,0
33574,-166.666666666667,4,2,34,30,0,0
33732,-166.666666666667,4,2,36,30,0,0
34205,-166.666666666667,4,2,37,30,0,0
34521,-166.666666666667,4,2,36,30,0,0
34837,-166.666666666667,4,2,34,30,0,0
35153,-166.666666666667,4,2,32,30,0,0
35469,-166.666666666667,4,2,15,45,0,0
35784,-166.666666666667,4,2,36,30,0,0
36100,-166.666666666667,4,2,34,30,0,0
36258,-166.666666666667,4,2,36,30,0,0
36732,-166.666666666667,4,2,16,30,0,0
37048,-166.666666666667,4,2,36,30,0,0
37363,-166.666666666667,4,2,34,30,0,0
37679,-166.666666666667,4,2,32,30,0,0
37995,-166.666666666667,4,2,17,45,0,0
38311,-166.666666666667,4,2,28,30,0,0
38942,-166.666666666667,4,2,32,30,0,0
39100,-166.666666666667,4,2,34,30,0,0
39574,-166.666666666667,4,2,32,30,0,0
39890,-166.666666666667,4,2,31,30,0,0
40205,-166.666666666667,4,2,32,30,0,0
40521,-166.666666666667,4,2,18,35,0,0
41153,-166.666666666667,4,2,30,30,0,0
41942,-166.666666666667,4,2,38,38,0,0
42100,-166.666666666667,4,2,48,52,0,0
42258,-166.666666666667,4,2,44,35,0,0
42416,-166.666666666667,4,2,42,44,0,0
42574,-166.666666666667,4,2,41,40,0,0
42732,-166.666666666667,4,2,38,36,0,0
42890,-166.666666666667,4,2,34,32,0,0
43048,-125,4,2,32,60,0,0
43521,-125,4,2,34,60,0,0
43995,-125,4,2,36,60,0,0
44153,-125,4,2,36,60,0,0
44311,-125,4,2,36,60,0,0
45574,-125,4,2,38,60,0,0
46048,-125,4,2,32,60,0,0
46205,-125,4,2,32,60,0,0
46363,-125,4,2,32,60,0,0
46521,-125,4,2,31,60,0,0
46679,-125,4,2,32,60,0,0
46837,-125,4,2,32,60,0,0
47151,-125,4,2,72,60,0,0
47311,-125,4,2,66,60,0,0
47469,-125,4,2,67,60,0,0
47627,-125,4,2,68,60,0,0
47784,-125,4,2,70,60,0,0
47942,-125,4,2,71,60,0,0
48100,-111.111111111111,4,2,72,60,0,0
48416,-111.111111111111,4,2,32,50,0,0
48574,-111.111111111111,4,2,32,50,0,0
48732,-111.111111111111,4,2,34,50,0,0
49048,-111.111111111111,4,2,35,50,0,0
49205,-111.111111111111,4,2,83,30,0,0
49363,-111.111111111111,4,2,20,30,0,0
49521,-111.111111111111,4,2,20,50,0,0
49679,-111.111111111111,4,2,34,50,0,0
49995,-111.111111111111,4,2,35,50,0,0
50153,-111.111111111111,4,2,35,50,0,0
50311,-111.111111111111,4,2,37,50,0,0
50469,-111.111111111111,4,2,81,50,0,0
50627,-111.111111111111,4,2,15,50,0,0
50942,-111.111111111111,4,2,35,50,0,0
51258,-111.111111111111,4,2,37,50,0,0
51574,-111.111111111111,4,2,38,50,0,0
51732,-111.111111111111,4,2,38,50,0,0
51890,-111.111111111111,4,2,17,30,0,0
52205,-111.111111111111,4,2,38,50,0,0
52521,-111.111111111111,4,2,39,50,0,0
52837,-111.111111111111,4,2,29,50,0,0
53153,-100,4,2,19,40,0,0
53469,-100,4,2,35,40,0,0
54100,-100,4,2,37,40,0,0
54416,-100,4,2,19,30,0,0
54732,-100,4,2,35,40,0,0
55048,-100,4,2,37,40,0,0
55205,-100,4,2,19,40,0,0
55363,-100,4,2,40,40,0,0
55679,-100,4,2,62,40,0,0
55995,-100,4,2,62,40,0,0
56153,-100,4,2,62,40,0,0
56311,-100,4,2,62,40,0,0
56469,-100,4,2,62,40,0,0
56627,-100,4,2,61,40,0,0
56784,-100,4,2,61,40,0,0
56942,-100,4,2,61,45,0,0
57100,-100,4,2,61,45,0,0
57495,-100,4,2,61,45,0,0
57574,-83.3333333333333,4,2,15,50,0,0
57890,-83.3333333333333,4,2,66,45,0,0
58048,-83.3333333333333,4,2,67,45,0,0
58205,-62.5,4,2,68,70,0,1
58521,-83.3333333333333,4,2,72,70,0,1
58679,-83.3333333333333,4,2,71,70,0,1
58758,-83.3333333333333,4,2,71,70,0,1
58995,-83.3333333333333,4,2,71,70,0,1
59153,-83.3333333333333,4,2,72,70,0,1
59311,-83.3333333333333,4,2,71,70,0,1
59469,-83.3333333333333,4,2,83,60,0,1
59627,-83.3333333333333,4,2,68,70,0,1
59784,-83.3333333333333,4,2,68,70,0,1
59942,-83.3333333333333,4,2,38,41,0,1
60100,-83.3333333333333,4,2,46,60,0,1
60258,-83.3333333333333,4,2,46,60,0,1
60416,-83.3333333333333,4,2,66,70,0,1
60574,-83.3333333333333,4,2,67,70,0,1
60732,-83.3333333333333,4,2,68,70,0,1
61048,-83.3333333333333,4,2,72,70,0,1
61205,-83.3333333333333,4,2,71,70,0,1
61679,-83.3333333333333,4,2,72,70,0,1
61837,-83.3333333333333,4,2,74,70,0,1
61995,-83.3333333333333,4,2,19,70,0,1
62232,-83.3333333333333,4,2,38,70,0,1
62311,-83.3333333333333,4,2,68,70,0,1
62469,-83.3333333333333,4,2,38,40,0,1
62627,-83.3333333333333,4,2,42,70,0,1
62942,-83.3333333333333,4,2,70,70,0,1
63258,-83.3333333333333,4,2,68,70,0,1
63416,-83.3333333333333,4,2,83,60,0,1
63574,-83.3333333333333,4,2,38,70,0,1
63811,-83.3333333333333,4,2,78,80,0,1
64048,-83.3333333333333,4,2,78,70,0,1
64205,-83.3333333333333,4,2,70,70,0,1
64363,-83.3333333333333,4,2,68,70,0,1
64679,-83.3333333333333,4,2,38,70,0,1
64837,-83.3333333333333,4,2,67,70,0,1
64995,-83.3333333333333,4,2,37,40,0,1
65153,-83.3333333333333,4,2,66,70,0,1
65469,-83.3333333333333,4,2,64,70,0,1
65627,-83.3333333333333,4,2,34,30,0,1
65784,-83.3333333333333,4,2,64,70,0,1
66021,-83.3333333333333,4,2,34,70,0,1
66100,-83.3333333333333,4,2,62,70,0,1
66258,-83.3333333333333,4,2,32,35,0,1
66416,-71.4285714285714,4,2,62,70,0,1
66653,-71.4285714285714,4,2,32,70,0,1
66732,-71.4285714285714,4,2,61,70,0,1
66890,-71.4285714285714,4,2,31,35,0,1
67048,-71.4285714285714,4,2,61,60,0,1
67284,-71.4285714285714,4,2,31,60,0,1
67363,-71.4285714285714,4,2,31,60,0,1
67679,-83.3333333333333,4,2,62,50,0,1
67837,-83.3333333333333,4,2,83,50,0,1
67916,-83.3333333333333,4,2,32,50,0,1
68311,-83.3333333333333,4,2,60,60,0,1
68627,-83.3333333333333,4,2,60,60,0,1
68784,-83.3333333333333,4,2,66,56,0,1
68942,-83.3333333333333,4,2,66,70,0,1
69100,-83.3333333333333,4,2,83,60,0,1
69258,-83.3333333333333,4,2,36,70,0,1
69416,-83.3333333333333,4,2,64,60,0,1
69574,-83.3333333333333,4,2,64,70,0,1
69732,-83.3333333333333,4,2,83,60,0,1
69890,-83.3333333333333,4,2,34,70,0,1
70048,-83.3333333333333,4,2,68,58,0,1
70205,-83.3333333333333,4,2,68,70,0,1
70363,-83.3333333333333,4,2,68,70,0,1
70521,-83.3333333333333,4,2,62,60,0,1
70679,-83.3333333333333,4,2,62,60,0,1
70837,-83.3333333333333,4,2,62,70,0,1
70995,-83.3333333333333,4,2,62,70,0,1
71153,-83.3333333333333,4,2,68,70,0,1
71311,-83.3333333333333,4,2,38,30,0,1
71469,-83.3333333333333,4,2,68,70,0,1
71784,-83.3333333333333,4,2,70,70,0,1
71942,-83.3333333333333,4,2,40,30,0,1
72100,-83.3333333333333,4,2,68,70,0,1
72258,-83.3333333333333,4,2,68,70,0,1
72416,-83.3333333333333,4,2,67,70,0,1
72732,-83.3333333333333,4,2,66,70,0,1
72890,-83.3333333333333,4,2,36,55,0,1
73048,-83.3333333333333,4,2,64,70,0,1
73363,-83.3333333333333,4,2,4,70,0,1
74627,-83.3333333333333,4,2,5,70,0,1
75574,-83.3333333333333,4,2,47,70,0,1
75653,-83.3333333333333,4,2,47,70,0,1
75890,-83.3333333333333,4,2,6,70,0,1
76205,-83.3333333333333,4,2,6,70,0,1
76363,-83.3333333333333,4,2,7,70,0,1
76521,-83.3333333333333,4,2,7,70,0,1
76679,-83.3333333333333,4,2,6,70,0,1
76837,-83.3333333333333,4,2,8,70,0,1
76995,-83.3333333333333,4,2,8,70,0,1
77311,-83.3333333333333,4,2,48,56,0,1
77390,-83.3333333333333,4,2,52,56,0,1
77469,-83.3333333333333,4,2,57,62,0,1
77548,-83.3333333333333,4,2,56,58,0,1
77627,-83.3333333333333,4,2,52,52,0,1
77705,-83.3333333333333,4,2,48,50,0,1
77784,-83.3333333333333,4,2,46,48,0,1
77863,-83.3333333333333,4,2,42,44,0,1
77942,-83.3333333333333,4,2,38,40,0,1
78021,-83.3333333333333,4,2,37,36,0,1
78100,-83.3333333333333,4,2,81,36,0,1
78416,-125,4,2,81,40,0,0
78732,-125,4,2,81,40,0,0
78890,-125,4,2,81,40,0,0
79205,-125,4,2,81,40,0,0
79363,-125,4,2,81,45,0,0
79521,-125,4,2,81,35,0,0
79679,-125,4,2,81,40,0,0
79995,-125,4,2,81,45,0,0
80311,-125,4,2,81,30,0,0
80627,-125,4,2,81,35,0,0
80942,-125,4,2,81,50,0,0
81258,-125,4,2,81,30,0,0
81416,-125,4,2,81,45,0,0
81732,-125,4,2,81,30,0,0
81890,-125,4,2,81,35,0,0
82205,-125,4,2,81,40,0,0
82521,-125,4,2,81,45,0,0
82837,-125,4,2,81,50,0,0
83153,-125,4,2,81,40,0,0
83469,-125,4,2,81,45,0,0
83627,-125,4,2,81,30,0,0
83784,-125,4,2,81,45,0,0
83942,-125,4,2,81,50,0,0
84258,-125,4,2,81,30,0,0
84732,-125,4,2,81,45,0,0
85048,-125,4,2,81,30,0,0
85363,-125,4,2,81,35,0,0
85679,-125,4,2,81,35,0,0
85995,-125,4,2,81,45,0,0
86153,-125,4,2,81,40,0,0
86311,-125,4,2,81,35,0,0
86469,-125,4,2,81,30,0,0
86627,-125,4,2,81,45,0,0
86942,-125,4,2,81,30,0,0
87100,-142.857142857143,4,2,81,30,0,0
87258,-142.857142857143,4,2,81,45,0,0
87890,-142.857142857143,4,2,81,50,0,0
88205,-142.857142857143,4,2,81,35,0,0
88442,-142.857142857143,4,2,81,35,0,0
88521,-142.857142857143,4,2,81,40,0,0
89784,-142.857142857143,4,2,81,50,0,0
90100,-142.857142857143,4,2,81,55,0,0
90416,-142.857142857143,4,2,81,60,0,0
90732,-142.857142857143,4,2,81,65,0,0
91048,-200,4,2,81,45,0,0
91995,-200,4,2,81,30,0,0
92311,-200,4,2,81,35,0,0
92627,-200,4,2,81,30,0,0
92784,-200,4,2,81,33,0,0
92942,-200,4,2,81,36,0,0
93100,-200,4,2,81,40,0,0
93258,-200,4,2,81,45,0,0
93416,-200,4,2,81,30,0,0
93574,-200,4,2,81,55,0,0
94048,-200,4,2,81,50,0,0
94205,-200,4,2,81,50,0,0
94521,-200,4,2,81,45,0,0
94837,-200,4,2,81,40,0,0
94995,-200,4,2,81,35,0,0
95311,-200,4,2,81,40,0,0
95469,-200,4,2,81,40,0,0
95627,-200,4,2,81,45,0,0
95784,-200,4,2,81,50,0,0
96100,-200,4,2,78,30,0,0
96153,-200,4,2,81,40,0,0
96205,-200,4,2,81,35,0,0

[Colours]
Combo1 : 214,164,107
Combo2 : 186,186,199
Combo3 : 175,254,58
Combo4 : 112,96,255

[HitObjects]
62,152,2627,5,2,0:0:0:0:
151,144,2784,1,0,0:0:0:0:
62,152,2942,1,0,0:0:0:0:
95,45,3100,2,0,P|146:28|204:44,1,111.999996582031,2|0,0:0|0:0,0:0:0:0:
243,128,3574,2,0,L|227:257,1,111.999996582031,2|2,0:0|0:0,0:0:0:0:
160,305,4048,5,0,0:0:0:0:
136,214,4205,1,0,0:0:0:0:
160,305,4363,2,0,P|213:334|282:322,1,111.999996582031,2|0,0:0|0:0,0:0:0:0:
411,235,4837,2,0,P|365:231|316:255,1,83.9999974365235,2|0,0:0|0:0,0:0:0:0:
319,254,5153,6,0,L|326:190,2,55.9999982910157,2|2|2,0:0|0:0|0:0,0:0:0:0:
424,322,5627,2,0,P|485:284|498:234,1,111.999996582031,2|2,0:0|0:0,0:0:0:0:
439,134,6100,2,0,L|506:127,1,55.9999982910157,2|0,0:0|0:0,0:0:0:0:
350,66,6416,6,0,L|217:51,1,111.999996582031,2|0,0:0|0:0,0:0:0:0:
122,153,6890,1,2,0:0:0:0:
186,208,7048,6,0,P|204:161|196:118,1,83.9999974365235,2|0,0:0|0:0,0:0:0:0:
133,69,7363,6,0,P|83:76|50:105,1,83.9999974365235,2|0,0:0|0:0,0:0:0:0:
51,191,7679,6,0,P|69:214|93:227,1,55.9999982910157,2|0,0:0|0:0,0:0:0:0:
122,153,7995,1,0,0:0:0:0:
35,284,8153,2,0,P|89:275|147:281,1,111.999996582031,2|0,0:0|0:0,0:0:0:0:
299,205,8627,2,0,P|245:214|187:208,1,111.999996582031,2|2,0:0|0:0,0:0:0:0:
99,16,9258,5,2,0:0:0:0:
35,284,9574,1,2,0:0:0:0:
299,205,9890,1,2,0:0:0:0:
35,284,10205,6,0,P|68:242|92:185,1,111.999996582031,2|0,0:0|0:0,0:0:0:0:
99,16,10679,2,0,P|141:49|198:73,1,111.999996582031,2|0,0:0|0:0,0:0:0:0:
298,204,11153,2,0,P|259:221|226:246,1,83.9999974365235,2|0,0:0|0:0,0:0:0:0:
201,220,11469,6,0,P|245:185|296:163,1,111.999996582031,2|0,0:0|0:0,0:0:0:0:
378,287,11942,2,0,P|327:326|268:351,1,128,2|0,0:0|0:0,0:0:0:0:
91,188,12416,1,2,0:0:0:0:
91,188,12495,1,0,0:0:0:0:
91,188,12574,1,0,0:0:0:0:
91,188,12653,1,0,0:0:0:0:
91,188,12732,6,0,L|107:42,1,143.999995605469,6|0,3:1|3:0,0:0:0:0:
192,101,13205,1,0,0:0:0:0:
278,45,13363,2,0,P|313:44|356:57,1,71.9999978027344,0|0,3:0|0:0,0:0:0:0:
325,197,13679,2,0,P|290:198|247:185,1,71.9999978027344,0|0,3:0|0:0,0:0:0:0:
278,45,13995,6,0,P|350:54|407:102,1,143.999995605469,6|0,3:2|3:0,0:0:0:0:
368,278,14469,1,10,0:3:0:0:
319,121,14627,1,0,3:0:0:0:
277,280,14784,1,10,1:3:0:0:
436,237,14942,1,2,3:2:0:0:
183,170,15100,5,8,1:3:0:0:
183,170,15179,1,0,0:0:0:0:
183,170,15258,2,0,L|191:243,1,71.9999978027344,6|0,3:2|0:0,0:0:0:0:
319,121,15574,1,2,3:2:0:0:
168,80,15732,6,0,L|91:95,1,71.9999978027344,6|0,1:2|0:0,0:0:0:0:
269,198,16048,2,0,L|346:213,1,71.9999978027344,6|0,1:2|3:0,0:0:0:0:
145,63,16363,2,0,L|68:78,1,71.9999978027344,2|0,1:2|0:0,0:0:0:0:
264,282,16679,5,2,1:2:0:0:
264,282,16758,1,2,1:2:0:0:
264,282,16837,1,2,3:2:0:0:
319,121,16995,1,10,1:3:0:0:
153,154,17153,1,2,3:2:0:0:
382,179,17311,1,12,1:3:0:0:
235,58,17469,2,0,L|239:130,1,71.9999978027344,2|2,3:2|1:2,0:0:0:0:
332,323,17784,6,0,P|342:281|331:239,1,71.9999978027344,6|0,3:2|0:0,0:0:0:0:
212,214,18100,1,2,3:2:0:0:
181,369,18258,2,0,L|255:362,1,71.9999978027344,10|0,0:3|0:0,0:0:0:0:
382,179,18574,2,0,L|308:172,1,71.9999978027344,2|2,0:0|3:2,0:0:0:0:
128,241,18890,5,2,0:0:0:0:
128,241,18969,1,0,0:0:0:0:
128,241,19048,2,0,L|135:168,1,71.9999978027344,2|2,3:2|0:0,0:0:0:0:
191,293,19363,1,2,3:2:0:0:
65,307,19521,2,0,L|-11:329,2,71.9999978027344,10|0|10,0:3|0:0|0:3,0:0:0:0:
212,214,19995,5,2,3:2:0:0:
41,225,20153,1,0,1:0:0:0:
316,263,20311,5,2,3:2:0:0:
250,111,20469,1,2,0:0:0:0:
98,176,20626,1,2,0:0:0:0:
164,328,20784,1,2,0:0:0:0:
301,248,20942,5,6,3:2:0:0:
249,130,21100,1,2,0:0:0:0:
131,180,21257,1,2,0:0:0:0:
182,299,21415,1,2,0:0:0:0:
212,214,21574,5,2,3:2:0:0:
256,192,21653,12,8,22837,0:2:0:0:
212,214,23153,6,0,L|274:222,1,47.9999985351563,2|0,0:0|0:0,0:0:0:0:
337,155,23469,2,0,P|347:111|341:59,1,95.9999970703126,2|0,0:0|0:0,0:0:0:0:
337,155,23942,1,2,0:0:0:0:
344,251,24100,6,0,L|360:304,1,47.9999985351563,2|0,0:0|0:0,0:0:0:0:
270,307,24416,2,0,L|254:360,1,47.9999985351563,2|0,0:0|0:0,0:0:0:0:
370,236,24732,6,0,L|386:289,1,47.9999985351563,2|0,0:0|0:0,0:0:0:0:
238,300,25048,2,0,L|222:353,1,47.9999985351563,2|0,0:0|0:0,0:0:0:0:
65,201,25363,6,0,P|109:183|157:186,1,95.9999970703126,8|2,0:0|0:0,0:0:0:0:
260,220,25837,1,2,0:0:0:0:
260,220,25995,2,0,L|267:125,1,95.9999970703126,2|0,0:0|0:0,0:0:0:0:
214,8,26469,2,0,L|218:55,1,47.9999985351563,2|2,0:0|0:0,0:0:0:0:
298,376,26942,6,0,L|294:329,1,47.9999985351563,2|0,0:0|0:0,0:0:0:0:
342,254,27258,2,0,P|368:248|404:247,1,47.9999985351563,2|0,0:0|0:0,0:0:0:0:
260,220,27574,2,0,P|213:208|163:215,1,95.9999970703126,2|8,0:0|0:0,0:0:0:0:
208,289,28048,5,0,0:0:0:0:
342,254,28205,2,0,L|350:190,1,47.9999985351563,2|0,0:0|0:0,0:0:0:0:
297,52,28521,2,0,P|286:100|296:152,1,95.9999970703126,2|2,0:0|0:0,0:0:0:0:
379,131,28995,1,2,0:0:0:0:
209,92,29153,2,0,L|101:108,1,95.9999970703126,0|2,0:0|0:0,0:0:0:0:
303,292,29784,6,0,L|411:276,1,95.9999970703126,2|2,0:0|0:0,0:0:0:0:
457,214,30258,1,0,0:0:0:0:
379,151,30416,6,0,P|367:184|365:209,1,47.9999985351563,10|0,0:0|0:0,0:0:0:0:
463,127,30732,1,2,0:0:0:0:
391,66,30890,6,0,P|342:76|307:106,1,95.9999970703126,2|0,0:0|0:0,0:0:0:0:
258,245,31363,2,0,L|261:331,1,71.9999978027344,2|0,0:0|0:0,0:0:0:0:
285,329,31679,2,0,L|282:212,1,95.9999970703126,2|2,0:0|0:0,0:0:0:0:
170,159,32153,1,2,0:0:0:0:
340,180,32311,5,2,0:0:0:0:
167,253,32469,1,2,0:0:0:0:
189,66,32627,1,2,0:0:0:0:
353,258,32784,1,2,0:0:0:0:
94,195,32942,6,0,P|87:148|103:103,1,95.9999970703126,10|2,0:0|0:0,0:0:0:0:
252,133,33416,1,0,0:0:0:0:
170,159,33574,1,2,1:2:0:0:
189,66,33732,2,0,P|232:45|286:48,1,95.9999970703126,2|2,0:0|0:0,0:0:0:0:
239,221,34205,1,2,0:0:0:0:
239,221,34521,6,0,P|243:246|247:276,1,47.9999985351563,2|0,0:0|0:0,0:0:0:0:
336,165,34837,2,0,P|332:190|328:220,1,47.9999985351563,2|0,1:2|0:0,0:0:0:0:
282,340,35153,2,0,P|239:348|190:325,1,95.9999970703126,2|8,0:0|0:0,0:0:0:0:
303,91,35784,6,0,P|346:83|395:106,1,95.9999970703126,2|0,0:0|1:2,0:0:0:0:
237,139,36258,2,0,P|194:147|145:124,1,95.9999970703126,2|2,0:0|0:0,0:0:0:0:
226,59,36732,1,10,0:0:0:0:
226,59,37048,6,0,P|255:66|287:73,1,47.9999985351563,2|0,0:0|0:0,0:0:0:0:
100,137,37363,2,0,P|129:130|161:123,1,47.9999985351563,2|0,1:2|0:0,0:0:0:0:
313,136,37679,2,0,P|345:96|344:42,1,95.9999970703126,2|8,0:0|0:0,0:0:0:0:
54,70,38311,6,0,P|22:110|23:164,2,95.9999970703126,2|2|2,0:0|1:2|0:0,0:0:0:0:
102,141,39100,1,2,0:0:0:0:
69,221,39258,2,0,L|7:235,1,47.9999985351563,0|0,0:0|0:0,0:0:0:0:
102,141,39574,2,0,L|199:147,1,95.9999970703126,2|2,0:0|1:2,0:0:0:0:
410,243,40205,6,0,L|313:237,1,95.9999970703126,2|10,0:0|0:0,0:0:0:0:
216,233,40679,1,0,0:0:0:0:
216,233,40837,2,0,L|225:301,1,47.9999985351563,0|0,0:0|0:0,0:0:0:0:
296,151,41153,2,0,L|287:83,2,47.9999985351563,2|0|2,1:2|0:0|0:0,0:0:0:0:
216,233,41627,6,0,P|170:244|121:231,1,95.9999970703126,2|2,1:2|0:0,0:0:0:0:
53,153,42100,1,0,0:0:0:0:
89,332,42258,1,2,0:0:0:0:
157,132,42416,5,2,0:0:0:0:
19,253,42574,1,2,0:0:0:0:
227,211,42732,5,2,0:0:0:0:
53,153,42890,1,2,0:0:0:0:
193,311,43048,6,0,P|259:311|311:275,1,128,6|0,3:2|3:2,0:0:0:0:
314,177,43521,2,0,L|309:108,1,64,2|0,0:0|3:2,0:0:0:0:
227,211,43837,1,0,0:0:0:0:
386,235,43995,2,0,L|468:216,1,64,2|6,3:2|0:3,0:0:0:0:
393,142,44311,5,4,3:0:0:0:
308,277,44469,2,0,L|306:349,2,64,4|4|0,0:3|3:0|0:0,0:0:0:0:
314,177,44942,5,0,3:0:0:0:
382,321,45100,1,8,1:3:0:0:
223,307,45258,2,0,L|180:315,2,32,2|0|0,3:2|0:0|0:0,0:0:0:0:
386,235,45574,6,0,P|403:173|377:106,1,128,2|0,3:2|3:0,0:0:0:0:
267,20,46048,2,0,P|267:51|279:92,1,64,2|0,0:0|3:2,0:0:0:0:
348,40,46363,1,0,0:0:0:0:
191,66,46521,1,2,3:2:0:0:
314,213,46679,2,0,P|321:176|318:149,1,64,10|0,0:3|3:2,0:0:0:0:
149,232,46995,5,8,1:3:0:0:
237,269,47153,1,2,3:2:0:0:
226,174,47311,1,2,1:2:0:0:
160,327,47469,5,2,1:2:0:0:
138,137,47627,1,2,1:2:0:0:
314,213,47784,5,10,0:3:0:0:
72,290,47942,1,6,0:3:0:0:
248,366,48100,6,0,L|393:349,1,143.999995605469,6|2,3:2|0:0,0:0:0:0:
443,270,48574,1,0,3:0:0:0:
355,130,48732,2,0,P|326:199|357:268,1,143.999995605469,2|2,1:2|3:2,0:0:0:0:
408,197,49205,6,0,L|236:183,1,143.999995605469,0|0,0:0|1:0,0:0:0:0:
127,49,49679,2,0,P|141:83|150:120,1,71.9999978027344,2|0,0:0|3:0,0:0:0:0:
138,323,49995,2,0,P|152:288|161:252,1,71.9999978027344,2|0,1:2|1:0,0:0:0:0:
58,211,50311,5,10,0:3:0:0:
239,314,50469,1,10,0:3:0:0:
238,106,50627,6,0,P|307:92|386:98,1,143.999995605469,12|2,3:2|0:0,0:0:0:0:
199,31,51100,1,0,3:0:0:0:
199,31,51258,2,0,P|164:20|126:16,1,71.9999978027344,2|0,1:2|0:0,0:0:0:0:
165,156,51574,1,2,3:2:0:0:
238,106,51732,6,0,P|307:92|386:98,1,143.999995605469,0|0,0:0|0:0,0:0:0:0:
489,198,52205,2,0,L|411:189,1,71.9999978027344,2|0,1:2|3:0,0:0:0:0:
138,245,52521,6,0,L|216:236,1,71.9999978027344,2|0,1:2|1:2,0:0:0:0:
364,331,52837,2,0,L|286:322,1,71.9999978027344,10|8,0:3|0:3,0:0:0:0:
153,77,53153,6,0,L|166:164,1,80,12|0,3:2|0:0,0:0:0:0:
193,314,53469,1,2,0:0:0:0:
292,220,53627,1,0,0:0:0:0:
292,220,53705,1,0,0:0:0:0:
292,220,53784,1,2,3:2:0:0:
138,245,53942,1,0,0:0:0:0:
279,305,54100,2,0,P|319:301|357:277,1,80,2|0,3:2|0:0,0:0:0:0:
385,206,54337,5,0,0:0:0:0:
392,192,54416,2,0,P|383:147|378:107,1,80,2|0,3:2|0:0,0:0:0:0:
256,144,54732,2,0,L|256:56,1,80,2|0,3:2|0:0,0:0:0:0:
120,192,55048,2,0,P|129:147|134:107,1,80,2|0,3:2|0:0,0:0:0:0:
336,38,55363,1,2,3:2:0:0:
176,38,55521,5,0,0:0:0:0:
176,38,55600,1,0,0:0:0:0:
176,38,55679,2,0,B|58:19|58:19|91:45,1,160,14|0,0:0|1:2,0:0:0:0:
378,113,56153,5,0,1:2:0:0:
134,115,56311,1,0,1:2:0:0:
392,192,56469,5,0,1:2:0:0:
120,192,56627,1,10,1:2:0:0:
413,270,56784,6,0,P|466:226|312:193,1,360,10|0,1:2|0:0,0:0:0:0:
392,192,57574,6,0,B|343:176|299:196|299:196|246:219|206:190,1,191.999994140625,8|2,0:0|0:0,0:0:0:0:
184,159,57969,5,0,0:0:0:0:
175,122,58047,1,2,0:0:0:0:
190,87,58126,1,0,0:0:0:0:
254,131,58205,6,0,L|249:265,1,128,6|0,3:2|0:0,0:0:0:0:
137,224,58521,1,2,1:2:0:0:
332,109,58679,1,2,0:0:0:0:
332,109,58758,1,0,0:0:0:0:
332,109,58837,2,0,P|345:53|326:0,1,95.9999970703126,0|0,0:0|3:2,0:0:0:0:
198,0,59153,1,2,1:2:0:0:
68,109,59311,5,2,0:0:0:0:
68,109,59469,2,0,L|189:100,1,95.9999970703126,0|2,0:0|0:0,0:0:0:0:
406,199,59784,2,0,L|285:190,1,95.9999970703126,2|0,1:2|3:2,0:0:0:0:
153,284,60100,1,2,3:2:0:0:
238,141,60258,1,0,3:2:0:0:
295,273,60416,1,2,1:2:0:0:
58,237,60574,5,2,0:0:0:0:
58,237,60653,1,0,0:0:0:0:
58,237,60732,2,0,P|48:285|63:339,2,95.9999970703126,2|0|2,3:2|0:0|1:2,0:0:0:0:
204,73,61205,2,0,B|134:90|91:155|91:155|90:106|130:89,1,191.999994140625,2|0,0:0|3:2,0:0:0:0:
314,44,61679,1,2,1:2:0:0:
242,237,61837,5,2,0:0:0:0:
242,237,61916,1,0,0:0:0:0:
242,237,61995,2,0,P|191:238|135:221,1,95.9999970703126,0|0,3:2|0:0,0:0:0:0:
376,274,62311,2,0,P|374:327|356:382,1,95.9999970703126,2|0,1:2|3:2,0:0:0:0:
327,137,62627,2,0,P|314:90|313:42,1,95.9999970703126,2|0,3:2|3:2,0:0:0:0:
467,228,62942,6,0,L|323:214,1,143.999995605469,2|0,1:2|1:0,0:0:0:0:
242,237,63258,2,0,P|191:238|135:221,1,95.9999970703126,2|0,3:2|0:0,0:0:0:0:
35,120,63574,1,0,1:0:0:0:
81,318,63732,1,0,0:0:0:0:
81,318,63811,1,2,0:0:0:0:
81,318,63890,1,2,0:0:0:0:
207,158,64048,1,0,3:2:0:0:
66,205,64205,1,2,1:2:0:0:
192,350,64363,5,2,0:0:0:0:
192,350,64521,2,0,P|242:338|305:331,1,95.9999970703126,0|0,3:0|0:0,0:0:0:0:
417,196,64837,2,0,P|367:208|304:215,1,95.9999970703126,2|0,1:2|3:2,0:0:0:0:
131,102,65153,1,2,3:2:0:0:
240,250,65311,1,0,3:2:0:0:
311,83,65469,1,2,1:2:0:0:
141,208,65627,5,0,1:0:0:0:
141,208,65705,1,0,0:0:0:0:
140,208,65784,2,0,P|134:255|144:301,1,95.9999970703126,6|0,3:2|3:0,0:0:0:0:
217,143,66100,2,0,P|223:95|213:49,1,95.9999970703126,2|0,1:2|3:0,0:0:0:0:
63,193,66416,6,0,P|75:257|134:292,1,111.999996582031,6|0,3:2|3:0,0:0:0:0:
295,160,66732,2,0,P|283:96|224:61,1,111.999996582031,2|0,1:2|3:0,0:0:0:0:
20,113,67048,6,0,P|75:112|140:99,1,111.999996582031,6|0,3:2|3:0,0:0:0:0:
324,265,67363,2,0,P|269:254|213:253,1,111.999996582031,0|0,1:0|3:2,0:0:0:0:
55,326,67679,5,10,0:3:0:0:
217,143,67837,1,0,1:0:0:0:
264,339,67995,2,0,P|211:350|161:336,1,95.9999970703126,0|0,1:0|0:0,0:0:0:0:
113,268,68232,1,0,0:0:0:0:
103,246,68311,6,0,L|108:149,1,95.9999970703126,6|0,3:2|0:0,0:0:0:0:
248,67,68627,2,0,P|295:65|341:80,1,95.9999970703126,0|2,1:2|0:0,0:0:0:0:
263,225,68942,1,2,0:0:0:0:
263,225,69100,1,0,0:0:0:0:
140,53,69258,5,0,1:2:0:0:
140,53,69337,1,0,0:0:0:0:
140,53,69416,1,2,0:0:0:0:
140,53,69495,1,0,0:0:0:0:
140,53,69574,2,0,P|91:65|37:72,1,95.9999970703126,6|0,3:2|0:0,0:0:0:0:
9,264,69890,2,0,P|57:251|112:245,1,95.9999970703126,0|2,1:2|3:2,0:0:0:0:
189,280,70127,1,0,0:0:0:0:
208,294,70205,2,0,P|257:309|314:301,1,95.9999970703126,2|0,0:0|3:2,0:0:0:0:
421,208,70521,5,2,1:2:0:0:
218,121,70679,1,2,1:2:0:0:
346,36,70837,6,0,L|336:135,1,95.9999970703126,6|0,3:2|3:2,0:0:0:0:
226,346,71153,2,0,P|218:293|236:247,1,95.9999970703126,2|0,1:2|3:0,0:0:0:0:
311,209,71390,1,0,0:0:0:0:
330,208,71469,1,2,0:0:0:0:
160,175,71627,1,0,3:2:0:0:
301,305,71784,2,0,L|415:302,1,95.9999970703126,2|0,1:2|3:0,0:0:0:0:
141,167,72100,6,0,L|27:164,1,95.9999970703126,6|0,1:2|3:0,0:0:0:0:
322,65,72416,2,0,L|436:62,1,95.9999970703126,6|0,1:2|3:0,0:0:0:0:
176,72,72732,1,6,1:2:0:0:
176,72,72890,1,0,1:0:0:0:
335,179,73048,1,6,1:2:0:0:
145,309,73205,5,0,1:2:0:0:
145,309,73284,1,0,1:2:0:0:
145,309,73363,2,0,L|152:212,1,95.9999970703126,6|0,3:2|3:0,0:0:0:0:
256,28,73679,2,0,L|249:125,1,95.9999970703126,6|0,1:2|3:2,0:0:0:0:
74,257,73995,5,6,1:2:0:0:
176,72,74153,1,0,3:2:0:0:
251,205,74311,1,6,1:2:0:0:
66,161,74469,5,0,3:2:0:0:
66,161,74548,1,0,0:0:0:0:
66,161,74627,2,0,L|74:262,1,95.9999970703126,6|0,1:2|3:2,0:0:0:0:
316,281,74942,2,0,P|342:226|334:159,1,95.9999970703126,6|0,1:2|3:2,0:0:0:0:
249,123,75258,5,6,1:2:0:0:
249,123,75416,1,0,3:2:0:0:
405,75,75574,1,2,1:2:0:0:
251,205,75732,5,0,1:0:0:0:
251,205,75811,1,0,1:0:0:0:
251,205,75890,2,0,L|147:194,2,95.9999970703126,6|6|2,3:2|3:2|1:0,0:0:0:0:
438,248,76363,1,6,3:2:0:0:
322,321,76522,5,2,1:0:0:0:
365,134,76679,1,6,3:2:0:0:
412,337,76837,1,2,1:0:0:0:
267,111,76995,6,0,P|326:44|430:58,1,191.999994140625,6|2,1:2|0:0,0:0:0:0:
460,85,77390,1,2,0:0:0:0:
459,103,77469,1,6,3:2:0:0:
458,121,77548,1,2,0:0:0:0:
457,139,77626,1,2,0:0:0:0:
456,157,77705,1,2,0:0:0:0:
421,196,77784,6,0,L|371:182,3,47.9999985351563,2|2|2|2,1:2|1:2|1:2|1:2,0:0:0:0:
304,215,78100,2,0,L|254:229,3,47.9999985351563,2|0|0|0,1:2|1:0|1:0|1:0,0:0:0:0:
190,193,78416,6,0,P|127:178|66:206,1,128,6|2,0:0|0:0,0:0:0:0:
127,326,78890,2,0,L|138:249,1,64,2|0,0:0|0:0,0:0:0:0:
208,341,79205,1,0,0:0:0:0:
208,341,79363,2,0,L|219:264,1,64,2|2,0:0|0:0,0:0:0:0:
233,131,79679,5,2,0:0:0:0:
183,199,79837,1,0,0:0:0:0:
267,210,79995,1,2,0:0:0:0:
233,131,80153,5,0,0:0:0:0:
148,119,80311,2,0,P|120:140|99:173,1,64,2|0,0:0|0:0,0:0:0:0:
217,277,80627,5,2,0:0:0:0:
267,210,80784,1,2,0:0:0:0:
296,289,80942,6,0,P|262:342|188:351,1,128,2|2,0:0|0:0,0:0:0:0:
267,210,81416,2,0,P|301:157|375:148,1,128,2|0,0:0|0:0,0:0:0:0:
346,224,81890,1,2,0:0:0:0:
217,277,82048,6,0,L|84:270,1,128,2|0,0:0|0:0,0:0:0:0:
53,128,82521,2,0,P|85:140|113:160,1,64,2|0,0:0|0:0,0:0:0:0:
203,120,82837,2,0,P|206:157|200:192,1,64,2|0,0:0|0:0,0:0:0:0:
89,270,83153,6,0,L|199:265,1,96,2|0,0:0|0:0,0:0:0:0:
218,278,83469,2,0,L|304:274,1,64,2|0,0:0|0:0,0:0:0:0:
346,224,83784,1,0,0:0:0:0:
368,145,83942,2,0,P|305:152|267:200,1,128,0|0,0:0|0:0,0:0:0:0:
427,207,84416,5,2,0:0:0:0:
427,207,84574,1,2,0:0:0:0:
427,207,84732,2,0,P|449:177|453:138,1,64,2|0,0:0|0:0,0:0:0:0:
305,6,85048,6,0,L|310:83,1,64,2|0,0:0|0:0,0:0:0:0:
189,114,85363,2,0,L|184:191,1,64,2|0,0:0|0:0,0:0:0:0:
332,225,85679,2,0,L|337:302,1,64,2|0,0:0|0:0,0:0:0:0:
164,312,85995,6,0,P|125:307|98:306,1,64,2|0,0:0|0:0,0:0:0:0:
20,169,86311,2,0,P|59:164|86:163,1,64,0|0,0:0|0:0,0:0:0:0:
243,249,86627,1,2,0:0:0:0:
243,249,86784,1,0,0:0:0:0:
287,129,86942,1,2,0:0:0:0:
165,218,87100,6,0,P|162:269|326:260,1,279.999991455078,2|2,0:0|0:0,0:0:0:0:
165,218,88205,6,0,P|119:232|64:216,1,83.9999974365235,2|0,0:0|0:0,0:0:0:0:
66,201,88521,2,0,B|120:164|176:188|176:188|266:223|338:172|325:94,1,335.999989746094,2|2,0:0|0:0,0:0:0:0:
263,28,89627,1,2,0:0:0:0:
242,114,89784,2,0,P|253:168|257:226,1,111.999996582031,2|0,0:0|0:0,0:0:0:0:
179,51,90416,5,2,0:0:0:0:
401,157,90732,1,2,0:0:0:0:
297,300,91048,6,0,B|243:323|183:279|183:279|160:263|136:263|114:276|100:292|105:311|100:330|115:350|137:358|158:358|179:346|189:326,2,320,2|2|2,0:0|0:0|0:0,0:0:0:0:
256,192,93653,12,2,96100,0:0:0:0:
