osu file format v14

[General]
AudioFilename: audio.mp3
AudioLeadIn: 0
PreviewTime: 57811
Countdown: 0
SampleSet: Soft
StackLeniency: 0.7
Mode: 0
LetterboxInBreaks: 0
WidescreenStoryboard: 0

[Editor]
Bookmarks: 52411
DistanceSpacing: 1
BeatDivisor: 2
GridSize: 4
TimelineZoom: 2.2

[Metadata]
Title:Re:TrymenT
TitleUnicode:Re:TrymenT
Artist:Hotaru Murasaki
ArtistUnicode:紫咲ほたる
Creator:eLy
Version:hmr's Normal
Source:Re:LieF〜親愛なるあなたへ〜
Tags:rask レリーフ relief Shin'ainaru Anata e DeaR YoU retryment opening op short eroge game visual novel 甘利紗陽 amari saya piano homura- wring lecana litoluna cookiezi asahina momoko mokori kawaiwkyik rizia vellya alyce 5hiki
BeatmapID:1165773
BeatmapSetID:519521

[Difficulty]
HPDrainRate:4
CircleSize:3.3
OverallDifficulty:4
ApproachRate:5.5
SliderMultiplier:1.1
SliderTickRate:2

[Events]
//Background and Video events
0,0,"BGHomura-.jpg",0,0
//Break Periods
//Storyboard Layer 0 (Background)
//Storyboard Layer 1 (Fail)
//Storyboard Layer 2 (Pass)
//Storyboard Layer 3 (Foreground)
//Storyboard Sound Samples

[TimingPoints]
2627,315.789473684211,4,2,2,40,1,0
11469,-100,4,2,2,50,0,0
12732,-100,4,2,99,60,0,0
22837,-100,4,2,99,50,0,0
43048,-100,4,2,99,55,0,0
52521,-100,4,2,1,55,0,0
52837,-100,4,2,99,55,0,0
53153,-100,4,2,99,60,0,0
55995,-100,4,2,99,45,0,0
56311,-100,4,2,99,50,0,0
56627,-100,4,2,99,60,0,0
58205,-100,4,2,99,70,0,1
78416,-100,4,2,99,55,0,0

[Colours]
Combo1 : 214,164,107
Combo2 : 186,186,199
Combo3 : 175,254,58
Combo4 : 112,96,255

[HitObjects]
83,94,2627,6,0,P|132:72|201:82,1,110,2|0,0:0|0:0,0:0:0:0:
213,124,3100,2,0,P|267:128|317:106,1,110,2|0,0:0|0:0,0:0:0:0:
353,64,3574,1,2,0:0:0:0:
423,148,3890,2,0,P|440:206|419:272,1,110,2|0,0:0|0:0,0:0:0:0:
388,290,4363,2,0,L|258:301,1,110,2|0,0:0|0:0,0:0:0:0:
223,305,4837,1,2,0:0:0:0:
154,218,5153,6,0,P|206:192|268:204,1,110
301,166,5627,2,0,P|318:108|297:42,1,110,2|0,0:0|0:0,0:0:0:0:
272,19,6100,1,2,0:0:0:0:
166,51,6416,2,0,L|-13:36,2,165,2|2|2,0:0|0:0|0:0,0:0:0:0:
272,19,7679,6,0,P|325:30|371:77,1,110,2|0,0:0|0:0,0:0:0:0:
392,115,8153,2,0,P|397:169|367:228,1,110,2|0,0:0|0:0,0:0:0:0:
326,244,8627,1,2,0:0:0:0:
271,148,8942,2,0,L|142:129,1,110,2|0,0:0|0:0,0:0:0:0:
201,234,9574,2,0,L|93:218,1,110,2|2,0:0|0:0,0:0:0:0:
132,320,10205,6,0,P|182:343|252:332,1,110,2|2,0:0|0:0,0:0:0:0:
282,309,10679,2,0,P|336:305|385:328,1,110,2|2,0:0|0:0,0:0:0:0:
422,369,11153,1,2,0:0:0:0:
492,284,11469,2,0,L|501:115,2,165,2|2|2,0:0|0:0|0:0,0:0:0:0:
384,266,12732,6,0,P|328:261|270:292,1,110,4|0,1:2|1:0,0:0:0:0:
195,353,13363,2,0,L|112:346,2,55,0|2|0,1:0|0:0|1:0,0:0:0:0:
176,243,13995,2,0,P|153:193|156:137,1,110,2|0,1:2|1:0,0:0:0:0:
178,88,14469,2,0,B|224:97|224:97|297:71,1,110,8|8,0:3|0:3,0:0:0:0:
334,55,14942,2,0,L|385:74,1,55,4|0,0:3|1:0,0:0:0:0:
437,94,15258,6,0,P|459:143|457:200,1,110,6|0,1:2|1:0,0:0:0:0:
418,237,15732,2,0,L|309:255,1,110,2|2,0:0|0:0,0:0:0:0:
200,275,16363,1,2,0:0:0:0:
91,294,16679,2,0,L|36:303,2,55,8|8|4,0:0|0:3|0:3,0:0:0:0:
122,248,17153,2,0,P|128:224|127:186,1,55,0|0,1:0|3:0,0:0:0:0:
93,150,17469,2,0,P|87:126|88:88,1,55,2|8,1:2|0:0,0:0:0:0:
121,52,17784,6,0,L|257:67,1,110,2|0,1:2|1:0,0:0:0:0:
285,70,18258,1,10,0:3:0:0:
324,172,18574,2,0,L|392:164,2,55,0|6|2,0:2|0:3|0:0,0:0:0:0:
269,179,19048,2,0,P|249:240|265:292,1,110,2|0,1:2|1:0,0:0:0:0:
290,328,19521,2,0,B|334:316|334:316|424:340,1,110,10|4,0:3|0:3,0:0:0:0:
450,320,19995,1,2,1:2:0:0:
472,212,20311,6,0,P|420:202|370:151,1,110,4|2,1:0|0:0,0:0:0:0:
316,74,20942,2,0,P|262:71|191:112,1,110,6|2,1:2|0:0,0:0:0:0:
149,183,21574,1,0,1:2:0:0:
102,84,22837,5,6,1:2:0:0:
39,174,23153,1,0,0:0:0:0:
86,273,23469,2,0,P|148:264|232:318,1,165
256,365,24100,2,0,P|312:358|378:316,1,110
441,259,24732,2,0,P|385:252|319:210,1,110,2|2,0:0|0:0,0:0:0:0:
257,152,25363,5,2,0:0:0:0:
363,120,25679,1,0,0:0:0:0:
283,45,25995,2,0,P|199:58|150:126,1,165
150,173,26627,2,0,P|172:224|226:258,1,110
325,248,27258,2,0,L|435:240,1,110,2|2,0:0|0:0,0:0:0:0:
508,157,27890,5,2,1:2:0:0:
456,60,28205,1,0,0:0:0:0:
363,120,28521,2,0,L|253:128,1,110,0|2,0:0|0:0,0:0:0:0:
208,160,28995,2,0,P|133:153|101:70,1,165,0|2,0:0|0:0,0:0:0:0:
14,147,29784,2,0,L|26:269,1,110,2|2,0:0|0:0,0:0:0:0:
118,314,30416,6,0,P|160:279|214:271,1,110,2|0,0:0|0:0,0:0:0:0:
266,289,30890,2,0,P|297:245|347:223,1,110,2|0,0:0|0:0,0:0:0:0:
402,229,31363,1,2,0:0:0:0:
510,211,31679,2,0,P|489:160|446:128,1,110,0|2,0:0|0:0,0:0:0:0:
390,122,32153,1,2,0:0:0:0:
390,122,32311,2,0,P|362:123|337:134,1,55,2|0,3:2|3:2,0:0:0:0:
295,169,32627,2,0,P|278:190|270:217,1,55,2|0,0:0|0:0,0:0:0:0:
265,271,32942,5,2,1:2:0:0:
166,319,33258,2,0,P|110:317|62:275,1,110,0|0,0:0|3:0,0:0:0:0:
88,233,33732,2,0,P|100:179|72:124,1,110
37,93,34205,2,0,L|149:77,1,110
216,162,34837,2,0,L|328:178,1,110,2|2,3:2|0:0,0:0:0:0:
395,93,35469,5,2,0:0:0:0:
433,197,35784,2,0,P|412:248|423:316,1,110,0|0,0:0|3:0,0:0:0:0:
447,347,36258,2,0,P|394:331|338:334,1,110
289,356,36732,2,0,L|271:244,1,110,2|0,0:0|0:0,0:0:0:0:
163,223,37363,2,0,L|181:111,1,110,2|2,3:2|0:0,0:0:0:0:
289,94,37995,5,2,1:2:0:0:
398,74,38311,2,0,P|422:127|417:185,1,110,0|0,0:0|3:0,0:0:0:0:
374,278,38942,1,2,0:0:0:0:
374,278,39100,2,0,P|325:252|260:249,1,110,0|0,0:0|3:0,0:0:0:0:
219,266,39574,1,2,0:0:0:0:
135,337,39890,2,0,P|111:284|116:226,1,110,2|2,3:2|0:0,0:0:0:0:
12,194,40521,6,0,P|93:127|194:159,1,220,2|2,0:0|3:2,0:0:0:0:
299,190,41469,1,2,0:0:0:0:
299,190,41627,2,0,P|354:193|400:164,1,110,0|0,3:0|3:0,0:0:0:0:
429,118,42100,2,0,L|413:52,1,55,2|2,0:0|0:0,0:0:0:0:
369,35,42416,2,0,P|338:34|315:48,1,55,2|0,0:0|0:0,0:0:0:0:
278,84,42732,1,2,0:0:0:0:
178,42,43048,6,0,P|140:81|128:134,1,110,4|0,1:2|1:0,0:0:0:0:
81,163,43521,2,0,P|95:215|135:251,1,110
136,307,43995,1,0,1:0:0:0:
136,307,44153,2,0,P|188:320|240:303,1,110,10|4,0:3|0:3,0:0:0:0:
285,271,44627,1,0,1:3:0:0:
285,161,44942,1,0,1:0:0:0:
285,51,45258,1,0,1:0:0:0:
391,52,45574,6,0,P|428:91|439:144,1,110,4|0,1:2|1:0,0:0:0:0:
485,174,46047,2,0,P|470:225|429:261,1,110
428,318,46521,1,0,1:0:0:0:
428,318,46679,2,0,P|375:330|324:312,1,110,10|4,0:3|0:3,0:0:0:0:
285,271,47153,1,2,1:2:0:0:
285,161,47469,2,0,P|259:150|232:149,1,55,8|10,0:0|0:0,0:0:0:0:
184,177,47784,2,0,P|158:187|131:188,1,55,8|6,0:3|0:3,0:0:0:0:
77,174,48100,5,6,1:2:0:0:
132,78,48416,2,0,P|80:64|17:81,2,110,0|8|0,0:0|0:0|1:0,0:0:0:0:
180,104,49205,2,0,B|216:117|216:117|289:92,1,110,2|8,1:2|0:0,0:0:0:0:
334,72,49679,1,0,0:0:0:0:
425,132,49995,2,0,P|434:162|433:192,1,55,8|10,0:0|0:0,0:0:0:0:
416,237,50311,2,0,P|398:263|375:281,1,55,8|10,0:0|0:0,0:0:0:0:
329,298,50627,5,2,1:2:0:0:
234,242,50942,2,0,P|218:292|237:356,2,110,0|8|0,0:0|0:0|1:0,0:0:0:0:
264,196,51732,2,0,L|140:205,1,110,2|0,1:2|0:0,0:0:0:0:
99,209,52205,1,10,0:0:0:0:
17,138,52521,1,8,0:0:0:0:
88,56,52837,1,10,0:3:0:0:
170,127,53153,5,4,1:2:0:0:
99,209,53469,2,0,P|84:260|110:320,1,110,0|2,1:0|1:2,0:0:0:0:
197,256,54100,2,0,P|296:220|282:96,1,220,0|0,1:0|1:0,0:0:0:0:
229,34,55048,2,0,P|279:10|359:27,1,110,0|0,1:0|1:0,0:0:0:0:
407,94,55679,5,4,1:2:0:0:
300,118,55995,2,0,L|316:192,1,55,0|0,1:0|1:0,0:0:0:0:
347,213,56311,2,0,L|331:287,1,55,8|8,0:0|0:0,0:0:0:0:
296,306,56627,1,8,0:0:0:0:
296,306,56784,2,2,B|247:344|187:336|149:299|145:241|145:241|111:253|110:298,1,275,10|4,0:0|0:0,0:2:0:0:
16,96,58205,6,0,P|67:103|126:67,1,110,4|8,1:2|0:0,0:0:0:0:
163,45,58679,2,0,P|214:68|244:124,1,110,0|0,0:0|1:0,0:0:0:0:
244,167,59153,1,8,0:0:0:0:
244,167,59311,2,0,B|287:148|287:148|373:166,1,110,0|0,3:0|0:0,0:0:0:0:
402,173,59784,1,10,0:2:0:0:
496,116,60100,1,2,0:2:0:0:
400,64,60416,2,0,L|333:52,1,55,8|0,0:0|0:0,0:0:0:0:
291,45,60732,6,0,B|248:64|248:64|162:46,1,110,0|8,1:0|0:0,0:0:0:0:
132,40,61205,2,0,P|93:78|102:156,1,110,0|0,0:0|1:0,0:0:0:0:
118,177,61679,1,8,0:0:0:0:
118,177,61837,2,0,P|163:192|169:266,1,110,0|0,3:0|0:0,0:0:0:0:
155,298,62311,1,10,0:0:0:0:
263,278,62627,1,2,0:0:0:0:
371,258,62942,1,10,0:0:0:0:
479,238,63258,6,0,P|497:178|481:114,2,110,0|8|2,1:0|0:0|3:2,0:0:0:0:
371,258,64205,1,8,0:0:0:0:
371,258,64363,2,0,B|320:229|318:284|256:255,1,110,0|0,3:0|0:0,0:0:0:0:
213,240,64837,2,0,P|195:300|211:364,2,110,10|2|10,0:0|0:0|0:0,0:0:0:0:
286,158,65784,5,4,1:2:0:0:
395,148,66100,1,10,0:0:0:0:
385,39,66416,1,4,1:2:0:0:
276,49,66732,1,10,0:2:0:0:
187,113,67048,2,0,P|132:103|85:58,1,110,4|8,1:2|0:0,0:0:0:0:
44,96,67521,1,2,1:2:0:0:
44,96,67679,2,0,P|33:127|35:168,1,55,8|4,0:3|0:3,0:0:0:0:
46,202,67995,1,8,0:0:0:0:
114,288,68311,6,0,B|152:270|152:270|217:286,1,110,4|8,1:2|0:2,0:2:0:0:
261,320,68784,1,2,0:0:0:0:
261,320,68942,2,0,P|315:322|363:283,1,110,0|8,3:0|0:0,0:0:0:0:
431,206,69574,2,0,P|385:177|331:183,1,110,4|10,1:2|0:0,0:0:0:0:
283,211,70048,1,0,1:0:0:0:
283,211,70205,2,0,L|251:91,1,110,0|8,0:0|0:0,0:0:0:0:
330,23,70837,6,0,L|449:55,1,110,2|8,1:2|0:0,0:0:0:0:
469,157,71469,2,0,L|381:244,1,110,2|8,3:2|0:0,0:0:0:0:
283,211,72100,2,0,P|231:209|179:244,1,110,2|8,1:2|0:0,0:0:0:0:
160,346,72732,2,0,P|211:347|263:312,1,110,2|2,3:2|3:2,0:0:0:0:
367,341,73363,6,2,L|385:258,1,55,4|0,1:2|1:0,0:1:0:0:
390,234,73679,2,2,L|458:222,1,55,10|0,0:0|1:0,0:1:0:0:
498,212,73995,2,2,L|480:129,1,55,10|0,0:0|1:0,0:1:0:0:
475,105,74311,1,10,0:0:0:0:
366,85,74627,2,2,P|343:104|332:138,1,55,10|0,0:0|1:0,0:1:0:0:
303,173,74942,2,2,L|235:185,1,55,10|0,0:0|1:0,0:1:0:0:
195,167,75258,2,2,P|172:148|161:114,1,55,10|0,0:0|1:0,0:1:0:0:
121,88,75574,1,10,0:0:0:0:
29,138,75890,5,4,1:2:0:0:
29,138,76048,2,0,P|59:182|53:236,1,110,0|2,1:0|1:0,0:0:0:0:
77,343,76679,1,2,1:1:0:0:
157,266,76995,2,0,P|182:218|232:198,1,110,12|2,0:0|0:0,0:0:0:0:
283,215,77469,2,2,P|311:214|337:205,1,55,10|2,3:0|0:1,0:1:0:0:
383,176,77784,1,8,0:0:0:0:
370,67,78100,1,4,0:3:0:0:
471,111,78416,6,0,P|491:158|473:239,1,110,4|2,0:0|0:0,0:0:0:0:
453,261,78890,2,0,P|407:283|325:269,1,110,2|0,0:0|0:0,0:0:0:0:
299,258,79363,1,2,0:0:0:0:
210,323,79679,2,0,P|166:290|112:284,1,110,0|2,0:0|0:0,0:0:0:0:
24,217,80311,2,0,P|66:182|120:175,1,110,0|2,0:0|0:0,0:0:0:0:
229,171,80942,6,0,P|252:121|250:67,1,110,2|0,0:0|0:0,0:0:0:0:
298,95,81416,2,0,P|350:106|419:75,1,110,2|0,0:0|0:0,0:0:0:0:
448,57,81890,1,2,0:0:0:0:
491,157,82205,2,0,P|500:205|474:274,1,110,0|2,0:0|0:0,0:0:0:0:
388,203,82837,2,0,P|332:209|273:255,1,110,0|2,0:0|0:0,0:0:0:0:
201,164,83469,6,0,P|131:109|39:116,2,165,2|2|0,0:0|0:0|0:0,0:0:0:0:
286,236,84732,2,0,P|341:231|387:202,1,110,2|0,0:0|0:0,0:0:0:0:
407,92,85363,2,0,P|352:97|306:126,1,110,0|2,0:0|0:0,0:0:0:0:
200,163,85995,6,0,P|113:122|173:47,1,220,0|2,0:0|0:0,0:0:0:0:
286,236,87258,2,0,P|371:195|306:127,1,220,0|2,0:0|0:0,0:0:0:0:
200,163,88205,1,0,0:0:0:0:
164,267,88521,6,0,P|239:333|365:339,1,220,2|0,0:0|0:0,0:0:0:0:
449,285,89469,1,0,0:0:0:0:
465,176,89784,2,0,L|449:68,1,110,2|0,0:0|0:0,0:0:0:0:
342,98,90416,2,0,L|274:12,1,110,2|2,0:0|0:0,0:0:0:0:
196,91,91048,5,2,0:0:0:0:
204,291,92311,1,2,0:0:0:0:
374,184,93574,5,2,0:0:0:0:
256,192,93732,12,2,96100,0:0:0:0:
