osu file format v14

[General]
AudioFilename: audio.mp3
AudioLeadIn: 0
PreviewTime: 57811
Countdown: 0
SampleSet: Soft
StackLeniency: 0.7
Mode: 0
LetterboxInBreaks: 0
WidescreenStoryboard: 0

[Editor]
DistanceSpacing: 2.7
BeatDivisor: 1
GridSize: 4
TimelineZoom: 1.7

[Metadata]
Title:Re:TrymenT
TitleUnicode:Re:TrymenT
Artist:Hotaru Murasaki
ArtistUnicode:紫咲ほたる
Creator:eLy
Version:Cookiezi's Insane
Source:Re:LieF〜親愛なるあなたへ〜
Tags:rask レリーフ relief Shin'ainaru Anata e DeaR YoU retryment opening op short eroge game visual novel 甘利紗陽 amari saya piano homura- wring lecana litoluna cookiezi asahina momoko mokori kawaiwkyik rizia vellya alyce 5hiki
BeatmapID:1415439
BeatmapSetID:519521

[Difficulty]
HPDrainRate:6
CircleSize:4
OverallDifficulty:8
ApproachRate:9
SliderMultiplier:1.8
SliderTickRate:2

[Events]
//Background and Video events
0,0,"BGCookiezi.jpg",0,0
//Break Periods
//Storyboard Layer 0 (Background)
//Storyboard Layer 1 (Fail)
//Storyboard Layer 2 (Pass)
//Storyboard Layer 3 (Foreground)
//Storyboard Sound Samples

[TimingPoints]
2627,315.789473684211,4,2,52,30,1,0
3100,-125,4,2,51,30,0,0
3574,-125,4,2,48,30,0,0
3890,-125,4,2,40,30,0,0
4363,-125,4,2,41,30,0,0
4837,-125,4,2,46,30,0,0
5153,-125,4,2,44,30,0,0
5311,-125,4,2,34,30,0,0
5469,-125,4,2,38,30,0,0
5627,-125,4,2,40,30,0,0
5942,-125,4,2,34,30,0,0
6100,-125,4,2,42,30,0,0
6416,-125,4,2,41,30,0,0
6890,-125,4,2,48,30,0,0
7048,-125,4,2,38,30,0,0
7363,-125,4,2,51,30,0,0
7600,-125,4,2,51,30,0,0
7679,-125,4,2,52,30,0,0
8153,-125,4,2,51,30,0,0
8627,-125,4,2,48,30,0,0
8942,-125,4,2,42,30,0,0
9258,-125,4,2,36,30,0,0
9574,-125,4,2,40,30,0,0
9890,-125,4,2,44,30,0,0
10127,-125,4,2,44,30,0,0
10205,-125,4,2,46,30,0,0
10679,-125,4,2,44,30,0,0
11153,-125,4,2,48,30,0,0
11469,-125,4,2,51,40,0,0
11942,-125,4,2,52,40,0,0
12416,-125,4,2,54,50,0,0
12732,-111.111111111111,4,2,52,60,0,0
13048,-111.111111111111,4,2,52,60,0,0
13995,-111.111111111111,4,2,78,60,0,0
14469,-111.111111111111,4,2,77,60,0,0
14627,-111.111111111111,4,2,77,60,0,0
14784,-111.111111111111,4,2,81,60,0,0
14942,-111.111111111111,4,2,76,60,0,0
15258,-111.111111111111,4,2,76,60,0,0
15574,-111.111111111111,4,2,77,60,0,0
15732,-111.111111111111,4,2,76,60,0,0
15890,-111.111111111111,4,2,83,50,0,0
15969,-111.111111111111,4,2,76,60,0,0
16048,-111.111111111111,4,2,72,60,0,0
16363,-111.111111111111,4,2,68,60,0,0
16521,-111.111111111111,4,2,68,60,0,0
16679,-111.111111111111,4,2,54,60,0,0
16758,-111.111111111111,4,2,56,60,0,0
16837,-111.111111111111,4,2,57,60,0,0
16995,-111.111111111111,4,2,56,60,0,0
17153,-111.111111111111,4,2,54,60,0,0
17311,-111.111111111111,4,2,52,60,0,0
17469,-111.111111111111,4,2,51,60,0,0
17627,-111.111111111111,4,2,48,60,0,0
17784,-111.111111111111,4,2,74,60,0,0
18100,-111.111111111111,4,2,48,60,0,0
18258,-111.111111111111,4,2,74,60,0,0
18416,-111.111111111111,4,2,83,50,0,0
18495,-111.111111111111,4,2,83,50,0,0
18574,-111.111111111111,4,2,51,60,0,0
18732,-111.111111111111,4,2,46,60,0,0
18890,-111.111111111111,4,2,51,60,0,0
19048,-111.111111111111,4,2,74,60,0,0
19205,-111.111111111111,4,2,46,60,0,0
19363,-111.111111111111,4,2,50,60,0,0
19521,-111.111111111111,4,2,76,60,0,0
19679,-111.111111111111,4,2,83,50,0,0
19758,-111.111111111111,4,2,83,50,0,0
19837,-111.111111111111,4,2,50,60,0,0
19995,-111.111111111111,4,2,74,60,0,0
20153,-111.111111111111,4,2,74,60,0,0
20311,-111.111111111111,4,2,73,60,0,0
20469,-111.111111111111,4,2,50,60,0,0
20627,-111.111111111111,4,2,46,60,0,0
20784,-111.111111111111,4,2,44,60,0,0
20942,-111.111111111111,4,2,43,50,0,0
21100,-111.111111111111,4,2,40,50,0,0
21258,-111.111111111111,4,2,36,50,0,0
21416,-111.111111111111,4,2,34,50,0,0
21574,-142.857142857143,4,2,33,40,0,0
22048,-142.857142857143,4,2,1,40,0,0
22758,-142.857142857143,4,2,1,40,0,0
22837,-166.666666666667,4,2,10,30,0,0
23153,-166.666666666667,4,2,34,35,0,0
23311,-166.666666666667,4,2,34,35,0,0
23784,-166.666666666667,4,2,34,35,0,0
23942,-166.666666666667,4,2,32,35,0,0
24100,-166.666666666667,4,2,34,35,0,0
24416,-166.666666666667,4,2,36,35,0,0
24732,-166.666666666667,4,2,34,35,0,0
25048,-166.666666666667,4,2,32,35,0,0
25363,-166.666666666667,4,2,11,45,0,0
25679,-166.666666666667,4,2,34,30,0,0
25837,-166.666666666667,4,2,34,30,0,0
26311,-166.666666666667,4,2,34,30,0,0
26469,-166.666666666667,4,2,32,30,0,0
26627,-166.666666666667,4,2,34,30,0,0
26942,-166.666666666667,4,2,36,30,0,0
27258,-166.666666666667,4,2,34,30,0,0
27574,-166.666666666667,4,2,32,30,0,0
27890,-166.666666666667,4,2,12,45,0,0
28205,-166.666666666667,4,2,28,30,0,0
28363,-166.666666666667,4,2,28,30,0,0
28837,-166.666666666667,4,2,32,30,0,0
28995,-166.666666666667,4,2,34,30,0,0
29469,-166.666666666667,4,2,32,30,0,0
29784,-166.666666666667,4,2,31,30,0,0
30100,-166.666666666667,4,2,32,30,0,0
30416,-166.666666666667,4,2,13,30,0,0
30732,-166.666666666667,4,2,32,30,0,0
30890,-166.666666666667,4,2,32,30,0,0
31363,-166.666666666667,4,2,38,30,0,0
31679,-166.666666666667,4,2,34,30,0,0
31995,-166.666666666667,4,2,48,45,0,0
32153,-166.666666666667,4,2,46,42,0,0
32311,-166.666666666667,4,2,42,40,0,0
32469,-166.666666666667,4,2,41,38,0,0
32627,-166.666666666667,4,2,38,36,0,0
32784,-166.666666666667,4,2,34,30,0,0
32942,-166.666666666667,4,2,14,30,0,0
33258,-166.666666666667,4,2,36,30,0,0
33416,-166.666666666667,4,2,34,30,0,0
33574,-166.666666666667,4,2,34,30,0,0
33732,-166.666666666667,4,2,36,30,0,0
33890,-166.666666666667,4,2,36,30,0,0
34205,-166.666666666667,4,2,37,30,0,0
34521,-166.666666666667,4,2,36,30,0,0
34837,-166.666666666667,4,2,34,30,0,0
35153,-166.666666666667,4,2,32,30,0,0
35469,-166.666666666667,4,2,15,45,0,0
35784,-166.666666666667,4,2,36,30,0,0
35942,-166.666666666667,4,2,36,30,0,0
36100,-166.666666666667,4,2,34,30,0,0
36258,-166.666666666667,4,2,36,30,0,0
36574,-166.666666666667,4,2,36,30,0,0
36732,-166.666666666667,4,2,16,30,0,0
37048,-166.666666666667,4,2,36,30,0,0
37205,-166.666666666667,4,2,36,30,0,0
37363,-166.666666666667,4,2,34,30,0,0
37600,-166.666666666667,4,2,34,30,0,0
37679,-166.666666666667,4,2,32,30,0,0
37995,-166.666666666667,4,2,17,45,0,0
38311,-166.666666666667,4,2,28,30,0,0
38469,-166.666666666667,4,2,28,30,0,0
38942,-166.666666666667,4,2,32,30,0,0
39100,-166.666666666667,4,2,34,30,0,0
39574,-166.666666666667,4,2,32,30,0,0
39890,-166.666666666667,4,2,31,30,0,0
40205,-166.666666666667,4,2,32,30,0,0
40521,-166.666666666667,4,2,18,35,0,0
40995,-166.666666666667,4,2,18,35,0,0
41153,-166.666666666667,4,2,30,30,0,0
41469,-166.666666666667,4,2,30,30,0,0
41942,-166.666666666667,4,2,38,38,0,0
42100,-166.666666666667,4,2,48,52,0,0
42258,-166.666666666667,4,2,44,35,0,0
42416,-166.666666666667,4,2,42,44,0,0
42574,-166.666666666667,4,2,41,40,0,0
42732,-166.666666666667,4,2,38,36,0,0
42890,-166.666666666667,4,2,34,32,0,0
43048,-125,4,2,32,60,0,0
43521,-125,4,2,34,60,0,0
43995,-125,4,2,36,60,0,0
44153,-125,4,2,36,60,0,0
44311,-125,4,2,36,60,0,0
45574,-125,4,2,38,60,0,0
46048,-125,4,2,32,60,0,0
46205,-125,4,2,32,60,0,0
46363,-125,4,2,32,60,0,0
46521,-125,4,2,31,60,0,0
46679,-125,4,2,32,60,0,0
46837,-125,4,2,32,60,0,0
47151,-125,4,2,72,60,0,0
47311,-125,4,2,66,60,0,0
47469,-125,4,2,67,60,0,0
47627,-125,4,2,68,60,0,0
47784,-125,4,2,70,60,0,0
47942,-125,4,2,71,60,0,0
48100,-111.111111111111,4,2,72,60,0,0
48416,-111.111111111111,4,2,32,50,0,0
48574,-111.111111111111,4,2,32,50,0,0
48732,-111.111111111111,4,2,34,50,0,0
48890,-111.111111111111,4,2,34,50,0,0
49048,-111.111111111111,4,2,35,50,0,0
49205,-111.111111111111,4,2,83,30,0,0
49363,-111.111111111111,4,2,20,30,0,0
49521,-111.111111111111,4,2,20,50,0,0
49679,-111.111111111111,4,2,34,50,0,0
49995,-111.111111111111,4,2,35,50,0,0
50153,-111.111111111111,4,2,35,50,0,0
50311,-111.111111111111,4,2,37,50,0,0
50469,-111.111111111111,4,2,81,50,0,0
50627,-111.111111111111,4,2,15,50,0,0
50942,-111.111111111111,4,2,35,50,0,0
51258,-111.111111111111,4,2,37,50,0,0
51574,-111.111111111111,4,2,38,50,0,0
51732,-111.111111111111,4,2,38,50,0,0
51890,-111.111111111111,4,2,17,30,0,0
51969,-111.111111111111,4,2,17,30,0,0
52205,-111.111111111111,4,2,38,50,0,0
52521,-111.111111111111,4,2,39,50,0,0
52837,-111.111111111111,4,2,29,50,0,0
53153,-100,4,2,19,40,0,0
53469,-100,4,2,35,40,0,0
54100,-100,4,2,37,40,0,0
54416,-100,4,2,19,30,0,0
54732,-100,4,2,35,40,0,0
55048,-100,4,2,37,40,0,0
55205,-100,4,2,19,40,0,0
55363,-100,4,2,40,40,0,0
55679,-100,4,2,62,40,0,0
55995,-100,4,2,62,40,0,0
56153,-100,4,2,62,40,0,0
56311,-100,4,2,62,40,0,0
56469,-100,4,2,62,40,0,0
56627,-100,4,2,61,40,0,0
56784,-100,4,2,61,40,0,0
56942,-100,4,2,61,45,0,0
57100,-200,4,2,61,45,0,0
57574,-200,4,2,15,50,0,0
57890,-200,4,2,66,45,0,0
58048,-200,4,2,67,45,0,0
58127,-200,4,2,67,45,0,0
58205,-83.3333333333333,4,2,68,70,0,1
58521,-83.3333333333333,4,2,72,70,0,1
58679,-83.3333333333333,4,2,71,70,0,1
58758,-83.3333333333333,4,2,71,70,0,1
58995,-83.3333333333333,4,2,71,70,0,1
59153,-83.3333333333333,4,2,72,70,0,1
59311,-83.3333333333333,4,2,71,70,0,1
59627,-83.3333333333333,4,2,68,70,0,1
59784,-83.3333333333333,4,2,68,70,0,1
59942,-83.3333333333333,4,2,38,41,0,1
60100,-83.3333333333333,4,2,46,60,0,1
60258,-83.3333333333333,4,2,46,60,0,1
60416,-83.3333333333333,4,2,66,70,0,1
60574,-83.3333333333333,4,2,67,70,0,1
60732,-83.3333333333333,4,2,68,70,0,1
61048,-83.3333333333333,4,2,72,70,0,1
61205,-83.3333333333333,4,2,71,70,0,1
61679,-83.3333333333333,4,2,72,70,0,1
61837,-83.3333333333333,4,2,74,70,0,1
61995,-83.3333333333333,4,2,19,70,0,1
62232,-83.3333333333333,4,2,38,70,0,1
62311,-83.3333333333333,4,2,68,70,0,1
62469,-83.3333333333333,4,2,38,40,0,1
62627,-83.3333333333333,4,2,42,70,0,1
62942,-83.3333333333333,4,2,70,70,0,1
63258,-83.3333333333333,4,2,68,70,0,1
63416,-83.3333333333333,4,2,83,60,0,1
63574,-83.3333333333333,4,2,38,70,0,1
63811,-83.3333333333333,4,2,78,80,0,1
64048,-83.3333333333333,4,2,78,70,0,1
64205,-83.3333333333333,4,2,70,70,0,1
64363,-83.3333333333333,4,2,68,70,0,1
64521,-83.3333333333333,4,2,78,60,0,1
64679,-83.3333333333333,4,2,38,70,0,1
64837,-83.3333333333333,4,2,67,70,0,1
64995,-83.3333333333333,4,2,37,40,0,1
65153,-83.3333333333333,4,2,66,70,0,1
65469,-83.3333333333333,4,2,64,70,0,1
65627,-83.3333333333333,4,2,34,30,0,1
65784,-83.3333333333333,4,2,64,70,0,1
66021,-83.3333333333333,4,2,34,70,0,1
66100,-83.3333333333333,4,2,62,70,0,1
66258,-83.3333333333333,4,2,32,35,0,1
66416,-83.3333333333333,4,2,62,70,0,1
66574,-83.3333333333333,4,2,83,60,0,1
66653,-83.3333333333333,4,2,32,70,0,1
66732,-83.3333333333333,4,2,61,70,0,1
66890,-83.3333333333333,4,2,31,35,0,1
67048,-83.3333333333333,4,2,61,60,0,1
67284,-83.3333333333333,4,2,31,60,0,1
67363,-83.3333333333333,4,2,31,60,0,1
67679,-83.3333333333333,4,2,62,50,0,1
67837,-83.3333333333333,4,2,83,50,0,1
67916,-83.3333333333333,4,2,32,50,0,1
68311,-83.3333333333333,4,2,60,60,0,1
68627,-83.3333333333333,4,2,60,60,0,1
68784,-83.3333333333333,4,2,66,56,0,1
68942,-83.3333333333333,4,2,66,70,0,1
69258,-83.3333333333333,4,2,36,70,0,1
69416,-83.3333333333333,4,2,64,60,0,1
69574,-83.3333333333333,4,2,64,70,0,1
69890,-83.3333333333333,4,2,34,70,0,1
70048,-83.3333333333333,4,2,68,58,0,1
70205,-83.3333333333333,4,2,68,70,0,1
70363,-83.3333333333333,4,2,68,70,0,1
70521,-83.3333333333333,4,2,62,60,0,1
70679,-83.3333333333333,4,2,62,60,0,1
70837,-83.3333333333333,4,2,62,70,0,1
70995,-83.3333333333333,4,2,62,70,0,1
71153,-83.3333333333333,4,2,68,70,0,1
71311,-83.3333333333333,4,2,38,30,0,1
71469,-83.3333333333333,4,2,68,70,0,1
71784,-83.3333333333333,4,2,70,70,0,1
71942,-83.3333333333333,4,2,40,30,0,1
72100,-83.3333333333333,4,2,68,70,0,1
72258,-83.3333333333333,4,2,68,70,0,1
72416,-83.3333333333333,4,2,67,70,0,1
72732,-83.3333333333333,4,2,66,70,0,1
72890,-83.3333333333333,4,2,36,55,0,1
73048,-83.3333333333333,4,2,64,70,0,1
73363,-83.3333333333333,4,2,4,70,0,1
74627,-83.3333333333333,4,2,5,70,0,1
75574,-83.3333333333333,4,2,47,70,0,1
75653,-83.3333333333333,4,2,47,70,0,1
75890,-83.3333333333333,4,2,6,70,0,1
76205,-83.3333333333333,4,2,6,70,0,1
76363,-83.3333333333333,4,2,7,70,0,1
76521,-83.3333333333333,4,2,7,70,0,1
76679,-83.3333333333333,4,2,6,70,0,1
76837,-83.3333333333333,4,2,8,70,0,1
76995,-83.3333333333333,4,2,8,70,0,1
77311,-83.3333333333333,4,2,48,56,0,1
77390,-83.3333333333333,4,2,52,56,0,1
77469,-83.3333333333333,4,2,57,62,0,1
77548,-83.3333333333333,4,2,56,58,0,1
77627,-83.3333333333333,4,2,52,52,0,1
77705,-83.3333333333333,4,2,48,50,0,1
77784,-83.3333333333333,4,2,46,48,0,1
77863,-83.3333333333333,4,2,42,44,0,1
77942,-83.3333333333333,4,2,38,40,0,1
78021,-83.3333333333333,4,2,37,36,0,1
78100,-83.3333333333333,4,2,81,36,0,1
78416,-111.111111111111,4,2,81,40,0,0
78890,-111.111111111111,4,2,81,40,0,0
79363,-111.111111111111,4,2,81,45,0,0
79521,-111.111111111111,4,2,81,35,0,0
79679,-111.111111111111,4,2,81,40,0,0
79995,-111.111111111111,4,2,81,45,0,0
80153,-111.111111111111,4,2,81,45,0,0
80311,-111.111111111111,4,2,81,30,0,0
80627,-111.111111111111,4,2,81,35,0,0
80942,-111.111111111111,4,2,81,50,0,0
81258,-111.111111111111,4,2,81,30,0,0
81416,-111.111111111111,4,2,81,45,0,0
81732,-111.111111111111,4,2,81,30,0,0
81890,-111.111111111111,4,2,81,35,0,0
82205,-111.111111111111,4,2,81,40,0,0
82521,-111.111111111111,4,2,81,45,0,0
82837,-111.111111111111,4,2,81,50,0,0
83153,-111.111111111111,4,2,81,40,0,0
83469,-111.111111111111,4,2,81,45,0,0
83627,-111.111111111111,4,2,81,30,0,0
83784,-111.111111111111,4,2,81,45,0,0
83942,-111.111111111111,4,2,81,50,0,0
84258,-111.111111111111,4,2,81,30,0,0
84732,-111.111111111111,4,2,81,45,0,0
85048,-111.111111111111,4,2,81,30,0,0
85363,-111.111111111111,4,2,81,35,0,0
85679,-111.111111111111,4,2,81,35,0,0
85995,-111.111111111111,4,2,81,45,0,0
86153,-111.111111111111,4,2,81,40,0,0
86311,-111.111111111111,4,2,81,35,0,0
86469,-111.111111111111,4,2,81,30,0,0
86627,-111.111111111111,4,2,81,45,0,0
86942,-111.111111111111,4,2,81,30,0,0
87258,-142.857142857143,4,2,81,45,0,0
87890,-142.857142857143,4,2,81,50,0,0
88205,-142.857142857143,4,2,81,35,0,0
88442,-142.857142857143,4,2,81,35,0,0
88521,-142.857142857143,4,2,81,40,0,0
89784,-142.857142857143,4,2,81,50,0,0
90100,-142.857142857143,4,2,81,55,0,0
90416,-142.857142857143,4,2,81,60,0,0
90732,-142.857142857143,4,2,81,65,0,0
91048,-142.857142857143,4,2,81,45,0,0
91995,-142.857142857143,4,2,81,30,0,0
92232,-142.857142857143,4,2,81,30,0,0
92311,-142.857142857143,4,2,81,35,0,0
92627,-142.857142857143,4,2,81,30,0,0
92784,-142.857142857143,4,2,81,33,0,0
92942,-142.857142857143,4,2,81,36,0,0
93100,-142.857142857143,4,2,81,40,0,0
93258,-142.857142857143,4,2,81,45,0,0
93416,-142.857142857143,4,2,81,30,0,0
93574,-142.857142857143,4,2,81,55,0,0
94048,-142.857142857143,4,2,81,50,0,0
94205,-142.857142857143,4,2,81,50,0,0
94521,-142.857142857143,4,2,81,45,0,0
94837,-142.857142857143,4,2,81,40,0,0
94995,-142.857142857143,4,2,81,35,0,0
95311,-142.857142857143,4,2,81,40,0,0
95469,-142.857142857143,4,2,81,40,0,0
95627,-142.857142857143,4,2,81,45,0,0
95784,-142.857142857143,4,2,81,50,0,0
96100,-142.857142857143,4,2,78,30,0,0
96153,-142.857142857143,4,2,81,40,0,0
96205,-142.857142857143,4,2,81,35,0,0

[Colours]
Combo1 : 214,164,107
Combo2 : 186,186,199
Combo3 : 175,254,58
Combo4 : 112,96,255

[HitObjects]
404,312,2627,6,0,P|361:312|302:281,1,90,2|0,0:0|0:0,0:0:0:0:
381,210,2942,1,0,0:0:0:0:
438,119,3100,2,0,P|368:106|287:155,1,144,2|0,0:0|0:0,0:0:0:0:
219,219,3574,2,0,L|301:212,1,72,2|0,0:0|0:0,0:0:0:0:
248,304,3890,2,0,P|180:300|145:166,2,216,2|2|2,0:0|0:0|0:0,0:0:0:0:
248,304,5153,6,0,P|306:248|301:177,1,144,2|2,0:0|0:0,0:0:0:0:
360,105,5627,2,0,B|314:91|314:91|267:100|267:100|217:83,1,144,2|2,0:0|0:0,0:0:0:0:
164,188,6100,1,2,0:0:0:0:
164,188,6416,2,0,P|123:208|19:178,1,144,2|0,0:0|0:0,0:0:0:0:
221,84,6890,1,2,0:0:0:0:
265,246,7048,1,2,0:0:0:0:
265,246,7363,6,0,P|210:245|151:270,1,108,2|0,0:0|0:0,0:0:0:0:
135,290,7679,2,0,P|83:246|83:162,1,144,2|0,0:0|0:0,0:0:0:0:
134,68,8153,2,0,L|278:108,1,144,2|0,0:0|0:0,0:0:0:0:
257,214,8627,2,0,L|341:203,1,72,2|0,0:0|0:0,0:0:0:0:
454,182,8942,1,2,0:0:0:0:
444,146,9258,1,2,0:0:0:0:
383,78,9574,1,2,0:0:0:0:
267,63,9890,6,0,P|249:113|251:175,1,108,2|0,0:0|0:0,0:0:0:0:
273,194,10205,2,0,B|316:210|316:210|372:192|372:192|424:212,1,144,2|0,0:0|0:0,0:0:0:0:
366,293,10679,2,0,B|297:312|297:312|224:280,1,144,2|0,0:0|0:0,0:0:0:0:
61,239,11153,2,0,P|110:230|148:179,1,108,2|0,0:0|0:0,0:0:0:0:
151,150,11469,6,0,L|72:133,2,72,2|0|0,0:0|0:0|0:0,0:0:0:0:
269,151,11942,2,0,B|337:125|337:125|385:119|418:140,1,144,2|0,0:0|0:0,0:0:0:0:
491,247,12416,1,2,0:0:0:0:
462,268,12495,1,0,0:0:0:0:
433,289,12574,1,0,0:0:0:0:
402,308,12653,1,0,0:0:0:0:
367,328,12732,6,0,P|307:308|241:343,1,121.499996292114,6|0,3:1|0:0,0:0:0:0:
229,360,13048,2,0,L|149:346,1,80.9999975280763,0|0,3:0|0:0,0:0:0:0:
17,309,13363,1,0,3:0:0:0:
125,185,13521,1,0,0:0:0:0:
149,346,13679,1,0,3:0:0:0:
9,210,13837,1,0,0:0:0:0:
125,185,13995,6,0,P|215:185|281:143,1,161.999995056153,6|0,3:2|3:0,0:0:0:0:
333,65,14469,2,0,P|365:101|377:157,1,80.9999975280763,10|0,0:3|3:0,0:0:0:0:
299,247,14784,1,10,1:3:0:0:
442,312,14942,1,2,3:2:0:0:
451,272,15021,1,0,0:0:0:0:
459,232,15100,1,8,1:3:0:0:
299,247,15258,6,0,L|211:232,1,80.9999975280763,6|0,3:2|0:0,0:0:0:0:
111,333,15574,1,2,3:2:0:0:
163,164,15732,2,0,L|265:147,1,80.9999975280763,6|0,1:2|0:0,0:0:0:0:
370,331,16048,1,6,1:2:0:0:
426,225,16205,2,0,L|540:247,2,80.9999975280763,0|2|0,3:0|1:2|0:0,0:0:0:0:
255,368,16679,5,2,1:2:0:0:
255,368,16758,1,2,1:2:0:0:
255,368,16837,1,2,3:2:0:0:
149,295,16995,1,10,1:3:0:0:
327,265,17153,1,2,3:2:0:0:
255,368,17311,1,12,1:3:0:0:
223,191,17469,1,2,3:2:0:0:
421,282,17627,1,2,1:2:0:0:
464,128,17784,6,0,P|389:118|315:171,1,161.999995056153,6|2,3:2|3:2,0:0:0:0:
303,294,18258,2,0,B|261:301|261:301|225:288|225:288|185:297|185:297|139:278,1,161.999995056153,10|2,0:3|0:0,0:0:0:0:
32,236,18732,1,2,3:2:0:0:
223,191,18890,1,2,0:0:0:0:
112,25,19048,2,0,L|96:204,1,161.999995056153,2|2,3:2|3:2,0:0:0:0:
334,66,19521,2,0,L|226:58,1,80.9999975280763,10|0,0:3|0:0,0:0:0:0:
11,176,19837,1,10,0:3:0:0:
143,192,19995,2,0,L|247:200,1,80.9999975280763,2|0,3:2|1:0,0:0:0:0:
389,128,20311,5,2,3:2:0:0:
223,198,20469,1,2,0:0:0:0:
356,320,20627,2,0,L|372:216,1,80.9999975280763,2|2,0:0|0:0,0:0:0:0:
116,156,20942,1,6,3:2:0:0:
136,276,21100,1,2,0:0:0:0:
232,192,21258,2,0,L|340:176,1,80.9999975280763,2|2,0:0|0:0,0:0:0:0:
505,119,21574,6,0,B|458:121|401:45|445:-76|475:42|420:116|371:118,1,251.999992309571,2|0,3:2|0:0,0:0:0:0:
375,117,22837,6,0,P|327:91|267:97,1,107.999996704102,8|2,0:2|0:0,0:0:0:0:
204,184,23311,1,0,0:0:0:0:
140,93,23469,2,0,P|116:80|84:77,1,53.9999983520508,2|0,0:0|0:0,0:0:0:0:
43,204,23784,2,0,P|67:217|115:224,1,53.9999983520508,0|2,0:0|0:0,0:0:0:0:
204,184,24100,2,0,L|254:171,2,26.9999991760254,2|0|0,0:0|0:0|0:0,0:0:0:0:
280,317,24416,2,0,P|254:310|224:306,1,53.9999983520508,2|0,0:0|0:0,0:0:0:0:
76,309,24732,2,0,P|69:278|89:220,1,80.9999975280763,2|0,0:0|0:0,0:0:0:0:
94,219,25048,1,2,0:0:0:0:
166,79,25205,1,0,0:0:0:0:
7,116,25363,1,8,0:0:0:0:
7,116,25679,6,0,P|35:110|81:111,1,53.9999983520508,2|2,0:0|0:0,0:0:0:0:
207,202,25995,2,0,P|182:202|153:194,1,53.9999983520508,2|0,0:0|0:0,0:0:0:0:
257,103,26311,1,0,0:0:0:0:
303,253,26469,1,2,0:0:0:0:
436,207,26627,2,0,P|404:167|352:147,1,107.999996704102,2|2,0:0|0:0,0:0:0:0:
207,202,27100,1,0,0:0:0:0:
303,253,27258,2,0,P|331:260|371:258,2,53.9999983520508,2|0|2,0:0|0:0|0:0,0:0:0:0:
216,93,27732,1,0,0:0:0:0:
207,202,27890,6,0,L|194:324,1,107.999996704102,8|2,0:0|0:0,0:0:0:0:
122,372,28363,1,0,0:0:0:0:
47,318,28521,2,0,B|39:286|39:286|48:256,1,53.9999983520508,2|0,0:0|0:0,0:0:0:0:
205,150,28837,2,0,B|214:171|214:171|206:203,1,53.9999983520508,2|2,0:0|0:0,0:0:0:0:
1,207,29153,5,0,0:0:0:0:
85,128,29311,1,0,0:0:0:0:
112,235,29469,1,2,0:0:0:0:
0,121,29627,1,0,0:0:0:0:
155,72,29784,2,0,P|198:59|249:70,1,80.9999975280763,2|0,0:0|0:0,0:0:0:0:
259,71,30100,1,2,0:0:0:0:
307,242,30258,1,0,0:0:0:0:
392,264,30416,6,0,P|420:258|443:246,1,53.9999983520508,10|0,0:0|0:0,0:0:0:0:
500,166,30732,1,2,0:0:0:0:
402,157,30890,2,0,P|385:121|379:31,1,107.999996704102,2|0,0:0|0:0,0:0:0:0:
264,27,31363,2,0,P|242:55|236:141,1,107.999996704102,2|2,0:0|0:0,0:0:0:0:
330,101,31837,1,0,0:0:0:0:
305,194,31995,1,2,0:0:0:0:
231,125,32153,1,2,0:0:0:0:
403,168,32311,5,2,0:0:0:0:
280,293,32469,1,2,0:0:0:0:
381,268,32627,1,2,0:0:0:0:
208,220,32784,1,2,0:0:0:0:
129,350,32942,6,0,L|198:342,1,53.9999983520508,10|0,0:0|0:0,0:0:0:0:
22,255,33258,2,0,L|99:266,1,53.9999983520508,2|0,0:0|0:0,0:0:0:0:
208,220,33574,2,0,L|221:147,1,53.9999983520508,2|2,1:2|0:0,0:0:0:0:
124,25,33890,2,0,L|114:98,1,53.9999983520508,0|2,0:0|0:0,0:0:0:0:
93,194,34205,1,2,0:0:0:0:
208,220,34363,2,0,P|241:219|260:211,2,53.9999983520508,0|2|0,0:0|0:0|0:0,0:0:0:0:
331,130,34837,1,2,1:2:0:0:
367,234,34995,1,0,0:0:0:0:
260,211,35153,1,2,0:0:0:0:
260,211,35469,5,8,0:0:0:0:
415,157,35627,2,0,L|464:144,2,26.9999991760254,0|0|2,0:0|0:0|0:0,0:0:0:0:
291,62,35942,1,0,0:0:0:0:
260,211,36100,1,0,1:2:0:0:
110,232,36258,2,0,P|105:205|94:172,1,53.9999983520508,2|0,0:0|0:0,0:0:0:0:
27,84,36574,1,2,0:0:0:0:
233,126,36732,5,10,0:0:0:0:
233,126,36811,1,0,0:0:0:0:
233,126,36890,1,0,0:0:0:0:
103,24,37048,1,2,0:0:0:0:
38,198,37205,1,0,0:0:0:0:
233,126,37363,2,0,P|249:162|245:222,1,80.9999975280763,2|0,1:2|0:0,0:0:0:0:
242,229,37679,1,2,0:0:0:0:
138,316,37837,1,0,0:0:0:0:
233,126,37995,1,8,0:0:0:0:
346,264,38153,1,0,0:0:0:0:
446,171,38311,6,0,L|370:180,1,53.9999983520508,2|0,0:0|0:0,0:0:0:0:
180,113,38627,2,0,L|245:129,1,53.9999983520508,2|0,1:2|0:0,0:0:0:0:
392,177,38942,1,2,0:0:0:0:
274,260,39100,1,2,0:0:0:0:
376,364,39258,2,0,L|384:253,1,107.999996704102,0|2,0:0|0:0,0:0:0:0:
232,125,39732,1,0,0:0:0:0:
172,275,39890,2,0,P|228:281|280:254,1,107.999996704102,2|2,1:2|0:0,0:0:0:0:
361,152,40363,1,0,0:0:0:0:
232,125,40521,6,0,B|176:119,2,53.9999983520508,10|0|0,0:0|0:0|0:0,0:0:0:0:
360,189,40995,1,0,0:0:0:0:
232,272,41153,2,0,B|173:279,2,53.9999983520508,2|0|2,1:2|0:0|0:0,0:0:0:0:
282,140,41627,1,2,1:2:0:0:
399,190,41784,5,0,0:0:0:0:
232,272,41942,1,2,0:0:0:0:
415,161,42100,1,0,0:0:0:0:
372,358,42258,1,2,0:0:0:0:
196,200,42416,2,0,L|136:209,1,53.9999983520508,2|2,0:0|0:0,0:0:0:0:
52,329,42732,2,0,L|126:336,1,53.9999983520508,2|2,0:0|0:0,0:0:0:0:
223,381,43048,6,0,P|279:329|279:273,1,108,6|0,3:2|0:0,0:0:0:0:
280,267,43363,1,0,3:2:0:0:
208,160,43521,1,2,0:0:0:0:
96,96,43679,2,0,P|57:98|22:120,1,72,0|0,3:2|0:0,0:0:0:0:
28,113,43995,1,2,3:2:0:0:
208,160,44153,6,0,P|299:147|341:97,1,144,6|4,0:3|0:3,0:0:0:0:
237,49,44627,2,0,L|188:29,2,36,4|0|0,3:0|0:0|0:0,0:0:0:0:
113,186,44942,1,0,3:0:0:0:
313,240,45100,1,8,1:3:0:0:
237,49,45258,2,0,L|217:127,1,72,2|0,3:2|0:0,0:0:0:0:
313,240,45574,6,0,P|377:227|470:214,1,144,2|0,3:2|3:0,0:0:0:0:
308,101,46048,1,2,0:0:0:0:
233,314,46205,2,0,P|217:272|197:240,1,72,0|0,3:2|0:0,0:0:0:0:
112,192,46521,1,2,3:2:0:0:
43,351,46679,6,0,P|78:348|111:333,1,72,10|0,0:3|3:2,0:0:0:0:
5,239,46995,1,8,1:3:0:0:
112,192,47153,1,2,3:2:0:0:
147,301,47311,1,2,1:2:0:0:
256,336,47469,1,2,1:2:0:0:
386,275,47627,1,2,1:2:0:0:
406,111,47784,1,10,0:3:0:0:
244,31,47942,1,6,0:3:0:0:
72,166,48100,6,0,L|114:345,1,161.999995056153,6|2,3:2|0:0,0:0:0:0:
317,188,48574,1,0,3:0:0:0:
247,281,48732,2,0,L|249:361,1,80.9999975280763,2|0,1:2|0:0,0:0:0:0:
383,272,49048,2,0,P|407:240|420:187,1,80.9999975280763,2|0,3:2|0:0,0:0:0:0:
366,89,49363,6,0,L|429:99,2,40.4999987640381,2|0|0,0:0|0:0|1:0,0:0:0:0:
258,34,49679,1,2,0:0:0:0:
267,158,49837,1,0,3:0:0:0:
366,89,49995,1,2,1:2:0:0:
155,103,50153,1,0,1:0:0:0:
280,293,50311,1,10,0:3:0:0:
152,256,50469,1,10,0:3:0:0:
152,256,50548,1,0,0:0:0:0:
152,256,50627,6,0,P|203:192|192:104,1,161.999995056153,12|2,3:2|0:0,0:0:0:0:
96,160,51100,1,0,3:0:0:0:
60,55,51258,2,0,P|100:47|141:58,1,80.9999975280763,2|0,1:2|0:0,0:0:0:0:
230,263,51574,2,0,P|189:267|151:255,1,80.9999975280763,2|0,3:2|0:0,0:0:0:0:
60,55,51890,6,0,L|65:216,1,161.999995056153,8|2,0:0|1:2,0:0:0:0:
206,126,52363,1,0,3:0:0:0:
65,216,52521,1,2,1:2:0:0:
257,364,52679,1,0,1:2:0:0:
343,110,52837,1,10,0:3:0:0:
343,110,53153,5,12,3:2:0:0:
426,211,53311,1,0,0:0:0:0:
301,233,53469,1,2,0:0:0:0:
301,233,53548,1,0,0:0:0:0:
301,233,53627,1,0,0:0:0:0:
204,140,53784,2,0,P|155:138|111:162,1,90,2|0,3:2|0:0,0:0:0:0:
278,317,54100,2,0,P|300:273|297:218,1,90,2|0,3:2|0:0,0:0:0:0:
301,233,54337,1,0,0:0:0:0:
301,233,54416,5,2,3:2:0:0:
106,337,54574,1,0,0:0:0:0:
291,375,54732,1,2,3:2:0:0:
402,222,54890,1,0,0:0:0:0:
196,133,55048,1,2,3:2:0:0:
106,337,55205,1,0,0:0:0:0:
287,321,55363,2,0,B|305:204,1,90,2|0,3:2|0:0,0:0:0:0:
302,223,55600,1,0,0:0:0:0:
303,214,55679,5,14,0:0:0:0:
137,116,55837,1,0,0:0:0:0:
356,54,55995,1,0,1:2:0:0:
299,231,56153,1,0,1:2:0:0:
109,108,56311,5,0,1:2:0:0:
330,139,56469,1,0,1:2:0:0:
118,220,56627,1,10,1:2:0:0:
220,345,56784,2,0,B|158:346|117:220|117:220|178:214|205:269|205:269|74:300|38:246,1,450,10|8,1:2|0:0,0:0:0:0:
397,178,57890,6,0,L|454:168,1,45,2|2,0:0|0:0,0:0:0:0:
285,29,58205,5,6,3:2:0:0:
407,90,58363,1,0,0:0:0:0:
246,238,58521,1,2,1:2:0:0:
364,21,58679,1,2,0:0:0:0:
361,177,58837,2,0,P|307:179|257:159,1,107.999996704102,0|0,0:0|3:2,0:0:0:0:
110,86,59153,2,0,P|56:87|6:107,1,107.999996704102,2|2,1:2|0:0,0:0:0:0:
44,339,59469,1,0,3:0:0:0:
195,222,59627,1,2,0:0:0:0:
268,347,59784,6,0,L|390:371,1,107.999996704102,2|0,1:2|3:2,0:0:0:0:
496,224,60100,2,0,P|440:240|388:236,1,107.999996704102,2|0,3:2|3:2,0:0:0:0:
279,137,60416,1,2,1:2:0:0:
318,21,60574,1,2,0:0:0:0:
419,89,60732,5,2,3:2:0:0:
279,137,60890,1,0,3:0:0:0:
390,236,61048,2,0,L|373:301,1,53.9999983520508,2|0,1:2|0:0,0:0:0:0:
285,362,61205,2,0,P|210:330|139:312,1,107.999996704102,2|0,0:0|0:0,0:0:0:0:
132,215,61521,1,0,3:2:0:0:
376,152,61679,1,2,1:2:0:0:
238,65,61837,1,2,0:0:0:0:
238,65,61916,1,0,0:0:0:0:
238,65,61995,5,0,3:2:0:0:
376,152,62153,1,0,0:0:0:0:
300,300,62311,1,2,1:2:0:0:
471,140,62469,1,0,3:2:0:0:
302,203,62627,2,0,P|251:217|199:206,1,107.999996704102,2|0,3:2|3:2,0:0:0:0:
100,332,62942,1,2,1:2:0:0:
17,154,63100,1,0,1:0:0:0:
17,154,63179,1,0,1:0:0:0:
17,154,63258,6,0,P|104:97|221:124,1,215.999993408203,2|0,3:2|1:0,0:0:0:0:
300,300,63732,1,0,0:0:0:0:
128,180,63890,2,0,P|160:137|208:115,1,107.999996704102,2|0,0:0|3:2,0:0:0:0:
300,300,64205,1,2,1:2:0:0:
342,102,64363,1,2,0:0:0:0:
128,180,64521,6,0,L|20:183,1,107.999996704102,0|0,3:0|0:0,0:0:0:0:
300,300,64837,2,0,L|429:296,1,107.999996704102,2|0,1:2|3:2,0:0:0:0:
240,52,65153,2,0,L|131:59,1,107.999996704102,2|0,3:2|3:2,0:0:0:0:
32,342,65469,2,0,L|143:336,1,107.999996704102,2|0,1:2|1:0,0:0:0:0:
300,300,65784,5,6,3:2:0:0:
129,224,65942,1,0,3:0:0:0:
265,192,66100,1,2,1:2:0:0:
139,336,66258,1,0,3:0:0:0:
323,358,66416,2,0,L|338:288,1,53.9999983520508,6|0,3:2|0:0,0:0:0:0:
275,138,66574,2,0,L|259:222,1,53.9999983520508,0|0,0:0|0:0,0:0:0:0:
139,336,66732,2,0,L|256:315,1,107.999996704102,2|0,1:2|3:0,0:0:0:0:
129,224,67048,6,0,L|16:240,1,107.999996704102,6|0,3:2|3:0,0:0:0:0:
211,122,67363,1,0,1:0:0:0:
152,360,67521,1,0,3:2:0:0:
255,246,67679,1,10,0:3:0:0:
84,98,67837,1,0,1:0:0:0:
114,256,67995,1,0,1:0:0:0:
114,256,68311,6,0,P|176:257|222:238,1,107.999996704102,6|0,3:2|0:0,0:0:0:0:
250,74,68627,1,0,1:2:0:0:
25,93,68784,1,2,0:0:0:0:
32,320,68942,2,0,P|100:344|147:334,2,107.999996704102,2|0|0,0:0|3:0|1:2,0:0:0:0:
206,164,69416,1,2,0:0:0:0:
304,362,69574,6,0,L|326:247,1,107.999996704102,6|0,3:2|3:0,0:0:0:0:
146,37,69890,1,0,1:2:0:0:
206,164,70048,1,2,3:2:0:0:
348,101,70205,2,0,L|456:97,1,107.999996704102,2|0,0:0|3:2,0:0:0:0:
324,255,70521,1,2,1:2:0:0:
211,23,70679,1,2,1:2:0:0:
58,159,70837,5,6,3:2:0:0:
160,107,70995,1,0,3:2:0:0:
123,230,71153,5,2,1:2:0:0:
276,190,71311,1,0,3:0:0:0:
134,325,71469,5,2,0:0:0:0:
329,340,71627,1,0,3:2:0:0:
336,88,71784,5,2,1:2:0:0:
163,165,71942,1,0,3:0:0:0:
88,361,72100,6,0,L|70:253,1,107.999996704102,6|0,1:2|3:0,0:0:0:0:
263,118,72416,1,6,1:2:0:0:
242,294,72574,1,0,3:0:0:0:
70,254,72732,1,6,1:2:0:0:
252,203,72890,1,0,1:0:0:0:
47,67,73048,1,6,1:2:0:0:
47,67,73127,1,0,1:2:0:0:
47,67,73205,1,0,1:2:0:0:
88,361,73363,6,0,P|143:355|220:343,1,107.999996704102,6|0,3:2|3:0,0:0:0:0:
438,140,73679,2,0,P|389:113|335:83,1,107.999996704102,6|0,1:2|3:2,0:0:0:0:
304,328,73995,1,6,1:2:0:0:
440,256,74153,1,0,3:2:0:0:
208,148,74311,1,6,1:2:0:0:
344,88,74469,1,0,3:2:0:0:
319,214,74627,6,0,L|196:193,1,107.999996704102,6|0,1:2|3:2,0:0:0:0:
30,23,74942,2,0,L|138:40,1,107.999996704102,6|0,1:2|3:2,0:0:0:0:
53,168,75258,1,6,1:2:0:0:
213,25,75416,1,0,3:2:0:0:
275,267,75574,1,2,1:2:0:0:
407,97,75732,1,0,1:0:0:0:
364,90,75811,1,0,1:0:0:0:
321,96,75890,5,6,3:2:0:0:
204,220,76048,1,6,3:2:0:0:
363,182,76205,1,2,1:0:0:0:
222,89,76363,1,6,3:2:0:0:
186,298,76521,1,2,1:0:0:0:
270,163,76679,1,6,3:2:0:0:
243,375,76837,1,2,1:0:0:0:
100,179,76995,1,6,1:2:0:0:
72,355,77153,5,0,0:0:0:0:
238,308,77311,2,0,L|177:296,1,53.9999983520508,2|2,0:0|0:0,0:0:0:0:
388,240,77469,1,6,3:2:0:0:
414,267,77548,1,2,0:0:0:0:
451,274,77627,2,0,L|478:217,1,53.9999983520508,2|2,0:0|0:0,0:0:0:0:
407,67,77784,2,0,L|376:122,1,53.9999983520508,2|2,1:2|1:2,0:0:0:0:
261,214,77942,2,0,L|206:202,1,53.9999983520508,2|2,1:2|1:2,0:0:0:0:
158,43,78100,2,0,L|104:50,1,53.9999983520508,2|0,1:2|1:0,0:0:0:0:
22,151,78258,1,0,1:0:0:0:
22,151,78337,1,0,1:0:0:0:
22,151,78416,6,0,P|80:198|166:190,1,161.999995056153,6|2,0:0|0:0,0:0:0:0:
249,117,78890,2,0,P|324:90|400:125,1,161.999995056153,2|0,0:0|0:0,0:0:0:0:
321,192,79363,2,0,P|311:227|321:280,1,80.9999975280763,2|2,0:0|0:0,0:0:0:0:
388,332,79679,6,0,P|431:341|487:239,1,161.999995056153,2|2,0:0|0:0,0:0:0:0:
296,363,80311,1,2,0:0:0:0:
55,156,80627,1,2,0:0:0:0:
55,156,80784,1,2,0:0:0:0:
145,229,80942,6,0,L|329:211,1,161.999995056153,2|2,0:0|0:0,0:0:0:0:
413,347,81416,2,0,L|250:329,1,161.999995056153,2|0,0:0|0:0,0:0:0:0:
433,222,81890,1,2,0:0:0:0:
413,347,82048,1,2,0:0:0:0:
189,247,82205,6,0,P|245:228|343:278,1,161.999995056153,2|2,0:0|0:0,0:0:0:0:
335,267,82837,1,2,0:0:0:0:
448,143,83153,1,2,0:0:0:0:
354,81,83469,6,0,P|308:147|296:241,1,161.999995056153,2|0,0:0|0:0,0:0:0:0:
449,213,83942,1,0,0:0:0:0:
294,226,84258,1,0,0:0:0:0:
294,226,84416,1,2,0:0:0:0:
294,226,84732,6,0,L|208:205,1,80.9999975280763,2|0,0:0|0:0,0:0:0:0:
34,297,85048,2,0,L|113:273,1,80.9999975280763,2|0,0:0|0:0,0:0:0:0:
134,113,85363,2,0,L|107:304,1,161.999995056153,2|2,0:0|0:0,0:0:0:0:
225,336,85837,1,0,0:0:0:0:
295,226,85995,6,0,L|455:260,1,161.999995056153,2|0,0:0|0:0,0:0:0:0:
225,336,86627,2,0,L|141:320,2,80.9999975280763,2|0|2,0:0|0:0|0:0,0:0:0:0:
468,179,87258,6,0,L|383:189,1,62.9999980773926,2|0,0:0|0:0,0:0:0:0:
214,208,87574,1,0,0:0:0:0:
214,208,87890,1,2,0:0:0:0:
405,186,88048,1,0,0:0:0:0:
296,81,88205,2,0,L|180:73,1,94.499997116089,2|0,0:0|0:0,0:0:0:0:
176,80,88521,6,0,L|164:226,1,125.999996154785,2|0,0:0|0:0,0:0:0:0:
151,341,88995,1,0,0:0:0:0:
151,341,89153,1,0,0:0:0:0:
151,341,89469,2,0,L|67:333,1,62.9999980773926,2|2,0:0|0:0,0:0:0:0:
165,205,89784,6,0,L|257:213,2,62.9999980773926,2|0|0,0:0|0:0|0:0,0:0:0:0:
309,96,90416,1,2,0:0:0:0:
422,204,90732,1,2,0:0:0:0:
486,265,91048,6,0,P|340:239|509:188,1,472.499985580445,2|0,0:0|0:0,0:0:0:0:
422,204,92311,6,0,B|348:267|262:215|262:215|166:155|54:226,1,377.999988464356,2|2,0:0|0:0,0:0:0:0:
168,345,93574,5,2,0:0:0:0:
256,192,93653,12,2,96100,0:0:0:0:
