osu file format v14

[General]
AudioFilename: audio.mp3
AudioLeadIn: 0
PreviewTime: 57811
Countdown: 0
SampleSet: Soft
StackLeniency: 0.7
Mode: 0
LetterboxInBreaks: 0
WidescreenStoryboard: 1

[Editor]
Bookmarks: 5153,6416,7679,10205,11469,15258,17784,20311,20942,21574,22837,25363,27890,30416,32942,35469,37995,40521,43048,45574,46837,50627,53153,55679,56942,58205,60732,63258,65784,67048,68311,69574,70837,72100,73363,74627,75890,76995
DistanceSpacing: 6
BeatDivisor: 4
GridSize: 4
TimelineZoom: 1.8

[Metadata]
Title:Re:TrymenT
TitleUnicode:Re:TrymenT
Artist:Hotaru Murasaki
ArtistUnicode:紫咲ほたる
Creator:eLy
Version:Alyce's Extra
Source:Re:LieF〜親愛なるあなたへ〜
Tags:rask レリーフ relief Shin'ainaru Anata e DeaR YoU retryment opening op short eroge game visual novel 甘利紗陽 amari saya piano homura- wring lecana litoluna cookiezi asahina momoko mokori kawaiwkyik rizia vellya alyce 5hiki
BeatmapID:1415438
BeatmapSetID:519521

[Difficulty]
HPDrainRate:6
CircleSize:4
OverallDifficulty:7.5
ApproachRate:9.3
SliderMultiplier:1.72
SliderTickRate:2

[Events]
//Background and Video events
0,0,"BGAlyce.jpg",0,0
//Break Periods
//Storyboard Layer 0 (Background)
//Storyboard Layer 1 (Fail)
//Storyboard Layer 2 (Pass)
//Storyboard Layer 3 (Foreground)
//Storyboard Sound Samples

[TimingPoints]
2627,315.789473684211,4,2,52,30,1,0
2627,-166.666666666667,4,2,52,30,0,0
3100,-166.666666666667,4,2,51,30,0,0
3574,-166.666666666667,4,2,48,30,0,0
3890,-166.666666666667,4,2,40,30,0,0
4363,-166.666666666667,4,2,41,30,0,0
4837,-166.666666666667,4,2,46,30,0,0
5153,-166.666666666667,4,2,44,30,0,0
5311,-166.666666666667,4,2,34,30,0,0
5469,-166.666666666667,4,2,38,30,0,0
5627,-166.666666666667,4,2,40,30,0,0
5942,-166.666666666667,4,2,34,30,0,0
6100,-166.666666666667,4,2,42,30,0,0
6416,-166.666666666667,4,2,41,30,0,0
6890,-166.666666666667,4,2,48,30,0,0
7048,-166.666666666667,4,2,38,30,0,0
7363,-166.666666666667,4,2,51,30,0,0
7679,-166.666666666667,4,2,52,30,0,0
8153,-166.666666666667,4,2,51,30,0,0
8627,-166.666666666667,4,2,48,30,0,0
8942,-166.666666666667,4,2,42,30,0,0
9258,-166.666666666667,4,2,36,30,0,0
9574,-166.666666666667,4,2,40,30,0,0
9890,-166.666666666667,4,2,44,30,0,0
10205,-166.666666666667,4,2,46,30,0,0
10679,-166.666666666667,4,2,44,30,0,0
11153,-166.666666666667,4,2,48,30,0,0
11469,-166.666666666667,4,2,51,40,0,0
11942,-166.666666666667,4,2,52,40,0,0
12416,-111.111111111111,4,2,54,50,0,0
12732,-111.111111111111,4,2,52,60,0,0
13995,-111.111111111111,4,2,78,60,0,0
14469,-111.111111111111,4,2,77,60,0,0
14784,-111.111111111111,4,2,81,60,0,0
14942,-111.111111111111,4,2,76,60,0,0
15258,-111.111111111111,4,2,76,60,0,0
15574,-111.111111111111,4,2,77,60,0,0
15732,-111.111111111111,4,2,76,60,0,0
15890,-111.111111111111,4,2,83,50,0,0
15969,-111.111111111111,4,2,76,60,0,0
16048,-111.111111111111,4,2,72,60,0,0
16363,-111.111111111111,4,2,68,60,0,0
16679,-111.111111111111,4,2,54,60,0,0
16758,-111.111111111111,4,2,56,60,0,0
16837,-111.111111111111,4,2,57,60,0,0
16995,-111.111111111111,4,2,56,60,0,0
17153,-111.111111111111,4,2,54,60,0,0
17311,-111.111111111111,4,2,52,60,0,0
17469,-111.111111111111,4,2,51,60,0,0
17627,-111.111111111111,4,2,48,60,0,0
17784,-111.111111111111,4,2,74,60,0,0
18100,-111.111111111111,4,2,48,60,0,0
18258,-111.111111111111,4,2,74,60,0,0
18416,-111.111111111111,4,2,83,50,0,0
18574,-111.111111111111,4,2,51,60,0,0
18732,-111.111111111111,4,2,46,60,0,0
18890,-111.111111111111,4,2,51,60,0,0
19048,-111.111111111111,4,2,74,60,0,0
19205,-111.111111111111,4,2,46,60,0,0
19363,-111.111111111111,4,2,50,60,0,0
19521,-111.111111111111,4,2,76,60,0,0
19679,-111.111111111111,4,2,83,50,0,0
19837,-111.111111111111,4,2,50,60,0,0
19995,-111.111111111111,4,2,74,60,0,0
20311,-111.111111111111,4,2,73,60,0,0
20469,-111.111111111111,4,2,50,60,0,0
20627,-111.111111111111,4,2,46,60,0,0
20784,-111.111111111111,4,2,44,60,0,0
20942,-111.111111111111,4,2,43,50,0,0
21100,-111.111111111111,4,2,40,50,0,0
21258,-111.111111111111,4,2,36,50,0,0
21416,-111.111111111111,4,2,34,50,0,0
21574,-111.111111111111,4,2,33,40,0,0
22048,-111.111111111111,4,2,1,40,0,0
22837,-166.666666666667,4,2,10,30,0,0
23153,-166.666666666667,4,2,34,35,0,0
23942,-166.666666666667,4,2,32,35,0,0
24100,-166.666666666667,4,2,34,35,0,0
24416,-166.666666666667,4,2,36,35,0,0
24732,-166.666666666667,4,2,34,35,0,0
25048,-166.666666666667,4,2,32,35,0,0
25363,-166.666666666667,4,2,11,45,0,0
25679,-166.666666666667,4,2,34,30,0,0
26469,-166.666666666667,4,2,32,30,0,0
26627,-166.666666666667,4,2,34,30,0,0
26942,-166.666666666667,4,2,36,30,0,0
27258,-166.666666666667,4,2,34,30,0,0
27574,-166.666666666667,4,2,32,30,0,0
27890,-166.666666666667,4,2,12,45,0,0
28205,-166.666666666667,4,2,28,30,0,0
28837,-166.666666666667,4,2,32,30,0,0
28995,-166.666666666667,4,2,34,30,0,0
29469,-166.666666666667,4,2,32,30,0,0
29784,-166.666666666667,4,2,31,30,0,0
30100,-166.666666666667,4,2,32,30,0,0
30416,-166.666666666667,4,2,13,30,0,0
30732,-166.666666666667,4,2,32,30,0,0
31363,-166.666666666667,4,2,38,30,0,0
31679,-166.666666666667,4,2,34,30,0,0
31995,-166.666666666667,4,2,48,45,0,0
32153,-166.666666666667,4,2,46,42,0,0
32311,-166.666666666667,4,2,42,40,0,0
32469,-166.666666666667,4,2,41,38,0,0
32627,-166.666666666667,4,2,38,36,0,0
32784,-166.666666666667,4,2,34,30,0,0
32942,-166.666666666667,4,2,14,30,0,0
33258,-166.666666666667,4,2,36,30,0,0
33574,-166.666666666667,4,2,34,30,0,0
33732,-166.666666666667,4,2,36,30,0,0
34205,-166.666666666667,4,2,37,30,0,0
34521,-166.666666666667,4,2,36,30,0,0
34837,-166.666666666667,4,2,34,30,0,0
35153,-166.666666666667,4,2,32,30,0,0
35469,-166.666666666667,4,2,15,45,0,0
35784,-166.666666666667,4,2,36,30,0,0
36100,-166.666666666667,4,2,34,30,0,0
36258,-166.666666666667,4,2,36,30,0,0
36732,-166.666666666667,4,2,16,30,0,0
37048,-166.666666666667,4,2,36,30,0,0
37363,-166.666666666667,4,2,34,30,0,0
37679,-166.666666666667,4,2,32,30,0,0
37995,-166.666666666667,4,2,17,45,0,0
38311,-166.666666666667,4,2,28,30,0,0
38942,-166.666666666667,4,2,32,30,0,0
39100,-166.666666666667,4,2,34,30,0,0
39574,-166.666666666667,4,2,32,30,0,0
39890,-166.666666666667,4,2,31,30,0,0
40205,-166.666666666667,4,2,32,30,0,0
40521,-166.666666666667,4,2,18,35,0,0
41153,-166.666666666667,4,2,30,30,0,0
41942,-166.666666666667,4,2,38,38,0,0
42100,-166.666666666667,4,2,48,52,0,0
42258,-166.666666666667,4,2,44,35,0,0
42416,-166.666666666667,4,2,42,44,0,0
42574,-166.666666666667,4,2,41,40,0,0
42732,-166.666666666667,4,2,38,36,0,0
42890,-166.666666666667,4,2,34,32,0,0
43048,-142.857142857143,4,2,32,60,0,0
43521,-142.857142857143,4,2,34,60,0,0
43995,-142.857142857143,4,2,36,60,0,0
45574,-142.857142857143,4,2,38,60,0,0
46048,-142.857142857143,4,2,32,60,0,0
46521,-142.857142857143,4,2,31,60,0,0
46679,-142.857142857143,4,2,32,60,0,0
47151,-111.111111111111,4,2,72,60,0,0
47311,-111.111111111111,4,2,66,60,0,0
47469,-111.111111111111,4,2,67,60,0,0
47627,-111.111111111111,4,2,68,60,0,0
47784,-111.111111111111,4,2,70,60,0,0
47942,-111.111111111111,4,2,71,60,0,0
48100,-125,4,2,72,60,0,0
48416,-125,4,2,32,50,0,0
48732,-125,4,2,34,50,0,0
49048,-125,4,2,35,50,0,0
49205,-125,4,2,83,30,0,0
49363,-125,4,2,20,30,0,0
49521,-125,4,2,20,50,0,0
49679,-125,4,2,34,50,0,0
49995,-125,4,2,35,50,0,0
50311,-125,4,2,37,50,0,0
50469,-125,4,2,81,50,0,0
50627,-125,4,2,15,50,0,0
50942,-125,4,2,35,50,0,0
51258,-125,4,2,37,50,0,0
51574,-125,4,2,38,50,0,0
51890,-125,4,2,17,30,0,0
52205,-125,4,2,38,50,0,0
52521,-125,4,2,39,50,0,0
52837,-125,4,2,29,50,0,0
53153,-111.111111111111,4,2,19,40,0,0
53469,-111.111111111111,4,2,35,40,0,0
54100,-111.111111111111,4,2,37,40,0,0
54416,-111.111111111111,4,2,19,30,0,0
54732,-111.111111111111,4,2,35,40,0,0
55048,-111.111111111111,4,2,37,40,0,0
55205,-111.111111111111,4,2,19,40,0,0
55363,-111.111111111111,4,2,40,40,0,0
55679,-111.111111111111,4,2,62,40,0,0
56627,-111.111111111111,4,2,61,40,0,0
56942,-200,4,2,61,45,0,0
57574,-200,4,2,15,50,0,0
57890,-100,4,2,66,45,0,0
58048,-100,4,2,67,45,0,0
58205,-100,4,2,68,70,0,1
58521,-100,4,2,72,70,0,1
58679,-100,4,2,71,70,0,1
59153,-100,4,2,72,70,0,1
59311,-100,4,2,71,70,0,1
59469,-100,4,2,83,60,0,1
59627,-100,4,2,68,70,0,1
59942,-100,4,2,38,41,0,1
60100,-100,4,2,46,60,0,1
60416,-100,4,2,66,70,0,1
60574,-100,4,2,67,70,0,1
60732,-100,4,2,68,70,0,1
61048,-100,4,2,72,70,0,1
61205,-100,4,2,71,70,0,1
61679,-100,4,2,72,70,0,1
61837,-100,4,2,74,70,0,1
61995,-100,4,2,19,70,0,1
62232,-100,4,2,38,70,0,1
62311,-100,4,2,68,70,0,1
62469,-100,4,2,38,40,0,1
62627,-100,4,2,42,70,0,1
62942,-100,4,2,70,70,0,1
63258,-100,4,2,68,70,0,1
63416,-100,4,2,83,60,0,1
63574,-100,4,2,38,70,0,1
63811,-100,4,2,78,80,0,1
64048,-100,4,2,78,70,0,1
64205,-100,4,2,70,70,0,1
64363,-100,4,2,68,70,0,1
64521,-100,4,2,83,60,0,1
64679,-100,4,2,38,70,0,1
64837,-100,4,2,67,70,0,1
64995,-100,4,2,37,40,0,1
65153,-100,4,2,66,70,0,1
65469,-100,4,2,64,70,0,1
65627,-100,4,2,34,30,0,1
65784,-100,4,2,64,70,0,1
65942,-100,4,2,83,60,0,1
66021,-100,4,2,34,70,0,1
66100,-100,4,2,62,70,0,1
66258,-100,4,2,32,35,0,1
66416,-100,4,2,62,70,0,1
66574,-100,4,2,83,60,0,1
66653,-100,4,2,32,70,0,1
66732,-100,4,2,61,70,0,1
66890,-100,4,2,31,35,0,1
67048,-100,4,2,61,60,0,1
67205,-100,4,2,83,50,0,1
67284,-100,4,2,31,60,0,1
67679,-100,4,2,62,50,0,1
67837,-100,4,2,83,50,0,1
67916,-100,4,2,32,50,0,1
68311,-100,4,2,60,60,0,1
68784,-100,4,2,66,56,0,1
68942,-100,4,2,66,70,0,1
69100,-100,4,2,83,60,0,1
69258,-100,4,2,36,70,0,1
69416,-100,4,2,64,60,0,1
69574,-100,4,2,64,70,0,1
69732,-100,4,2,83,60,0,1
69890,-100,4,2,34,70,0,1
70048,-100,4,2,68,58,0,1
70205,-100,4,2,68,70,0,1
70521,-100,4,2,62,60,0,1
70837,-100,4,2,62,50,0,1
70995,-100,4,2,62,70,0,1
71153,-100,4,2,68,70,0,1
71311,-100,4,2,38,30,0,1
71469,-100,4,2,68,70,0,1
71784,-100,4,2,70,70,0,1
71942,-100,4,2,40,30,0,1
72100,-100,4,2,68,70,0,1
72416,-100,4,2,67,70,0,1
72732,-100,4,2,66,70,0,1
72890,-100,4,2,36,55,0,1
73048,-100,4,2,64,70,0,1
73363,-100,4,2,4,70,0,1
74627,-100,4,2,5,70,0,1
75574,-100,4,2,47,70,0,1
75890,-100,4,2,6,70,0,1
76363,-100,4,2,7,70,0,1
76679,-100,4,2,6,70,0,1
76837,-100,4,2,8,70,0,1
76995,-100,4,2,8,70,0,1
77311,-100,4,2,48,56,0,1
77469,-100,4,2,57,62,0,1
77548,-100,4,2,56,58,0,1
77627,-100,4,2,52,52,0,1
77705,-100,4,2,48,50,0,1
77784,-100,4,2,46,48,0,1
77863,-100,4,2,42,44,0,1
77942,-100,4,2,38,40,0,1
78021,-100,4,2,37,36,0,1
78100,-100,4,2,81,36,0,1
78416,-166.666666666667,4,2,81,40,0,0
78574,-166.666666666667,4,2,81,40,0,0
78732,-166.666666666667,4,2,81,40,0,0
79363,-166.666666666667,4,2,81,45,0,0
79521,-166.666666666667,4,2,81,35,0,0
79679,-166.666666666667,4,2,81,40,0,0
79995,-166.666666666667,4,2,81,45,0,0
80311,-166.666666666667,4,2,81,30,0,0
80627,-166.666666666667,4,2,81,35,0,0
80942,-166.666666666667,4,2,81,50,0,0
81258,-166.666666666667,4,2,81,30,0,0
81416,-166.666666666667,4,2,81,45,0,0
81732,-166.666666666667,4,2,81,30,0,0
81890,-166.666666666667,4,2,81,35,0,0
82205,-166.666666666667,4,2,81,40,0,0
82521,-166.666666666667,4,2,81,45,0,0
82837,-166.666666666667,4,2,81,50,0,0
83153,-166.666666666667,4,2,81,40,0,0
83469,-166.666666666667,4,2,81,45,0,0
83627,-166.666666666667,4,2,81,30,0,0
83784,-166.666666666667,4,2,81,45,0,0
83942,-166.666666666667,4,2,81,50,0,0
84258,-166.666666666667,4,2,81,30,0,0
84732,-166.666666666667,4,2,81,45,0,0
85048,-166.666666666667,4,2,81,30,0,0
85363,-166.666666666667,4,2,81,35,0,0
85995,-166.666666666667,4,2,81,45,0,0
86153,-166.666666666667,4,2,81,40,0,0
86311,-166.666666666667,4,2,81,35,0,0
86469,-166.666666666667,4,2,81,30,0,0
86627,-166.666666666667,4,2,81,45,0,0
86942,-166.666666666667,4,2,81,30,0,0
87258,-166.666666666667,4,2,81,45,0,0
87890,-166.666666666667,4,2,81,50,0,0
88205,-166.666666666667,4,2,81,35,0,0
88521,-166.666666666667,4,2,81,40,0,0
89784,-166.666666666667,4,2,81,50,0,0
90100,-166.666666666667,4,2,81,55,0,0
90416,-166.666666666667,4,2,81,60,0,0
90732,-166.666666666667,4,2,81,65,0,0
91048,-166.666666666667,4,2,81,45,0,0
91995,-166.666666666667,4,2,81,30,0,0
92311,-166.666666666667,4,2,81,35,0,0
92627,-166.666666666667,4,2,81,30,0,0
92784,-166.666666666667,4,2,81,33,0,0
92942,-166.666666666667,4,2,81,36,0,0
93100,-166.666666666667,4,2,81,40,0,0
93258,-166.666666666667,4,2,81,45,0,0
93416,-166.666666666667,4,2,81,30,0,0
93574,-166.666666666667,4,2,81,55,0,0
94048,-166.666666666667,4,2,81,50,0,0
94521,-166.666666666667,4,2,81,45,0,0
94837,-166.666666666667,4,2,81,40,0,0
94995,-166.666666666667,4,2,81,35,0,0
95311,-166.666666666667,4,2,81,40,0,0
95627,-166.666666666667,4,2,81,45,0,0
95784,-166.666666666667,4,2,81,50,0,0
96100,-166.666666666667,4,2,78,30,0,0
96153,-166.666666666667,4,2,81,40,0,0
96205,-166.666666666667,4,2,81,35,0,0

[Colours]
Combo1 : 255,214,189
Combo2 : 189,255,189
Combo3 : 189,204,255
Combo4 : 249,189,255

[HitObjects]
304,156,2627,6,0,P|318:221|332:272,1,103.199996850586,2|0,0:0|0:0,0:0:0:0:
446,63,3100,2,0,L|416:161,1,103.199996850586,2|0,0:0|0:0,0:0:0:0:
200,108,3574,1,2,0:0:0:0:
200,108,3890,2,0,P|148:90|96:76,1,103.199996850586,2|0,0:0|0:0,0:0:0:0:
184,276,4363,2,0,P|165:227|140:176,1,103.199996850586,2|0,0:0|0:0,0:0:0:0:
64,344,4837,1,2,0:0:0:0:
64,344,5153,6,0,P|78:318|92:284,2,51.599998425293,2|2|2,0:0|0:0|0:0,0:0:0:0:
42,203,5627,2,0,L|142:181,1,103.199996850586,2|2,0:0|0:0,0:0:0:0:
96,40,6100,2,0,P|81:75|72:108,1,51.599998425293,2|0,0:0|0:0,0:0:0:0:
252,216,6416,2,0,L|374:189,1,103.199996850586,2|0,0:0|0:0,0:0:0:0:
460,44,6890,1,2,0:0:0:0:
460,44,7048,1,2,0:0:0:0:
468,264,7363,1,2,0:0:0:0:
468,264,7679,6,0,P|478:213|490:163,1,103.199996850586,2|0,0:0|0:0,0:0:0:0:
359,13,8153,2,0,P|370:64|378:115,1,103.199996850586,2|0,0:0|0:0,0:0:0:0:
368,336,8627,2,0,L|308:324,1,51.599998425293,2|0,0:0|0:0,0:0:0:0:
152,288,8942,1,2,0:0:0:0:
145,262,9258,1,2,0:0:0:0:
141,238,9574,1,2,0:0:0:0:
141,238,9890,2,0,L|153:294,1,51.599998425293,2|0,0:0|0:0,0:0:0:0:
84,108,10205,6,0,P|151:124|184:132,1,103.199996850586,2|0,0:0|0:0,0:0:0:0:
376,28,10679,2,0,P|320:41|275:51,1,103.199996850586,2|0,0:0|0:0,0:0:0:0:
304,184,11153,2,0,P|300:210|293:235,1,51.599998425293,2|0,0:0|0:0,0:0:0:0:
68,312,11469,2,0,L|168:288,1,103.199996850586,2|0,0:0|0:0,0:0:0:0:
468,368,11942,2,0,L|366:347,1,103.199996850586,2|0,0:0|0:0,0:0:0:0:
312,128,12416,2,0,L|324:182,1,38.6999988189698,2|0,0:0|0:0,0:0:0:0:
428,232,12574,2,0,L|440:176,1,38.6999988189698
356,24,12732,6,0,B|300:44|300:44|256:40|196:16,1,154.799995275879,6|0,3:1|3:0,0:0:0:0:
144,228,13205,2,0,P|180:242|218:251,1,77.3999976379395,0|0,0:0|3:0,0:0:0:0:
97,123,13521,2,0,P|59:128|21:139,1,77.3999976379395,0|0,0:0|3:0,0:0:0:0:
152,344,13837,1,0,0:0:0:0:
214,147,13995,6,0,B|310:119|310:119|370:131,1,154.799995275879,6|0,3:2|3:0,0:0:0:0:
456,316,14469,1,10,0:3:0:0:
456,316,14548,1,0,0:3:0:0:
456,316,14627,1,0,3:0:0:0:
363,129,14784,1,10,1:3:0:0:
494,240,14942,1,2,3:2:0:0:
371,305,15100,1,8,1:3:0:0:
256,136,15258,6,0,B|240:80|240:80|256:8,1,116.099996456909,6|0,3:2|0:0,0:0:0:0:
340,76,15574,2,0,L|396:60,1,38.6999988189698,2|0,3:2|0:0,0:0:0:0:
236,236,15732,2,0,B|184:212|184:212|144:140,1,116.099996456909,6|0,1:2|0:0,0:0:0:0:
356,204,16048,2,0,L|430:223,1,77.3999976379395,6|0,1:2|3:0,0:0:0:0:
200,360,16363,1,6,1:2:0:0:
200,360,16679,5,2,1:2:0:0:
200,360,16758,1,2,1:2:0:0:
200,360,16837,2,0,L|188:300,1,38.6999988189698,2|0,3:2|0:0,0:0:0:0:
136,88,16995,2,0,L|144:126,1,38.6999988189698,10|0,1:3|0:0,0:0:0:0:
88,304,17153,6,0,L|61:331,1,38.6999988189698,2|0,3:2|0:0,0:0:0:0:
284,256,17311,2,0,L|321:265,1,38.6999988189698,12|0,1:3|0:0,0:0:0:0:
60,196,17469,6,0,L|16:184,1,38.6999988189698,2|0,3:2|0:0,0:0:0:0:
256,144,17627,2,0,L|292:108,1,38.6999988189698,2|0,1:2|0:0,0:0:0:0:
120,12,17784,6,0,L|143:125,1,116.099996456909,6|0,3:2|0:0,0:0:0:0:
148,148,18100,1,2,3:2:0:0:
369,97,18258,2,0,P|322:39|248:40,1,154.799995275879,10|2,0:3|0:0,0:0:0:0:
196,240,18732,1,2,3:2:0:0:
328,208,18890,1,2,0:0:0:0:
328,208,18969,1,0,0:0:0:0:
328,208,19048,5,2,3:2:0:0:
184,344,19205,1,2,0:0:0:0:
148,148,19363,1,2,3:2:0:0:
45,274,19521,2,0,L|196:240,1,154.799995275879,10|10,0:3|0:3,0:0:0:0:
393,367,19995,2,0,P|356:356|319:344,1,77.3999976379395,2|0,3:2|1:0,0:0:0:0:
256,24,20311,5,2,3:2:0:0:
272,96,20469,1,2,0:0:0:0:
328,144,20627,1,2,0:0:0:0:
408,152,20784,1,2,0:0:0:0:
480,192,20942,5,6,3:2:0:0:
408,232,21099,1,2,0:0:0:0:
328,240,21257,1,2,0:0:0:0:
272,288,21416,1,2,0:0:0:0:
256,360,21574,5,2,3:2:0:0:
256,360,22048,2,0,L|200:344,2,38.6999988189698
256,192,22837,5,8,0:2:0:0:
256,192,23153,2,0,L|192:176,1,51.599998425293,2|0,0:0|0:0,0:0:0:0:
363,62,23469,2,0,L|264:88,1,103.199996850586,2|0,0:0|0:0,0:0:0:0:
160,80,23942,1,2,0:0:0:0:
96,160,24100,1,2,0:0:0:0:
96,160,24416,2,0,P|100:195|112:232,1,51.599998425293,2|0,0:0|0:0,0:0:0:0:
249,261,24732,2,0,P|225:253|200:248,1,51.599998425293,2|0,0:0|0:0,0:0:0:0:
81,353,25048,2,0,P|101:337|120:320,1,51.599998425293,2|0,0:0|0:0,0:0:0:0:
192,136,25363,5,8,0:0:0:0:
192,136,25679,2,0,P|222:127|264:112,1,51.599998425293,2|2,0:0|0:0,0:0:0:0:
320,48,25995,2,0,L|440:72,1,103.199996850586,2|0,0:0|0:0,0:0:0:0:
488,152,26469,1,2,0:0:0:0:
400,208,26627,1,2,0:0:0:0:
400,208,26942,2,0,P|395:187|392:144,1,51.599998425293,2|0,0:0|0:0,0:0:0:0:
288,144,27258,2,0,P|293:121|304:88,1,51.599998425293,2|0,0:0|0:0,0:0:0:0:
200,72,27574,2,0,P|208:49|224:16,1,51.599998425293,2|0,0:0|0:0,0:0:0:0:
88,216,27890,5,8,0:0:0:0:
88,216,28048,1,0,0:0:0:0:
58,89,28205,2,0,P|82:97|104:112,1,51.599998425293,2|0,0:0|0:0,0:0:0:0:
295,32,28521,2,0,P|248:53|200:72,1,103.199996850586,2|2,0:0|0:0,0:0:0:0:
200,240,28995,2,0,P|248:258|295:279,1,103.199996850586,2|0,0:0|0:0,0:0:0:0:
432,264,29469,2,0,L|436:315,1,51.599998425293,2|0,0:0|0:0,0:0:0:0:
376,152,29784,2,0,L|356:199,1,51.599998425293,2|0,0:0|0:0,0:0:0:0:
376,48,30100,2,0,L|327:65,1,51.599998425293,2|0,0:0|0:0,0:0:0:0:
200,152,30416,6,0,P|148:141|96:128,1,103.199996850586,10|2,0:0|0:0,0:0:0:0:
72,248,30890,2,0,P|122:260|172:271,1,103.199996850586,2|0,0:0|0:0,0:0:0:0:
276,308,31363,2,0,P|282:338|292:364,1,51.599998425293,2|0,0:0|0:0,0:0:0:0:
484,280,31679,2,0,L|384:304,1,103.199996850586,2|2,0:0|0:0,0:0:0:0:
256,144,32153,1,2,0:0:0:0:
256,144,32311,1,2,0:0:0:0:
331,219,32469,1,2,0:0:0:0:
352,120,32627,1,2,0:0:0:0:
232,240,32784,1,2,0:0:0:0:
160,48,32942,5,10,0:0:0:0:
160,48,33258,2,0,P|157:99|169:149,1,103.199996850586,2|2,0:0|1:2,0:0:0:0:
260,100,33732,2,0,P|284:104|312:116,1,51.599998425293,2|0,0:0|0:0,0:0:0:0:
176,252,34048,1,2,0:0:0:0:
84,208,34205,2,0,P|72:184|64:144,1,51.599998425293,2|0,0:0|0:0,0:0:0:0:
92,316,34521,2,0,P|68:309|44:300,1,51.599998425293,2|0,0:0|0:0,0:0:0:0:
272,284,34837,2,0,P|284:308|292:348,1,51.599998425293,2|0,1:2|0:0,0:0:0:0:
264,176,35153,2,0,P|288:183|312:192,1,51.599998425293,2|0,0:0|0:0,0:0:0:0:
144,24,35469,5,8,0:0:0:0:
144,24,35784,2,0,L|164:144,1,103.199996850586,2|0,0:0|1:2,0:0:0:0:
264,176,36258,2,0,P|275:152|282:128,1,51.599998425293,2|0,0:0|0:0,0:0:0:0:
132,236,36574,1,2,0:0:0:0:
184,352,36732,2,0,L|133:340,1,51.599998425293,10|0,0:0|0:0,0:0:0:0:
304,280,37048,2,0,L|354:291,1,51.599998425293,2|0,0:0|0:0,0:0:0:0:
132,236,37363,2,0,P|126:216|120:186,1,51.599998425293,2|0,1:2|0:0,0:0:0:0:
244,56,37679,2,0,P|251:83|256:106,1,51.599998425293,2|0,0:0|0:0,0:0:0:0:
84,32,37995,5,8,0:0:0:0:
84,32,38153,1,0,0:0:0:0:
56,132,38311,2,0,P|50:157|41:181,1,51.599998425293,2|0,0:0|0:0,0:0:0:0:
158,336,38627,2,0,P|143:286|131:236,1,103.199996850586,2|2,1:2|0:0,0:0:0:0:
188,148,39100,1,2,0:0:0:0:
280,196,39258,2,0,P|285:172|296:136,1,51.599998425293
227,5,39574,2,0,P|234:30|239:56,1,51.599998425293,2|0,0:0|0:0,0:0:0:0:
392,104,39890,2,0,L|452:88,1,51.599998425293,2|0,1:2|0:0,0:0:0:0:
292,228,40205,2,0,L|341:241,1,51.599998425293,2|0,0:0|0:0,0:0:0:0:
140,86,40521,6,0,P|188:67|238:54,1,103.199996850586,10|0,0:0|0:0,0:0:0:0:
336,88,40995,1,0,0:0:0:0:
292,228,41153,2,0,P|281:204|276:179,1,51.599998425293,2|0,1:2|0:0,0:0:0:0:
336,88,41469,1,2,0:0:0:0:
400,212,41627,2,0,P|387:265|364:328,1,103.199996850586,2|2,1:2|0:0,0:0:0:0:
150,344,42100,5,0,0:0:0:0:
120,156,42258,1,2,0:0:0:0:
292,228,42416,1,2,0:0:0:0:
159,310,42574,5,2,0:0:0:0:
145,185,42732,1,2,0:0:0:0:
260,233,42890,1,2,0:0:0:0:
26,203,43048,6,0,B|145:185,1,120.399996325684,6|0,3:2|3:2,0:0:0:0:
240,112,43521,1,2,0:0:0:0:
315,210,43679,2,0,P|302:242|296:288,1,60.1999981628419,0|0,3:2|0:0,0:0:0:0:
384,96,43995,1,2,3:2:0:0:
412,304,44153,1,6,0:3:0:0:
452,144,44311,1,4,3:0:0:0:
315,210,44469,1,4,0:3:0:0:
452,228,44627,1,4,3:0:0:0:
452,228,44784,1,0,0:0:0:0:
384,96,44942,5,0,3:0:0:0:
384,96,45100,1,8,1:3:0:0:
315,210,45258,2,0,P|362:189|416:164,1,90.2999972442628,2|0,3:2|0:0,0:0:0:0:
351,24,45574,6,0,P|313:68|311:127,1,120.399996325684,2|0,3:2|3:0,0:0:0:0:
372,256,46048,1,2,0:0:0:0:
397,172,46205,1,0,3:2:0:0:
348,340,46363,1,0,0:0:0:0:
456,236,46521,1,2,3:2:0:0:
288,276,46679,5,10,0:3:0:0:
436,192,46837,1,0,3:2:0:0:
304,320,46995,1,8,1:3:0:0:
256,127,47153,6,0,L|267:164,1,38.6999988189698,2|0,3:2|0:0,0:0:0:0:
372,256,47311,2,0,L|384:216,1,38.6999988189698,2|0,1:2|0:0,0:0:0:0:
220,64,47469,6,0,L|214:103,1,38.6999988189698,2|0,1:2|0:0,0:0:0:0:
416,312,47627,2,0,L|409:275,1,38.6999988189698,2|0,1:2|0:0,0:0:0:0:
160,220,47784,6,0,L|196:232,1,38.6999988189698,10|0,0:3|0:0,0:0:0:0:
480,152,47942,2,0,L|444:140,1,38.6999988189698,6|0,0:3|0:0,0:0:0:0:
256,32,48100,5,6,3:2:0:0:
256,32,48416,2,0,P|223:44|176:60,1,68.8,2|0,0:0|3:0,0:0:0:0:
128,148,48732,2,0,P|95:136|64:122,1,68.8,2|0,1:2|0:0,0:0:0:0:
232,200,49048,2,0,B|256:284|256:284|244:336,1,137.6,2|2,3:2|0:0,0:0:0:0:
148,284,49521,1,0,1:0:0:0:
332,216,49679,2,0,P|340:182|344:144,1,68.8,2|0,0:0|3:0,0:0:0:0:
340,128,49916,1,0,0:0:0:0:
328,108,49995,2,0,L|296:96,1,34.4,2|0,1:2|0:0,0:0:0:0:
228,32,50153,2,0,L|196:44,1,34.4,0|0,1:0|0:0,0:0:0:0:
108,96,50311,1,10,0:3:0:0:
256,172,50469,1,10,0:3:0:0:
12,136,50627,5,12,3:2:0:0:
12,136,50942,2,0,P|29:166|45:204,1,68.8,2|0,0:0|3:0,0:0:0:0:
132,284,51258,2,0,P|114:313|101:345,1,68.8,2|0,1:2|0:0,0:0:0:0:
208,184,51574,2,0,P|260:152|356:184,1,137.6,2|8,3:2|0:0,0:0:0:0:
424,260,52048,1,0,0:0:0:0:
332,163,52205,1,2,1:2:0:0:
432,160,52363,1,0,3:0:0:0:
324,264,52521,1,2,1:2:0:0:
460,136,52679,1,0,1:2:0:0:
296,288,52837,1,10,0:3:0:0:
240,64,52995,1,8,0:3:0:0:
240,64,53074,1,0,0:0:0:0:
240,64,53153,6,0,P|247:104|260:144,1,77.3999976379395,12|0,3:2|0:0,0:0:0:0:
368,176,53469,2,0,P|405:185|441:198,1,77.3999976379395,2|0,0:0|0:0,0:0:0:0:
188,236,53784,2,0,P|150:226|114:213,1,77.3999976379395,2|0,3:2|0:0,0:0:0:0:
258,139,54100,1,2,3:2:0:0:
300,272,54258,1,0,0:0:0:0:
300,272,54337,1,0,0:0:0:0:
300,272,54416,2,0,P|293:310|281:347,1,77.3999976379395,2|0,3:2|0:0,0:0:0:0:
313,40,54732,2,0,L|240:64,1,77.3999976379395,2|0,3:2|0:0,0:0:0:0:
40,190,55048,2,0,L|114:213,1,77.3999976379395,2|0,3:2|0:0,0:0:0:0:
300,272,55363,1,2,3:2:0:0:
240,63,55521,1,0,0:0:0:0:
240,63,55600,1,0,0:0:0:0:
240,63,55679,5,14,0:0:0:0:
188,300,55837,1,0,0:0:0:0:
300,124,55995,1,0,1:2:0:0:
412,300,56153,1,0,1:2:0:0:
328,40,56311,1,0,1:2:0:0:
300,328,56469,1,0,1:2:0:0:
160,36,56627,5,10,1:2:0:0:
76,328,56784,1,10,1:2:0:0:
224,196,56942,2,0,B|247:144|228:89|228:89|201:110|173:116,1,172,8|8,0:0|0:0,0:0:0:0:
172,116,57890,6,0,P|162:144|160:168,1,43,2|0,0:0|0:0,0:0:0:0:
232,268,58048,2,0,P|239:247|243:226,1,43,2|0,0:0|0:0,0:0:0:0:
101,239,58205,6,0,L|16:256,1,86,6|0,3:2|0:0,0:0:0:0:
300,340,58521,1,2,1:2:0:0:
340,208,58679,2,0,B|348:172|348:172|336:140|336:140|352:92|340:36,1,172,2|0,0:0|3:2,0:0:0:0:
452,128,59153,1,2,1:2:0:0:
232,184,59311,2,0,P|212:272|268:336,1,172,2|2,0:0|0:0,0:0:0:0:
232,68,59784,2,0,P|193:80|132:96,1,86,2|0,1:2|3:2,0:0:0:0:
320,244,60100,2,0,P|361:256|402:267,1,86,2|0,3:2|3:2,0:0:0:0:
132,348,60416,6,0,P|124:328|120:296,1,43,2|0,1:2|0:0,0:0:0:0:
231,183,60574,2,0,P|227:204|220:225,1,43,2|0,1:2|0:0,0:0:0:0:
48,156,60732,6,0,P|36:114|28:72,1,86,2|0,3:2|0:0,0:0:0:0:
268,40,61048,1,2,1:2:0:0:
231,183,61205,2,0,B|209:266|209:266|213:306|237:358,1,172,2|0,0:0|3:2,0:0:0:0:
120,184,61679,1,2,1:2:0:0:
328,236,61837,1,2,0:0:0:0:
328,236,61916,1,0,0:0:0:0:
328,236,61995,6,0,P|356:176|336:92,1,129,0|0,3:2|0:0,0:0:0:0:
241,17,62311,2,0,L|260:100,1,86,2|0,1:2|3:2,0:0:0:0:
316,362,62627,2,0,L|232:348,1,86,2|0,3:2|3:2,0:0:0:0:
36,168,62942,5,2,1:2:0:0:
36,168,63021,1,0,1:0:0:0:
36,168,63100,1,0,1:0:0:0:
36,168,63179,1,0,1:0:0:0:
36,168,63258,6,0,P|104:116|188:144,1,172,2|0,3:2|1:0,0:0:0:0:
231,347,63732,1,0,0:0:0:0:
231,347,63811,1,2,0:0:0:0:
231,347,63890,2,0,P|217:306|208:264,1,86,2|0,0:2|3:2,0:0:0:0:
268,36,64205,1,2,1:2:0:0:
380,120,64363,2,0,B|404:184|392:248|392:248|332:228,1,172,2|0,0:0|0:0,0:0:0:0:
120,200,64837,2,0,P|160:190|204:176,1,86,2|0,1:2|3:2,0:0:0:0:
335,20,65153,2,0,P|323:61|316:104,1,86,2|0,3:2|3:2,0:0:0:0:
379,316,65469,2,0,P|368:274|351:234,1,86,2|0,1:2|1:0,0:0:0:0:
68,248,65784,6,0,L|192:280,1,129,6|0,3:2|0:0,0:0:0:0:
256,352,66100,1,2,1:2:0:0:
256,352,66258,1,0,3:0:0:0:
444,104,66416,2,0,L|320:136,1,129,6|0,3:2|0:0,0:0:0:0:
256,208,66732,1,2,1:2:0:0:
256,208,66890,1,0,3:0:0:0:
104,32,67048,6,0,P|97:95|125:152,1,129,6|0,3:2|0:0,0:0:0:0:
125,152,67363,2,0,P|83:169|40:184,1,86,0|0,1:0|3:2,0:0:0:0:
216,72,67679,2,0,P|257:88|304:100,1,86,10|0,0:3|1:0,0:0:0:0:
432,48,67995,1,0,1:0:0:0:
432,48,68311,6,0,B|448:92|448:92|444:132|444:132|468:168|456:232,1,172,6|0,3:2|1:2,0:0:0:0:
288,336,68784,1,2,0:0:0:0:
193,207,68942,2,0,B|226:187|268:172|268:172|356:188,1,172,2|0,0:0|1:2,0:0:0:0:
196,56,69416,1,2,1:2:0:0:
196,56,69495,1,0,0:0:0:0:
196,56,69574,6,0,B|162:75|121:91|121:91|33:75,1,172,6|0,3:2|1:2,0:0:0:0:
296,124,70048,1,2,3:2:0:0:
108,216,70205,2,0,L|23:201,1,86,2|0,0:0|3:2,0:0:0:0:
356,188,70521,6,0,L|346:229,1,43,2|0,1:2|0:0,0:0:0:0:
201,349,70679,2,0,L|192:308,1,43,2|0,1:2|0:0,0:0:0:0:
195,55,70837,6,0,P|204:96|213:138,1,86,6|0,3:2|3:2,0:0:0:0:
396,352,71153,2,0,P|405:309|415:267,1,86,2|0,1:2|3:0,0:0:0:0:
144,208,71469,2,0,L|62:180,1,86,2|0,0:0|3:2,0:0:0:0:
400,32,71784,2,0,L|316:60,1,86,2|0,1:2|3:0,0:0:0:0:
256,352,72100,5,6,1:2:0:0:
256,352,72258,1,0,3:0:0:0:
172,156,72416,5,6,1:2:0:0:
172,156,72574,1,0,3:0:0:0:
384,184,72732,5,6,1:2:0:0:
384,184,72890,1,0,1:0:0:0:
268,232,73048,5,6,1:2:0:0:
268,232,73127,1,0,1:2:0:0:
268,232,73205,1,0,1:2:0:0:
268,232,73284,1,0,1:2:0:0:
268,232,73363,6,0,P|276:189|284:148,1,86,6|0,3:2|3:0,0:0:0:0:
112,116,73679,1,6,1:2:0:0:
284,147,73837,1,0,3:2:0:0:
168,284,73995,1,6,1:2:0:0:
212,64,74153,1,0,3:2:0:0:
264,344,74311,1,6,1:2:0:0:
320,40,74469,1,0,3:2:0:0:
72,220,74627,5,6,1:2:0:0:
392,128,74784,1,0,3:2:0:0:
84,88,74942,1,6,1:2:0:0:
468,212,75100,1,0,3:2:0:0:
196,28,75258,1,6,1:2:0:0:
264,344,75416,1,0,3:2:0:0:
284,147,75574,5,2,1:2:0:0:
284,147,75653,1,0,1:0:0:0:
284,147,75732,1,0,1:0:0:0:
284,147,75811,1,0,1:0:0:0:
284,147,75890,6,0,L|228:164,1,43,6|0,3:2|0:0,0:0:0:0:
384,234,76048,2,0,L|470:211,1,86,6|2,3:2|1:0,0:0:0:0:
76,60,76363,2,0,L|96:143,1,86,6|2,3:2|1:0,0:0:0:0:
144,344,76679,1,6,3:2:0:0:
144,344,76837,5,2,1:0:0:0:
56,288,76995,2,0,P|120:240|212:264,1,172,6|2,1:2|0:0,0:0:0:0:
345,162,77469,2,0,L|305:175,1,43,6|2,3:2|0:0,0:0:0:0:
305,343,77627,2,0,L|345:356,1,43,2|2,0:0|0:0,0:0:0:0:
428,260,77784,5,2,1:2:0:0:
456,208,77863,1,2,1:2:0:0:
460,148,77942,1,2,1:2:0:0:
444,92,78021,1,2,1:2:0:0:
408,44,78100,2,0,P|385:37|367:30,3,43,2|0|0|0,1:2|1:0|1:0|1:0,0:0:0:0:
367,30,78416,6,0,P|316:48|263:66,1,103.199996850586,6|2,0:0|0:0,0:0:0:0:
176,108,78890,2,0,P|127:91|78:74,1,103.199996850586,2|0,0:0|0:0,0:0:0:0:
204,248,79363,2,0,P|209:223|220:199,1,51.599998425293,2|2,0:0|0:0,0:0:0:0:
376,156,79679,1,2,0:0:0:0:
416,144,79995,1,2,0:0:0:0:
269,63,80311,1,2,0:0:0:0:
269,63,80627,2,0,L|280:128,1,51.599998425293,2|2,0:0|0:0,0:0:0:0:
296,216,80942,6,0,P|285:269|272:324,1,103.199996850586,2|2,0:0|0:0,0:0:0:0:
184,184,81416,2,0,P|171:133|161:83,1,103.199996850586,2|0,0:0|0:0,0:0:0:0:
65,247,81890,2,0,L|116:260,1,51.599998425293,2|2,0:0|0:0,0:0:0:0:
296,216,82205,1,2,0:0:0:0:
336,208,82521,1,2,0:0:0:0:
184,184,82837,1,2,0:0:0:0:
184,184,83153,2,0,L|192:248,1,51.599998425293,2|0,0:0|0:0,0:0:0:0:
108,132,83469,6,0,P|204:92|272:172,1,206.399993701172,2|0,0:0|0:0,0:0:0:0:
269,155,84416,2,0,L|277:211,1,51.599998425293,2|2,0:0|0:0,0:0:0:0:
300,308,84732,2,0,L|416:325,1,103.199996850586,2|2,0:0|0:0,0:0:0:0:
200,276,85363,2,0,L|97:290,1,103.199996850586,2|2,0:0|0:0,0:0:0:0:
376,232,85995,6,0,P|412:144|356:36,1,206.399993701172,2|2,0:0|0:0,0:0:0:0:
369,46,86942,2,0,L|300:72,1,51.599998425293,2|2,0:0|0:0,0:0:0:0:
260,148,87258,2,0,P|161:163|89:94,1,206.399993701172,2|2,0:0|0:0,0:0:0:0:
89,94,88205,2,0,L|96:168,1,51.599998425293,2|0,0:0|0:0,0:0:0:0:
200,36,88521,5,2,0:0:0:0:
200,36,89469,2,0,L|207:94,1,51.599998425293,2|2,0:0|0:0,0:0:0:0:
224,244,89784,5,2,0:0:0:0:
206,87,90100,1,0,0:0:0:0:
324,256,90416,1,2,0:0:0:0:
136,172,90732,1,2,0:0:0:0:
344,156,91048,6,0,P|424:284|300:348,1,309.599990551758,2|2,0:0|0:0,0:0:0:0:
324,256,92311,2,0,B|252:232|176:240|176:240|92:280|8:264,1,309.599990551758,2|2,0:0|0:0,0:0:0:0:
20,266,93574,5,2,0:0:0:0:
195,60,94048,5,2,0:0:0:0:
283,316,94521,5,2,0:0:0:0:
106,210,94837,5,2,0:0:0:0:
106,210,94995,1,0,0:0:0:0:
285,110,95311,5,2,0:0:0:0:
192,365,95627,5,2,0:0:0:0:
192,365,95784,1,0,0:0:0:0:
196,161,96100,5,2,0:0:0:0:
