osu file format v14

[General]
AudioFilename: audio.mp3
AudioLeadIn: 0
PreviewTime: 57811
Countdown: 0
SampleSet: Soft
StackLeniency: 0.7
Mode: 0
LetterboxInBreaks: 0
WidescreenStoryboard: 1

[Editor]
DistanceSpacing: 1.5
BeatDivisor: 4
GridSize: 4
TimelineZoom: 1.6

[Metadata]
Title:Re:TrymenT
TitleUnicode:Re:TrymenT
Artist:Hotaru Murasaki
ArtistUnicode:紫咲ほたる
Creator:eLy
Version:Re:TraumenD
Source:Re:LieF〜親愛なるあなたへ〜
Tags:rask レリーフ relief Shin'ainaru Anata e DeaR YoU retryment opening op short eroge game visual novel 甘利紗陽 amari saya piano homura- wring lecana litoluna cookiezi asahina momoko mokori kawaiwkyik rizia vellya alyce 5hiki
BeatmapID:1415441
BeatmapSetID:519521

[Difficulty]
HPDrainRate:6
CircleSize:4
OverallDifficulty:9
ApproachRate:9.4
SliderMultiplier:1.8
SliderTickRate:2

[Events]
//Background and Video events
0,0,"BGeLy.jpg",0,0
//Break Periods
//Storyboard Layer 0 (Background)
//Storyboard Layer 1 (Fail)
//Storyboard Layer 2 (Pass)
//Storyboard Layer 3 (Foreground)
//Storyboard Sound Samples

[TimingPoints]
2627,315.789473684211,4,2,52,30,1,0
2784,-100,4,2,52,30,0,0
2942,-100,4,2,52,30,0,0
3100,-125,4,2,51,30,0,0
3179,-125,4,2,51,30,0,0
3416,-125,4,2,51,30,0,0
3574,-125,4,2,48,30,0,0
3890,-125,4,2,40,30,0,0
4048,-125,4,2,40,30,0,0
4363,-125,4,2,41,30,0,0
4442,-125,4,2,41,30,0,0
4679,-125,4,2,41,30,0,0
4837,-125,4,2,46,30,0,0
5153,-125,4,2,44,30,0,0
5311,-125,4,2,34,30,0,0
5469,-125,4,2,38,30,0,0
5627,-125,4,2,40,30,0,0
5705,-125,4,2,40,30,0,0
5942,-125,4,2,34,30,0,0
6100,-125,4,2,42,30,0,0
6416,-125,4,2,41,30,0,0
6495,-125,4,2,41,30,0,0
6732,-125,4,2,41,30,0,0
6890,-125,4,2,48,30,0,0
7048,-125,4,2,38,30,0,0
7363,-125,4,2,51,30,0,0
7600,-125,4,2,51,30,0,0
7679,-125,4,2,52,30,0,0
7837,-125,4,2,52,30,0,0
7995,-125,4,2,52,30,0,0
8153,-125,4,2,51,30,0,0
8232,-125,4,2,51,30,0,0
8469,-125,4,2,51,30,0,0
8627,-125,4,2,48,30,0,0
8942,-125,4,2,42,30,0,0
9258,-125,4,2,36,30,0,0
9574,-125,4,2,40,30,0,0
9890,-125,4,2,44,30,0,0
10048,-125,4,2,44,30,0,0
10127,-125,4,2,44,30,0,0
10205,-125,4,2,46,30,0,0
10284,-125,4,2,46,30,0,0
10521,-125,4,2,46,30,0,0
10679,-125,4,2,44,30,0,0
10758,-125,4,2,44,30,0,0
10995,-125,4,2,44,30,0,0
11153,-125,4,2,48,30,0,0
11232,-125,4,2,48,30,0,0
11469,-125,4,2,51,40,0,0
11548,-125,4,2,51,40,0,0
11942,-125,4,2,52,40,0,0
12021,-125,4,2,52,40,0,0
12416,-125,4,2,54,50,0,0
12495,-125,4,2,54,50,0,0
12574,-125,4,2,54,50,0,0
12653,-125,4,2,54,50,0,0
12732,-111.111111111111,4,2,52,60,0,0
12890,-111.111111111111,4,2,52,60,0,0
13995,-111.111111111111,4,2,78,60,0,0
14469,-111.111111111111,4,2,77,60,0,0
14627,-111.111111111111,4,2,77,60,0,0
14784,-111.111111111111,4,2,81,60,0,0
14942,-111.111111111111,4,2,76,60,0,0
15100,-111.111111111111,4,2,76,60,0,0
15258,-111.111111111111,4,2,76,60,0,0
15574,-111.111111111111,4,2,77,60,0,0
15732,-111.111111111111,4,2,76,60,0,0
15890,-111.111111111111,4,2,83,50,0,0
15969,-111.111111111111,4,2,76,60,0,0
16048,-111.111111111111,4,2,72,60,0,0
16205,-111.111111111111,4,2,72,60,0,0
16363,-111.111111111111,4,2,68,60,0,0
16521,-111.111111111111,4,2,68,60,0,0
16679,-111.111111111111,4,2,54,60,0,0
16758,-111.111111111111,4,2,56,60,0,0
16837,-111.111111111111,4,2,57,60,0,0
16995,-111.111111111111,4,2,56,60,0,0
17153,-111.111111111111,4,2,54,60,0,0
17311,-111.111111111111,4,2,52,60,0,0
17469,-111.111111111111,4,2,51,60,0,0
17627,-111.111111111111,4,2,48,60,0,0
17784,-111.111111111111,4,2,74,60,0,0
18100,-111.111111111111,4,2,48,60,0,0
18258,-111.111111111111,4,2,74,60,0,0
18416,-111.111111111111,4,2,83,50,0,0
18574,-111.111111111111,4,2,51,60,0,0
18732,-111.111111111111,4,2,46,60,0,0
18890,-111.111111111111,4,2,51,60,0,0
19048,-111.111111111111,4,2,74,60,0,0
19205,-111.111111111111,4,2,46,60,0,0
19363,-111.111111111111,4,2,50,60,0,0
19521,-111.111111111111,4,2,76,60,0,0
19679,-111.111111111111,4,2,83,50,0,0
19837,-111.111111111111,4,2,50,60,0,0
19995,-111.111111111111,4,2,74,60,0,0
20153,-111.111111111111,4,2,74,60,0,0
20311,-111.111111111111,4,2,73,60,0,0
20469,-111.111111111111,4,2,50,60,0,0
20627,-111.111111111111,4,2,46,60,0,0
20784,-111.111111111111,4,2,44,60,0,0
20942,-111.111111111111,4,2,43,50,0,0
21100,-111.111111111111,4,2,40,50,0,0
21258,-111.111111111111,4,2,36,50,0,0
21416,-111.111111111111,4,2,34,50,0,0
21574,-142.857142857143,4,2,33,40,0,0
21890,-142.857142857143,4,2,33,40,0,0
22048,-142.857142857143,4,2,1,40,0,0
22284,-142.857142857143,4,2,1,40,0,0
22758,-142.857142857143,4,2,1,40,0,0
22837,-166.666666666667,4,2,10,30,0,0
23153,-166.666666666667,4,2,34,35,0,0
23311,-166.666666666667,4,2,34,35,0,0
23469,-166.666666666667,4,2,34,35,0,0
23784,-166.666666666667,4,2,34,35,0,0
23942,-166.666666666667,4,2,32,35,0,0
24100,-166.666666666667,4,2,34,35,0,0
24416,-166.666666666667,4,2,36,35,0,0
24574,-166.666666666667,4,2,36,35,0,0
24732,-166.666666666667,4,2,34,35,0,0
24811,-166.666666666667,4,2,34,35,0,0
25048,-166.666666666667,4,2,32,35,0,0
25127,-166.666666666667,4,2,32,35,0,0
25363,-166.666666666667,4,2,11,45,0,0
25521,-166.666666666667,4,2,11,45,0,0
25679,-166.666666666667,4,2,34,30,0,0
25837,-166.666666666667,4,2,34,30,0,0
25995,-166.666666666667,4,2,34,30,0,0
26311,-166.666666666667,4,2,34,30,0,0
26469,-166.666666666667,4,2,32,30,0,0
26627,-166.666666666667,4,2,34,30,0,0
26942,-166.666666666667,4,2,36,30,0,0
27258,-166.666666666667,4,2,34,30,0,0
27416,-166.666666666667,4,2,34,30,0,0
27574,-166.666666666667,4,2,32,30,0,0
27890,-166.666666666667,4,2,12,45,0,0
28048,-166.666666666667,4,2,12,45,0,0
28205,-166.666666666667,4,2,28,30,0,0
28363,-166.666666666667,4,2,28,30,0,0
28837,-166.666666666667,4,2,32,30,0,0
28995,-166.666666666667,4,2,34,30,0,0
29469,-166.666666666667,4,2,32,30,0,0
29784,-166.666666666667,4,2,31,30,0,0
29942,-166.666666666667,4,2,31,30,0,0
30100,-166.666666666667,4,2,32,30,0,0
30416,-166.666666666667,4,2,13,30,0,0
30732,-166.666666666667,4,2,32,30,0,0
30890,-166.666666666667,4,2,32,30,0,0
31048,-166.666666666667,4,2,32,30,0,0
31363,-166.666666666667,4,2,38,30,0,0
31442,-166.666666666667,4,2,38,30,0,0
31521,-166.666666666667,4,2,38,30,0,0
31679,-166.666666666667,4,2,34,30,0,0
31837,-166.666666666667,4,2,34,30,0,0
31916,-166.666666666667,4,2,34,30,0,0
31995,-166.666666666667,4,2,48,45,0,0
32153,-166.666666666667,4,2,46,42,0,0
32311,-166.666666666667,4,2,42,40,0,0
32469,-166.666666666667,4,2,41,38,0,0
32627,-166.666666666667,4,2,38,36,0,0
32784,-166.666666666667,4,2,34,30,0,0
32942,-166.666666666667,4,2,14,30,0,0
33258,-166.666666666667,4,2,36,30,0,0
33416,-166.666666666667,4,2,36,30,0,0
33574,-166.666666666667,4,2,34,30,0,0
33732,-166.666666666667,4,2,36,30,0,0
33890,-166.666666666667,4,2,36,30,0,0
34048,-166.666666666667,4,2,36,30,0,0
34205,-166.666666666667,4,2,37,30,0,0
34521,-166.666666666667,4,2,36,30,0,0
34837,-166.666666666667,4,2,34,30,0,0
35153,-166.666666666667,4,2,32,30,0,0
35311,-166.666666666667,4,2,32,30,0,0
35469,-166.666666666667,4,2,15,45,0,0
35784,-166.666666666667,4,2,36,30,0,0
35942,-166.666666666667,4,2,36,30,0,0
36100,-166.666666666667,4,2,34,30,0,0
36258,-166.666666666667,4,2,36,30,0,0
36416,-166.666666666667,4,2,36,30,0,0
36574,-166.666666666667,4,2,36,30,0,0
36732,-166.666666666667,4,2,16,30,0,0
36890,-166.666666666667,4,2,16,30,0,0
37048,-166.666666666667,4,2,36,30,0,0
37205,-166.666666666667,4,2,36,30,0,0
37363,-166.666666666667,4,2,34,30,0,0
37521,-166.666666666667,4,2,34,30,0,0
37679,-166.666666666667,4,2,32,30,0,0
37837,-166.666666666667,4,2,32,30,0,0
37995,-166.666666666667,4,2,17,45,0,0
38153,-166.666666666667,4,2,17,45,0,0
38311,-166.666666666667,4,2,28,30,0,0
38390,-166.666666666667,4,2,28,30,0,0
38627,-166.666666666667,4,2,28,30,0,0
38784,-166.666666666667,4,2,28,30,0,0
38942,-166.666666666667,4,2,32,30,0,0
39100,-166.666666666667,4,2,34,30,0,0
39258,-166.666666666667,4,2,34,30,0,0
39416,-166.666666666667,4,2,34,30,0,0
39574,-166.666666666667,4,2,32,30,0,0
39653,-166.666666666667,4,2,32,30,0,0
39890,-166.666666666667,4,2,31,30,0,0
40048,-166.666666666667,4,2,31,30,0,0
40205,-166.666666666667,4,2,32,30,0,0
40363,-166.666666666667,4,2,32,30,0,0
40521,-166.666666666667,4,2,18,35,0,0
40679,-166.666666666667,4,2,18,35,0,0
40837,-166.666666666667,4,2,18,35,0,0
40995,-166.666666666667,4,2,18,35,0,0
41153,-166.666666666667,4,2,30,30,0,0
41469,-166.666666666667,4,2,30,30,0,0
41627,-166.666666666667,4,2,30,30,0,0
41942,-166.666666666667,4,2,38,38,0,0
42021,-166.666666666667,4,2,38,38,0,0
42100,-166.666666666667,4,2,48,52,0,0
42179,-166.666666666667,4,2,48,52,0,0
42258,-166.666666666667,4,2,44,35,0,0
42337,-166.666666666667,4,2,44,35,0,0
42416,-166.666666666667,4,2,42,44,0,0
42495,-166.666666666667,4,2,42,44,0,0
42574,-166.666666666667,4,2,41,40,0,0
42653,-166.666666666667,4,2,41,40,0,0
42732,-166.666666666667,4,2,38,36,0,0
42811,-166.666666666667,4,2,38,36,0,0
42890,-166.666666666667,4,2,34,32,0,0
43048,-111.111111111111,4,2,32,60,0,0
43521,-111.111111111111,4,2,34,60,0,0
43995,-111.111111111111,4,2,36,60,0,0
44153,-125,4,2,36,60,0,0
44311,-125,4,2,36,60,0,0
45100,-125,4,2,36,30,0,0
45574,-125,4,2,38,60,0,0
46048,-125,4,2,32,60,0,0
46205,-125,4,2,32,60,0,0
46363,-125,4,2,32,60,0,0
46521,-125,4,2,31,60,0,0
46679,-125,4,2,32,60,0,0
46837,-125,4,2,32,60,0,0
47151,-125,4,2,72,60,0,0
47311,-125,4,2,66,60,0,0
47469,-125,4,2,67,60,0,0
47627,-125,4,2,68,60,0,0
47784,-125,4,2,70,60,0,0
47942,-125,4,2,71,60,0,0
48100,-111.111111111111,4,2,72,60,0,0
48179,-111.111111111111,4,2,72,60,0,0
48416,-111.111111111111,4,2,32,50,0,0
48732,-111.111111111111,4,2,34,50,0,0
48811,-111.111111111111,4,2,34,50,0,0
49048,-111.111111111111,4,2,35,50,0,0
49205,-111.111111111111,4,2,83,30,0,0
49284,-111.111111111111,4,2,83,30,0,0
49363,-111.111111111111,4,2,20,30,0,0
49521,-111.111111111111,4,2,20,50,0,0
49679,-111.111111111111,4,2,34,50,0,0
49995,-111.111111111111,4,2,35,50,0,0
50074,-111.111111111111,4,2,35,50,0,0
50311,-111.111111111111,4,2,37,50,0,0
50390,-111.111111111111,4,2,37,50,0,0
50469,-111.111111111111,4,2,81,50,0,0
50627,-111.111111111111,4,2,15,50,0,0
50705,-111.111111111111,4,2,15,50,0,0
50942,-111.111111111111,4,2,35,50,0,0
51021,-111.111111111111,4,2,35,50,0,0
51258,-111.111111111111,4,2,37,50,0,0
51337,-111.111111111111,4,2,37,50,0,0
51416,-111.111111111111,4,2,37,50,0,0
51495,-111.111111111111,4,2,37,50,0,0
51574,-111.111111111111,4,2,38,50,0,0
51732,-111.111111111111,4,2,38,50,0,0
51811,-111.111111111111,4,2,38,50,0,0
51890,-111.111111111111,4,2,17,30,0,0
52205,-111.111111111111,4,2,38,50,0,0
52284,-111.111111111111,4,2,38,50,0,0
52521,-111.111111111111,4,2,39,50,0,0
52600,-111.111111111111,4,2,39,50,0,0
52837,-111.111111111111,4,2,29,50,0,0
52916,-111.111111111111,4,2,29,50,0,0
52995,-111.111111111111,4,2,29,50,0,0
53153,-100,4,2,19,40,0,0
53232,-100,4,2,19,40,0,0
53469,-100,4,2,35,40,0,0
53784,-100,4,2,35,40,0,0
53863,-100,4,2,35,40,0,0
54100,-100,4,2,37,40,0,0
54179,-100,4,2,37,40,0,0
54416,-100,4,2,19,30,0,0
54495,-100,4,2,19,30,0,0
54732,-100,4,2,35,40,0,0
55048,-100,4,2,37,40,0,0
55127,-100,4,2,37,40,0,0
55205,-100,4,2,19,40,0,0
55363,-100,4,2,40,40,0,0
55442,-100,4,2,40,40,0,0
55521,-100,4,2,40,40,0,0
55600,-100,4,2,40,40,0,0
55679,-100,4,2,62,40,0,0
55758,-100,4,2,62,40,0,0
55995,-100,4,2,62,40,0,0
56153,-100,4,2,62,40,0,0
56311,-100,4,2,62,40,0,0
56469,-100,4,2,62,40,0,0
56627,-100,4,2,61,40,0,0
56942,-100,4,2,61,45,0,0
57021,-100,4,2,61,45,0,0
57574,-100,4,2,15,50,0,0
57890,-142.857142857143,4,2,66,45,0,0
57969,-142.857142857143,4,2,66,45,0,0
58048,-142.857142857143,4,2,67,45,0,0
58127,-200,4,2,67,45,0,0
58205,-83.3333333333333,4,2,68,70,0,1
58363,-83.3333333333333,4,2,68,70,0,1
58521,-83.3333333333333,4,2,72,70,0,1
58600,-83.3333333333333,4,2,72,70,0,1
58679,-83.3333333333333,4,2,71,70,0,1
58758,-83.3333333333333,4,2,71,70,0,1
58837,-83.3333333333333,4,2,71,70,0,1
58916,-83.3333333333333,4,2,71,70,0,1
58995,-83.3333333333333,4,2,71,70,0,1
59153,-83.3333333333333,4,2,72,70,0,1
59232,-83.3333333333333,4,2,72,70,0,1
59311,-83.3333333333333,4,2,71,70,0,1
59627,-83.3333333333333,4,2,68,70,0,1
59784,-83.3333333333333,4,2,68,70,0,1
59942,-83.3333333333333,4,2,38,41,0,1
60100,-83.3333333333333,4,2,46,60,0,1
60258,-83.3333333333333,4,2,46,60,0,1
60416,-83.3333333333333,4,2,66,70,0,1
60495,-83.3333333333333,4,2,66,70,0,1
60574,-83.3333333333333,4,2,67,70,0,1
60653,-83.3333333333333,4,2,67,70,0,1
60732,-83.3333333333333,4,2,68,70,0,1
60890,-83.3333333333333,4,2,68,70,0,1
61048,-83.3333333333333,4,2,72,70,0,1
61127,-83.3333333333333,4,2,72,70,0,1
61205,-83.3333333333333,4,2,71,70,0,1
61284,-83.3333333333333,4,2,71,70,0,1
61521,-83.3333333333333,4,2,71,70,0,1
61600,-83.3333333333333,4,2,71,70,0,1
61679,-83.3333333333333,4,2,72,70,0,1
61758,-83.3333333333333,4,2,72,70,0,1
61837,-83.3333333333333,4,2,74,70,0,1
61916,-83.3333333333333,4,2,74,70,0,1
61995,-83.3333333333333,4,2,19,70,0,1
62074,-83.3333333333333,4,2,19,70,0,1
62232,-83.3333333333333,4,2,38,70,0,1
62311,-83.3333333333333,4,2,68,70,0,1
62469,-83.3333333333333,4,2,38,40,0,1
62627,-83.3333333333333,4,2,42,70,0,1
62784,-83.3333333333333,4,2,42,70,0,1
62942,-83.3333333333333,4,2,70,70,0,1
63021,-83.3333333333333,4,2,70,70,0,1
63100,-83.3333333333333,4,2,70,70,0,1
63179,-83.3333333333333,4,2,70,70,0,1
63258,-83.3333333333333,4,2,68,70,0,1
63416,-83.3333333333333,4,2,83,60,0,1
63574,-83.3333333333333,4,2,38,70,0,1
63732,-83.3333333333333,4,2,38,70,0,1
63811,-83.3333333333333,4,2,78,80,0,1
63890,-83.3333333333333,4,2,78,80,0,1
63969,-83.3333333333333,4,2,78,80,0,1
64048,-83.3333333333333,4,2,78,70,0,1
64127,-83.3333333333333,4,2,78,70,0,1
64205,-83.3333333333333,4,2,70,70,0,1
64284,-83.3333333333333,4,2,70,70,0,1
64363,-83.3333333333333,4,2,68,70,0,1
64442,-83.3333333333333,4,2,68,70,0,1
64600,-83.3333333333333,4,2,83,60,0,1
64679,-83.3333333333333,4,2,38,70,0,1
64837,-83.3333333333333,4,2,67,70,0,1
64995,-83.3333333333333,4,2,37,40,0,1
65153,-83.3333333333333,4,2,66,70,0,1
65311,-83.3333333333333,4,2,66,70,0,1
65469,-83.3333333333333,4,2,64,70,0,1
65627,-83.3333333333333,4,2,34,30,0,1
65784,-83.3333333333333,4,2,64,70,0,1
65863,-83.3333333333333,4,2,64,70,0,1
66021,-83.3333333333333,4,2,34,70,0,1
66100,-83.3333333333333,4,2,62,70,0,1
66258,-83.3333333333333,4,2,32,70,0,1
66416,-83.3333333333333,4,2,62,70,0,1
66495,-83.3333333333333,4,2,62,70,0,1
66653,-83.3333333333333,4,2,32,70,0,1
66732,-83.3333333333333,4,2,61,70,0,1
66890,-83.3333333333333,4,2,31,70,0,1
67048,-83.3333333333333,4,2,61,60,0,1
67127,-83.3333333333333,4,2,61,60,0,1
67284,-83.3333333333333,4,2,31,60,0,1
67363,-83.3333333333333,4,2,31,60,0,1
67521,-83.3333333333333,4,2,31,60,0,1
67679,-83.3333333333333,4,2,62,50,0,1
67758,-83.3333333333333,4,2,62,50,0,1
67837,-83.3333333333333,4,2,83,50,0,1
67916,-83.3333333333333,4,2,32,50,0,1
67995,-83.3333333333333,4,2,32,50,0,1
68153,-83.3333333333333,4,2,32,50,0,1
68311,-83.3333333333333,4,2,60,60,0,1
68390,-83.3333333333333,4,2,60,60,0,1
68469,-83.3333333333333,4,2,60,60,0,1
68627,-83.3333333333333,4,2,60,60,0,1
68784,-83.3333333333333,4,2,66,56,0,1
68863,-83.3333333333333,4,2,66,56,0,1
68942,-83.3333333333333,4,2,66,70,0,1
69021,-83.3333333333333,4,2,66,70,0,1
69258,-83.3333333333333,4,2,36,70,0,1
69337,-83.3333333333333,4,2,36,70,0,1
69416,-83.3333333333333,4,2,64,60,0,1
69495,-83.3333333333333,4,2,64,60,0,1
69574,-83.3333333333333,4,2,64,70,0,1
69732,-83.3333333333333,4,2,83,60,0,1
69890,-83.3333333333333,4,2,34,70,0,1
70048,-83.3333333333333,4,2,68,58,0,1
70127,-83.3333333333333,4,2,68,58,0,1
70205,-83.3333333333333,4,2,68,70,0,1
70284,-83.3333333333333,4,2,68,70,0,1
70363,-83.3333333333333,4,2,68,70,0,1
70442,-83.3333333333333,4,2,68,70,0,1
70521,-83.3333333333333,4,2,62,50,0,1
70600,-83.3333333333333,4,2,62,60,0,1
70679,-83.3333333333333,4,2,62,60,0,1
70758,-83.3333333333333,4,2,62,60,0,1
70837,-83.3333333333333,4,2,62,70,0,1
70916,-83.3333333333333,4,2,62,70,0,1
70995,-83.3333333333333,4,2,62,70,0,1
71153,-83.3333333333333,4,2,68,70,0,1
71232,-83.3333333333333,4,2,68,70,0,1
71311,-83.3333333333333,4,2,38,30,0,1
71390,-83.3333333333333,4,2,38,30,0,1
71469,-83.3333333333333,4,2,68,70,0,1
71548,-83.3333333333333,4,2,68,70,0,1
71627,-83.3333333333333,4,2,68,70,0,1
71705,-83.3333333333333,4,2,68,70,0,1
71784,-83.3333333333333,4,2,70,70,0,1
71942,-83.3333333333333,4,2,40,30,0,1
72100,-83.3333333333333,4,2,68,70,0,1
72179,-83.3333333333333,4,2,68,70,0,1
72258,-83.3333333333333,4,2,68,70,0,1
72416,-83.3333333333333,4,2,67,70,0,1
72495,-83.3333333333333,4,2,67,70,0,1
72574,-83.3333333333333,4,2,67,70,0,1
72653,-83.3333333333333,4,2,67,70,0,1
72732,-83.3333333333333,4,2,66,70,0,1
72811,-83.3333333333333,4,2,66,70,0,1
72890,-83.3333333333333,4,2,36,55,0,1
73048,-83.3333333333333,4,2,64,70,0,1
73127,-83.3333333333333,4,2,64,70,0,1
73205,-83.3333333333333,4,2,64,70,0,1
73284,-83.3333333333333,4,2,64,70,0,1
73363,-83.3333333333333,4,2,4,70,0,1
73442,-83.3333333333333,4,2,4,70,0,1
73521,-83.3333333333333,4,2,4,70,0,1
73679,-83.3333333333333,4,2,4,70,0,1
73837,-83.3333333333333,4,2,4,70,0,1
73995,-83.3333333333333,4,2,4,70,0,1
74153,-83.3333333333333,4,2,4,70,0,1
74311,-83.3333333333333,4,2,4,70,0,1
74469,-83.3333333333333,4,2,4,70,0,1
74627,-83.3333333333333,4,2,5,70,0,1
74784,-83.3333333333333,4,2,5,70,0,1
74942,-83.3333333333333,4,2,5,70,0,1
75100,-83.3333333333333,4,2,5,70,0,1
75258,-83.3333333333333,4,2,5,70,0,1
75416,-83.3333333333333,4,2,5,70,0,1
75574,-83.3333333333333,4,2,47,70,0,1
75653,-83.3333333333333,4,2,47,70,0,1
75732,-83.3333333333333,4,2,47,70,0,1
75811,-83.3333333333333,4,2,47,70,0,1
75890,-83.3333333333333,4,2,6,70,0,1
76205,-83.3333333333333,4,2,6,70,0,1
76284,-83.3333333333333,4,2,6,70,0,1
76363,-83.3333333333333,4,2,7,70,0,1
76442,-83.3333333333333,4,2,7,70,0,1
76521,-83.3333333333333,4,2,7,70,0,1
76679,-83.3333333333333,4,2,6,70,0,1
76758,-83.3333333333333,4,2,6,70,0,1
76837,-83.3333333333333,4,2,8,70,0,1
76995,-83.3333333333333,4,2,8,70,0,1
77074,-83.3333333333333,4,2,8,70,0,1
77311,-83.3333333333333,4,2,48,56,0,1
77390,-83.3333333333333,4,2,52,56,0,1
77469,-83.3333333333333,4,2,57,62,0,1
77548,-83.3333333333333,4,2,56,58,0,1
77627,-83.3333333333333,4,2,52,52,0,1
77705,-83.3333333333333,4,2,48,50,0,1
77784,-83.3333333333333,4,2,46,48,0,1
77863,-83.3333333333333,4,2,42,44,0,1
77942,-83.3333333333333,4,2,38,40,0,1
78021,-83.3333333333333,4,2,37,36,0,1
78100,-83.3333333333333,4,2,81,36,0,1
78179,-83.3333333333333,4,2,81,36,0,1
78258,-83.3333333333333,4,2,81,36,0,1
78337,-83.3333333333333,4,2,81,36,0,1
78416,-111.111111111111,4,2,81,40,0,0
78574,-111.111111111111,4,2,81,40,0,0
78732,-111.111111111111,4,2,81,40,0,0
78890,-111.111111111111,4,2,81,40,0,0
79205,-111.111111111111,4,2,81,40,0,0
79363,-111.111111111111,4,2,81,45,0,0
79521,-111.111111111111,4,2,81,35,0,0
79679,-111.111111111111,4,2,81,40,0,0
79995,-111.111111111111,4,2,81,45,0,0
80311,-111.111111111111,4,2,81,30,0,0
80627,-111.111111111111,4,2,81,35,0,0
80942,-111.111111111111,4,2,81,50,0,0
81258,-111.111111111111,4,2,81,30,0,0
81416,-111.111111111111,4,2,81,45,0,0
81732,-111.111111111111,4,2,81,30,0,0
81890,-111.111111111111,4,2,81,35,0,0
82205,-111.111111111111,4,2,81,40,0,0
82521,-111.111111111111,4,2,81,45,0,0
82837,-111.111111111111,4,2,81,50,0,0
83153,-111.111111111111,4,2,81,40,0,0
83469,-111.111111111111,4,2,81,45,0,0
83627,-111.111111111111,4,2,81,30,0,0
83784,-111.111111111111,4,2,81,45,0,0
83942,-111.111111111111,4,2,81,50,0,0
84258,-111.111111111111,4,2,81,30,0,0
84732,-111.111111111111,4,2,81,45,0,0
85048,-111.111111111111,4,2,81,30,0,0
85363,-111.111111111111,4,2,81,35,0,0
85679,-111.111111111111,4,2,81,35,0,0
85995,-111.111111111111,4,2,81,45,0,0
86153,-111.111111111111,4,2,81,40,0,0
86311,-111.111111111111,4,2,81,35,0,0
86469,-111.111111111111,4,2,81,30,0,0
86627,-111.111111111111,4,2,81,45,0,0
86942,-111.111111111111,4,2,81,30,0,0
87100,-142.857142857143,4,2,81,30,0,0
87258,-142.857142857143,4,2,81,45,0,0
87890,-142.857142857143,4,2,81,50,0,0
88205,-142.857142857143,4,2,81,35,0,0
88442,-142.857142857143,4,2,81,5,0,0
88521,-142.857142857143,4,2,81,40,0,0
89784,-142.857142857143,4,2,81,50,0,0
90100,-142.857142857143,4,2,81,55,0,0
90416,-142.857142857143,4,2,81,60,0,0
90732,-142.857142857143,4,2,81,65,0,0
91048,-142.857142857143,4,2,81,45,0,0
92232,-142.857142857143,4,2,81,5,0,0
92311,-142.857142857143,4,2,81,35,0,0
94205,-142.857142857143,4,2,81,50,0,0
95469,-142.857142857143,4,2,81,40,0,0
96100,-142.857142857143,4,2,78,30,0,0

[Colours]
Combo1 : 214,164,107
Combo2 : 186,186,199
Combo3 : 175,254,58
Combo4 : 112,96,255

[HitObjects]
335,238,2627,5,2,0:0:0:0:
437,144,2784,1,0,0:0:0:0:
246,90,2942,1,0,0:0:0:0:
426,27,3100,2,0,L|408:184,1,144,2|0,0:0|0:0,0:0:0:0:
388,319,3574,1,2,0:0:0:0:
388,319,3890,5,2,0:0:0:0:
268,226,4048,1,0,0:0:0:0:
409,170,4206,1,0,0:0:0:0:
298,312,4363,2,0,P|227:308|183:250,1,144,2|0,0:0|0:0,0:0:0:0:
357,241,4837,1,2,0:0:0:0:
357,241,5153,5,2,0:0:0:0:
244,138,5311,1,2,0:0:0:0:
203,285,5469,1,2,0:0:0:0:
103,170,5627,2,0,L|248:136,1,144,2|2,0:0|0:0,0:0:0:0:
32,52,6100,1,2,0:0:0:0:
32,52,6416,6,0,P|7:119|27:189,1,144,2|0,0:0|0:0,0:0:0:0:
154,301,6890,1,2,0:0:0:0:
54,378,7048,2,0,P|44:341|19:307,1,72,2|0,0:0|0:0,0:0:0:0:
25,186,7363,2,0,L|139:207,1,108,2|0,0:0|0:0,0:0:0:0:
147,215,7679,6,0,L|229:196,1,72,2|0,0:0|0:0,0:0:0:0:
343,123,7995,1,0,0:0:0:0:
389,221,8153,2,0,P|324:232|260:193,1,144,2|0,0:0|0:0,0:0:0:0:
436,77,8627,2,0,L|417:147,1,72,2|0,0:0|0:0,0:0:0:0:
294,53,8942,5,2,0:0:0:0:
179,65,9258,5,2,0:0:0:0:
134,171,9574,5,2,0:0:0:0:
179,277,9890,6,0,L|64:268,1,108,2|0,0:0|0:0,0:0:0:0:
53,266,10205,2,0,B|20:188|20:188|40:115,1,144,2|0,0:0|0:0,0:0:0:0:
170,63,10679,2,0,P|241:70|332:36,1,144,2|0,0:0|0:0,0:0:0:0:
226,185,11153,2,0,P|226:223|240:255,1,72,2|0,0:0|0:0,0:0:0:0:
383,276,11469,6,0,P|430:233|371:191,1,144,2|0,0:0|0:0,0:0:0:0:
240,254,11942,2,0,L|402:279,1,144,2|0,0:0|0:0,0:0:0:0:
172,367,12416,6,0,L|156:316,1,36,2|0,0:0|0:0,0:0:0:0:
240,254,12574,2,0,L|252:220,1,36,0|0,0:0|0:0,0:0:0:0:
139,150,12732,6,0,L|49:167,1,80.9999975280763,6|0,3:1|0:0,0:0:0:0:
246,51,13048,2,0,L|326:66,1,80.9999975280763,0|0,3:0|0:0,0:0:0:0:
410,205,13363,1,0,3:0:0:0:
497,67,13521,1,0,0:0:0:0:
410,205,13679,2,0,L|279:180,1,121.499996292114,0|0,3:0|0:0,0:0:0:0:
262,175,13995,6,0,P|220:243|230:327,1,161.999995056153,6|0,3:2|3:0,0:0:0:0:
387,358,14469,1,10,0:3:0:0:
290,182,14627,1,0,3:0:0:0:
372,330,14784,1,10,1:3:0:0:
484,160,14942,1,2,3:2:0:0:
315,266,15100,1,8,1:3:0:0:
265,92,15258,6,0,L|358:104,1,80.9999975280763,6|0,3:2|0:0,0:0:0:0:
155,13,15574,1,2,3:2:0:0:
71,212,15732,2,0,P|49:134|1:71,1,161.999995056153,6|6,1:2|1:2,0:0:0:0:
204,214,16205,1,0,3:0:0:0:
265,92,16363,1,2,1:2:0:0:
71,212,16521,5,0,0:0:0:0:
332,213,16679,1,2,1:2:0:0:
332,213,16758,1,2,1:2:0:0:
332,213,16837,1,2,3:2:0:0:
149,92,16995,1,10,1:3:0:0:
71,212,17153,5,2,3:2:0:0:
148,333,17311,1,12,1:3:0:0:
269,276,17469,1,2,3:2:0:0:
391,330,17627,1,2,1:2:0:0:
473,213,17784,6,0,P|438:192|389:187,1,80.9999975280763,6|0,3:2|0:0,0:0:0:0:
269,276,18100,1,2,3:2:0:0:
142,184,18258,2,0,L|125:15,1,161.999995056153,10|2,0:3|0:0,0:0:0:0:
270,89,18732,1,2,3:2:0:0:
77,235,18890,1,2,0:0:0:0:
77,235,18969,1,0,0:0:0:0:
77,235,19048,5,2,3:2:0:0:
305,166,19205,1,2,0:0:0:0:
255,365,19363,1,2,3:2:0:0:
77,235,19521,2,0,L|171:222,1,80.9999975280763,10|0,0:3|0:0,0:0:0:0:
358,325,19837,1,10,0:3:0:0:
157,223,19995,5,2,3:2:0:0:
340,70,20153,1,0,1:0:0:0:
376,306,20311,5,2,3:2:0:0:
161,264,20469,1,2,0:0:0:0:
299,172,20627,1,2,0:0:0:0:
299,172,20784,1,2,0:0:0:0:
142,279,20942,5,6,3:2:0:0:
334,239,21100,1,2,0:0:0:0:
207,154,21258,1,2,0:0:0:0:
207,154,21416,1,2,0:0:0:0:
63,209,21574,6,0,P|34:259|41:339,1,125.999996154785,2|0,3:2|0:0,0:0:0:0:
147,290,22048,1,0,0:0:0:0:
147,290,22127,1,0,0:0:0:0:
147,290,22205,2,0,B|178:291|201:312|201:312|256:309|301:274|301:274|324:298|374:306,1,220.499993270874,0|0,0:0|0:0,0:0:0:0:
345,299,22837,6,0,P|396:311|465:293,1,107.999996704102,8|2,0:2|0:0,0:0:0:0:
512,187,23311,1,0,0:0:0:0:
399,229,23469,2,0,P|378:181|381:106,1,107.999996704102,2|0,0:0|0:0,0:0:0:0:
473,95,23942,1,2,0:0:0:0:
337,42,24100,6,0,B|296:31|296:31|231:83,1,107.999996704102,2|2,0:0|0:0,0:0:0:0:
139,179,24574,1,0,0:0:0:0:
51,73,24732,2,0,L|109:88,1,53.9999983520508,2|0,0:0|0:0,0:0:0:0:
190,161,25048,2,0,L|134:180,1,53.9999983520508,2|0,0:0|0:0,0:0:0:0:
43,266,25363,6,0,B|34:308|34:308|90:365,1,107.999996704102,8|2,0:0|0:0,0:0:0:0:
226,303,25837,1,2,0:0:0:0:
138,178,25995,2,0,L|125:237,1,53.9999983520508,2|0,0:0|0:0,0:0:0:0:
214,355,26311,2,0,L|226:301,1,53.9999983520508,0|2,0:0|0:0,0:0:0:0:
389,349,26627,6,0,P|364:362|323:368,1,53.9999983520508,2|0,0:0|0:0,0:0:0:0:
225,302,26942,2,0,L|237:246,1,53.9999983520508,2|0,0:0|0:0,0:0:0:0:
302,135,27258,1,2,0:0:0:0:
442,263,27416,1,0,0:0:0:0:
409,107,27574,2,0,P|402:148|399:160,1,53.9999983520508,2|0,0:0|0:0,0:0:0:0:
328,289,27890,6,0,P|319:243|316:231,1,53.9999983520508,8|0,0:0|0:0,0:0:0:0:
225,211,28205,1,2,0:0:0:0:
268,111,28363,2,0,P|314:119|328:122,2,53.9999983520508,0|2|0,0:0|0:0|0:0,0:0:0:0:
161,128,28837,1,2,0:0:0:0:
91,54,28995,2,0,P|32:63|-10:113,1,107.999996704102,2|0,0:0|0:0,0:0:0:0:
35,221,29469,5,2,0:0:0:0:
35,221,29784,2,0,L|108:235,1,53.9999983520508,2|0,0:0|0:0,0:0:0:0:
271,263,30100,1,2,0:0:0:0:
235,171,30258,1,0,0:0:0:0:
189,336,30416,6,0,B|152:328|152:328|122:342|122:342|70:332,1,107.999996704102,10|2,0:0|0:0,0:0:0:0:
166,242,30890,2,0,L|284:266,1,107.999996704102,2|0,0:0|0:0,0:0:0:0:
376,339,31363,2,0,P|396:302|399:254,1,80.9999975280763,2|0,0:0|0:0,0:0:0:0:
400,263,31679,6,0,L|346:253,1,53.9999983520508,2|0,0:0|0:0,0:0:0:0:
468,194,31995,1,2,0:0:0:0:
490,299,32153,1,2,0:0:0:0:
490,299,32232,1,0,0:0:0:0:
490,299,32311,1,2,0:0:0:0:
399,357,32469,1,2,0:0:0:0:
306,300,32627,1,2,0:0:0:0:
334,196,32784,1,2,0:0:0:0:
400,263,32942,6,0,L|425:153,1,107.999996704102,10|2,0:0|0:0,0:0:0:0:
336,77,33416,1,0,0:0:0:0:
248,144,33574,2,0,L|196:130,1,53.9999983520508,2|2,1:2|0:0,0:0:0:0:
346,24,33890,2,0,L|334:83,1,53.9999983520508,0|2,0:0|0:0,0:0:0:0:
509,240,34205,6,0,P|465:206|402:202,1,107.999996704102,2|2,0:0|0:0,0:0:0:0:
311,219,34679,1,0,0:0:0:0:
208,187,34837,2,0,L|319:222,1,107.999996704102,2|2,1:2|0:0,0:0:0:0:
198,368,35311,1,0,0:0:0:0:
302,314,35469,5,8,0:0:0:0:
302,314,35784,2,0,L|239:299,1,53.9999983520508,2|0,0:0|0:0,0:0:0:0:
111,361,36100,1,0,1:2:0:0:
8,279,36258,2,0,P|48:244|120:232,1,107.999996704102,2|2,0:0|0:0,0:0:0:0:
206,149,36732,6,0,P|154:138|101:101,1,107.999996704102,10|2,0:0|0:0,0:0:0:0:
24,20,37205,1,0,0:0:0:0:
183,87,37363,2,0,P|181:140|146:179,1,107.999996704102,2|2,1:2|0:0,0:0:0:0:
13,115,37837,1,0,0:0:0:0:
132,231,37995,6,0,L|147:170,1,53.9999983520508,8|0,0:0|0:0,0:0:0:0:
257,39,38311,2,0,L|268:99,1,53.9999983520508,2|0,0:0|0:0,0:0:0:0:
420,214,38627,2,0,L|447:104,1,107.999996704102,2|2,1:2|0:0,0:0:0:0:
420,214,39100,2,0,B|381:231|381:231|298:209,1,107.999996704102,2|0,0:0|0:0,0:0:0:0:
196,333,39574,6,0,L|253:306,1,53.9999983520508,2|0,0:0|0:0,0:0:0:0:
214,146,39890,2,0,L|202:212,1,53.9999983520508,2|0,1:2|0:0,0:0:0:0:
351,318,40205,2,0,L|438:287,1,80.9999975280763,2|0,0:0|0:0,0:0:0:0:
440,286,40521,6,0,L|456:168,1,107.999996704102,10|0,0:0|0:0,0:0:0:0:
319,131,40995,1,0,0:0:0:0:
214,236,41153,1,2,1:2:0:0:
214,236,41469,2,0,L|203:180,1,53.9999983520508,2|2,0:0|1:2,0:0:0:0:
294,8,41784,6,0,L|286:74,1,53.9999983520508,0|2,0:0|0:0,0:0:0:0:
122,208,42100,1,0,0:0:0:0:
362,147,42258,1,2,0:0:0:0:
201,38,42416,5,2,0:0:0:0:
127,106,42574,1,2,0:0:0:0:
122,208,42732,1,2,0:0:0:0:
192,282,42890,1,2,0:0:0:0:
343,231,43048,6,0,P|381:220|436:222,1,80.9999975280763,6|0,3:2|0:0,0:0:0:0:
214,361,43363,2,0,L|190:275,1,80.9999975280763,0|2,3:2|0:0,0:0:0:0:
232,67,43679,1,0,3:2:0:0:
422,219,43837,1,0,0:0:0:0:
395,71,43995,1,2,3:2:0:0:
295,308,44153,1,6,0:3:0:0:
276,48,44311,5,4,3:0:0:0:
106,166,44469,1,4,0:3:0:0:
227,332,44627,2,0,L|312:303,1,72,4|0,3:0|0:0,0:0:0:0:
114,84,44942,2,0,L|36:113,1,72,0|8,3:0|1:3,0:0:0:0:
43,274,45258,1,2,3:2:0:0:
43,274,45337,1,0,0:0:0:0:
43,274,45416,2,0,L|89:259,1,36,0|0,0:0|0:0,0:0:0:0:
294,201,45574,5,2,3:2:0:0:
193,70,45732,1,0,0:0:0:0:
160,235,45890,1,0,3:0:0:0:
288,96,46048,1,2,0:0:0:0:
330,275,46205,1,0,3:2:0:0:
116,141,46363,1,0,0:0:0:0:
152,321,46521,1,2,3:2:0:0:
330,275,46679,6,0,L|339:202,1,72,10|0,0:3|3:2,0:0:0:0:
186,56,46995,2,0,L|176:128,1,72,8|2,1:3|3:2,0:0:0:0:
350,104,47311,1,2,1:2:0:0:
160,235,47469,1,2,1:2:0:0:
330,275,47627,1,2,1:2:0:0:
186,56,47785,1,10,0:3:0:0:
394,203,47942,1,6,0:3:0:0:
130,347,48100,6,0,P|66:304|52:216,1,161.999995056153,6|2,3:2|0:0,0:0:0:0:
317,190,48574,1,0,3:0:0:0:
149,229,48732,2,0,P|137:193|145:136,1,80.9999975280763,2|0,1:2|0:0,0:0:0:0:
257,69,49048,1,2,3:2:0:0:
317,190,49205,6,0,L|235:181,1,80.9999975280763
421,116,49521,1,0,1:0:0:0:
398,274,49679,2,0,L|388:354,1,80.9999975280763,2|0,0:0|3:0,0:0:0:0:
421,116,49995,1,2,1:2:0:0:
233,256,50153,1,0,1:0:0:0:
233,256,50232,1,0,0:0:0:0:
233,256,50311,1,10,0:3:0:0:
466,203,50469,1,10,0:3:0:0:
247,94,50627,6,0,L|232:263,1,161.999995056153,12|2,3:2|0:0,0:0:0:0:
100,317,51100,1,0,3:0:0:0:
27,189,51258,2,0,L|109:172,1,80.9999975280763,2|0,1:2|0:0,0:0:0:0:
266,342,51574,2,0,L|180:326,1,80.9999975280763,2|0,3:2|0:0,0:0:0:0:
327,110,51890,6,0,P|364:164|360:263,1,161.999995056153,8|2,0:0|1:2,0:0:0:0:
342,354,52363,1,0,3:0:0:0:
207,201,52521,1,2,1:2:0:0:
32,326,52679,2,0,L|93:308,1,40.4999987640381,0|0,1:2|0:0,0:0:0:0:
103,306,52837,2,0,L|93:184,1,121.499996292114,10|0,0:3|0:0,0:0:0:0:
176,84,53153,6,0,L|186:181,1,90,12|0,3:2|0:0,0:0:0:0:
340,265,53469,2,0,L|334:169,1,90,2|0,0:0|0:0,0:0:0:0:
333,161,53705,1,0,0:0:0:0:
332,147,53784,1,2,3:2:0:0:
134,292,53942,1,0,0:0:0:0:
340,265,54100,1,2,3:2:0:0:
137,182,54258,1,0,0:0:0:0:
137,182,54337,1,0,0:0:0:0:
137,182,54416,5,2,3:2:0:0:
396,236,54574,1,0,0:0:0:0:
238,342,54732,1,2,3:2:0:0:
229,108,54890,1,0,0:0:0:0:
346,313,55048,5,2,3:2:0:0:
187,263,55205,1,0,0:0:0:0:
466,172,55363,1,2,3:2:0:0:
466,172,55442,1,0,0:0:0:0:
466,172,55521,2,0,L|456:236,1,45,0|0,0:0|0:0,0:0:0:0:
326,161,55679,5,14,0:0:0:0:
473,345,55837,1,0,0:0:0:0:
416,124,55995,1,0,1:2:0:0:
239,291,56153,1,0,1:2:0:0:
239,291,56232,1,0,0:0:0:0:
239,291,56311,1,0,1:2:0:0:
83,102,56469,1,0,1:2:0:0:
26,351,56627,1,10,1:2:0:0:
220,203,56784,1,10,1:2:0:0:
78,19,56942,6,0,P|30:167|165:117,1,360,8|8,0:0|0:0,0:0:0:0:
161,130,57890,6,0,L|172:176,1,31.4999990386963,2|0,0:0|0:0,0:0:0:0:
274,228,58048,2,0,L|285:273,1,31.4999990386963,2|0,0:0|0:0,0:0:0:0:
444,128,58205,6,0,L|334:142,1,107.999996704102,6|0,3:2|3:0,0:0:0:0:
139,49,58521,1,2,1:2:0:0:
252,307,58679,1,2,0:0:0:0:
252,307,58758,1,0,0:0:0:0:
252,307,58837,1,0,0:0:0:0:
84,241,58995,1,0,3:2:0:0:
320,125,59153,1,2,1:2:0:0:
139,49,59311,1,2,0:2:0:0:
139,49,59390,1,0,0:0:0:0:
139,49,59469,6,0,L|128:164,1,107.999996704102,0|2,3:0|0:0,0:0:0:0:
420,140,59784,1,2,1:2:0:0:
257,283,59942,1,0,3:2:0:0:
257,283,60021,1,0,0:0:0:0:
257,283,60100,1,2,3:2:0:0:
424,359,60258,1,0,3:2:0:0:
278,147,60416,2,0,L|209:156,1,53.9999983520508,2|0,1:2|0:0,0:0:0:0:
349,273,60574,2,0,L|362:215,1,53.9999983520508,2|0,0:0|0:0,0:0:0:0:
164,293,60732,6,0,L|56:308,1,107.999996704102,2|0,3:2|3:0,0:0:0:0:
315,370,61048,1,2,1:2:0:0:
275,84,61205,1,2,0:0:0:0:
349,273,61363,1,0,0:0:0:0:
180,192,61521,1,0,3:2:0:0:
411,115,61679,1,2,1:2:0:0:
115,63,61837,1,2,0:0:0:0:
115,63,61916,1,0,0:0:0:0:
115,63,61995,5,0,3:2:0:0:
218,274,62153,1,0,0:0:0:0:
430,216,62311,2,0,L|316:198,1,107.999996704102,2|0,1:2|3:2,0:0:0:0:
111,293,62627,2,0,L|234:271,1,107.999996704102,2|0,3:2|3:2,0:0:0:0:
354,53,62942,1,2,1:2:0:0:
270,276,63100,1,0,1:0:0:0:
270,276,63179,1,0,1:0:0:0:
270,276,63258,5,2,3:2:0:0:
116,102,63416,1,0,0:0:0:0:
67,338,63574,1,0,1:0:0:0:
306,173,63732,2,0,L|251:150,1,53.9999983520508,0|2,0:0|0:0,0:0:0:0:
57,297,63890,1,2,0:0:0:0:
202,79,64048,1,0,3:2:0:0:
254,358,64205,1,2,1:2:0:0:
19,134,64363,1,2,0:0:0:0:
115,254,64521,6,0,L|228:237,1,107.999996704102,0|0,3:0|0:0,0:0:0:0:
308,63,64837,2,0,L|191:80,1,107.999996704102,2|0,1:2|3:2,0:0:0:0:
491,251,65153,1,2,3:2:0:0:
308,63,65311,1,0,3:2:0:0:
382,322,65469,1,2,1:2:0:0:
420,52,65627,1,0,1:0:0:0:
255,166,65784,6,0,L|147:155,1,107.999996704102,6|0,3:2|3:0,0:0:0:0:
29,208,66100,2,0,L|-1:148,1,53.9999983520508,2|0,1:2|0:0,0:0:0:0:
66,28,66258,2,0,L|94:83,1,53.9999983520508,0|0,3:0|0:0,0:0:0:0:
255,166,66416,6,0,L|385:152,1,107.999996704102,6|0,3:2|3:0,0:0:0:0:
483,208,66732,2,0,L|513:148,1,53.9999983520508,2|0,1:2|0:0,0:0:0:0:
446,28,66890,2,0,L|418:83,1,53.9999983520508,0|0,3:0|0:0,0:0:0:0:
294,87,67048,6,0,L|180:101,1,107.999996704102,6|0,3:2|3:0,0:0:0:0:
14,261,67363,2,0,L|125:245,1,107.999996704102,0|0,1:0|3:2,0:0:0:0:
156,242,67600,1,0,0:0:0:0:
156,242,67679,1,10,0:3:0:0:
333,80,67837,1,0,1:0:0:0:
101,6,67995,2,0,B|64:71|64:71|89:160,1,161.999995056153,0|0,1:0|0:0,0:0:0:0:
121,246,68311,5,6,3:2:0:0:
262,216,68469,1,0,0:0:0:0:
168,107,68627,1,0,1:2:0:0:
112,265,68784,1,2,0:0:0:0:
112,265,68863,1,0,0:0:0:0:
112,265,68942,1,2,0:0:0:0:
337,311,69100,1,0,3:0:0:0:
264,100,69258,1,0,1:2:0:0:
103,286,69416,1,2,0:0:0:0:
295,308,69574,5,6,3:2:0:0:
47,164,69732,1,0,0:0:0:0:
264,100,69890,1,0,1:2:0:0:
302,321,70048,1,2,3:2:0:0:
302,321,70127,1,0,0:0:0:0:
302,321,70205,2,0,L|150:297,1,107.999996704102,2|0,0:0|3:2,0:0:0:0:
450,215,70521,1,2,1:2:0:0:
264,100,70679,1,2,1:2:0:0:
476,17,70837,6,0,L|462:133,1,107.999996704102,6|0,3:2|3:2,0:0:0:0:
302,321,71153,2,0,L|281:199,1,107.999996704102,2|0,1:2|3:0,0:0:0:0:
398,18,71469,1,2,0:0:0:0:
215,88,71627,1,0,3:2:0:0:
387,316,71784,1,2,1:2:0:0:
383,47,71943,1,0,3:0:0:0:
134,111,72100,5,6,1:2:0:0:
412,258,72258,1,0,3:0:0:0:
242,18,72416,5,6,1:2:0:0:
285,320,72574,1,0,3:0:0:0:
3,206,72732,5,6,1:2:0:0:
3,206,72811,1,0,1:0:0:0:
3,206,72890,2,0,L|12:273,1,53.9999983520508,0|0,1:0|1:0,0:0:0:0:
134,111,73048,2,0,L|149:51,1,53.9999983520508,6|0,1:2|1:2,0:0:0:0:
298,267,73205,2,0,L|281:331,1,53.9999983520508,0|0,1:2|1:2,0:0:0:0:
355,22,73363,5,6,3:2:0:0:
102,146,73521,1,0,3:0:0:0:
357,333,73679,5,6,1:2:0:0:
268,92,73837,1,0,3:2:0:0:
160,371,73995,5,6,1:2:0:0:
414,146,74153,1,0,3:2:0:0:
102,146,74311,5,6,1:2:0:0:
260,301,74469,1,0,3:2:0:0:
437,61,74627,5,6,1:2:0:0:
389,236,74784,1,0,3:2:0:0:
260,17,74942,5,6,1:2:0:0:
260,301,75100,1,0,3:2:0:0:
96,31,75258,5,6,1:2:0:0:
152,364,75416,1,0,3:2:0:0:
414,146,75574,5,2,1:2:0:0:
359,364,75732,1,0,1:0:0:0:
359,364,75811,1,0,1:0:0:0:
359,364,75890,5,6,3:2:0:0:
127,228,76048,1,6,3:2:0:0:
414,146,76205,1,2,1:0:0:0:
127,16,76363,2,0,L|108:127,1,107.999996704102,6|2,3:2|1:0,0:0:0:0:
315,363,76679,2,0,L|343:233,1,107.999996704102,6|2,3:2|1:0,0:0:0:0:
9,162,76995,6,0,P|63:220|157:218,1,161.999995056153,6|0,1:2|0:0,0:0:0:0:
225,99,77311,1,2,0:0:0:0:
225,99,77390,1,2,0:0:0:0:
225,99,77469,2,0,L|240:170,1,53.9999983520508,6|2,3:2|0:0,0:0:0:0:
410,324,77627,2,0,L|424:255,1,53.9999983520508,2|2,0:0|0:0,0:0:0:0:
385,61,77784,2,0,L|326:66,1,53.9999983520508,2|2,1:2|1:2,0:0:0:0:
153,277,77942,2,0,L|136:203,1,53.9999983520508,2|2,1:2|1:2,0:0:0:0:
51,161,78100,5,2,1:2:0:0:
43,187,78179,1,0,1:0:0:0:
35,212,78258,1,0,1:0:0:0:
27,237,78337,1,0,1:0:0:0:
20,259,78416,6,0,L|114:231,1,80.9999975280763,6|0,0:0|0:0,0:0:0:0:
294,325,78732,1,2,0:0:0:0:
239,206,78890,2,0,P|181:260|168:344,1,161.999995056153,2|0,0:0|0:0,0:0:0:0:
384,337,79363,2,0,P|379:291|355:257,1,80.9999975280763,2|2,0:0|0:0,0:0:0:0:
239,206,79679,6,0,P|193:143|259:89,1,161.999995056153,2|2,0:0|0:0,0:0:0:0:
412,158,80311,1,2,0:0:0:0:
412,158,80627,2,0,P|369:158|319:145,1,80.9999975280763,2|2,0:0|0:0,0:0:0:0:
204,47,80942,6,0,P|226:127|240:214,1,161.999995056153,2|2,0:0|0:0,0:0:0:0:
73,268,81416,2,0,P|66:188|132:150,1,161.999995056153,2|0,0:0|0:0,0:0:0:0:
279,339,81890,1,2,0:0:0:0:
360,264,82048,1,2,0:0:0:0:
158,360,82205,6,0,B|108:348|108:348|50:364|50:364|-6:351,1,161.999995056153,2|2,0:0|0:0,0:0:0:0:
204,244,82837,1,2,0:0:0:0:
204,244,83153,2,0,L|339:276,1,121.499996292114,2|0,0:0|0:0,0:0:0:0:
352,280,83469,5,2,0:0:0:0:
422,213,83627,1,0,0:0:0:0:
390,121,83784,1,0,0:0:0:0:
292,119,83942,1,0,0:0:0:0:
292,119,84258,2,0,P|252:126|208:140,1,80.9999975280763,0|2,0:0|0:0,0:0:0:0:
109,199,84574,1,2,0:0:0:0:
73,85,84732,6,0,P|151:85|213:138,1,161.999995056153,2|2,0:0|0:0,0:0:0:0:
272,210,85205,1,0,0:0:0:0:
367,192,85363,2,0,L|451:180,1,80.9999975280763,2|0,0:0|0:0,0:0:0:0:
512,69,85679,2,0,L|428:51,1,80.9999975280763,2|0,0:0|0:0,0:0:0:0:
289,183,85995,6,0,P|305:244|400:269,1,161.999995056153,2|0,0:0|0:0,0:0:0:0:
447,180,86469,1,0,0:0:0:0:
439,335,86627,2,0,P|414:312|387:256,1,80.9999975280763,2|0,0:0|0:0,0:0:0:0:
371,93,86942,1,2,0:0:0:0:
474,180,87100,2,0,P|495:152|504:110,1,62.9999980773926,2|2,0:0|0:0,0:0:0:0:
371,93,87416,1,0,0:0:0:0:
268,180,87574,6,0,L|199:166,1,62.9999980773926,0|0,0:0|0:0,0:0:0:0:
46,94,87890,1,2,0:0:0:0:
46,94,88048,1,0,0:0:0:0:
112,182,88205,2,0,B|226:164,1,94.499997116089,2|0,0:0|0:0,0:0:0:0:
233,214,88521,6,0,B|257:260|257:260|306:260|306:260|225:114|225:114|176:114|176:114|213:180,1,377.999988464356,2|2,0:0|0:0,0:0:0:0:
79,139,89627,1,2,0:0:0:0:
205,167,89784,6,0,B|267:181|267:181|330:168,1,125.999996154785,2|0,0:0|0:0,0:0:0:0:
499,275,90416,1,2,0:0:0:0:
283,368,90732,1,2,0:0:0:0:
66,276,91048,6,0,B|82:194|67:107|67:107|149:101|176:144|147:195|88:198|88:198|127:227|127:227|136:265|181:286,1,472.499985580445,2|0,0:0|0:0,0:0:0:0:
279,232,92311,2,0,B|319:232|319:232|317:195|285:183|249:195|246:232|246:232|247:272|283:284|319:268,1,251.999992309571,2|0,0:0|0:0,0:0:0:0:
424,144,93100,1,0,0:0:0:0:
410,270,93258,1,2,0:0:0:0:
410,144,93416,1,0,0:0:0:0:
423,269,93574,5,2,0:0:0:0:
256,192,93653,12,2,96100,0:0:0:0:
