osu file format v14

[General]
AudioFilename: audio.mp3
AudioLeadIn: 0
PreviewTime: 57811
Countdown: 0
SampleSet: Soft
StackLeniency: 0.7
Mode: 0
LetterboxInBreaks: 0
WidescreenStoryboard: 0

[Editor]
DistanceSpacing: 0.5
BeatDivisor: 4
GridSize: 32
TimelineZoom: 1.6

[Metadata]
Title:Re:TrymenT
TitleUnicode:Re:TrymenT
Artist:Hotaru Murasaki
ArtistUnicode:紫咲ほたる
Creator:eLy
Version:Light Insane
Source:Re:LieF〜親愛なるあなたへ〜
Tags:rask レリーフ relief Shin'ainaru Anata e DeaR YoU retryment opening op short eroge game visual novel 甘利紗陽 amari saya piano homura- wring lecana litoluna cookiezi asahina momoko mokori kawaiwkyik rizia vellya alyce 5hiki
BeatmapID:1165775
BeatmapSetID:519521

[Difficulty]
HPDrainRate:6
CircleSize:4
OverallDifficulty:7
ApproachRate:8.5
SliderMultiplier:1.6
SliderTickRate:2

[Events]
//Background and Video events
0,0,"BG.jpg",0,0
//Break Periods
//Storyboard Layer 0 (Background)
//Storyboard Layer 1 (Fail)
//Storyboard Layer 2 (Pass)
//Storyboard Layer 3 (Foreground)
//Storyboard Sound Samples

[TimingPoints]
2627,315.789473684211,4,2,52,30,1,0
2627,-142.857142857143,4,2,52,30,0,0
3100,-142.857142857143,4,2,51,30,0,0
3574,-142.857142857143,4,2,48,30,0,0
3890,-142.857142857143,4,2,40,30,0,0
4363,-142.857142857143,4,2,41,30,0,0
4837,-142.857142857143,4,2,46,30,0,0
5153,-142.857142857143,4,2,44,30,0,0
5311,-142.857142857143,4,2,34,30,0,0
5469,-142.857142857143,4,2,38,30,0,0
5627,-142.857142857143,4,2,40,30,0,0
5942,-142.857142857143,4,2,34,30,0,0
6100,-142.857142857143,4,2,42,30,0,0
6416,-142.857142857143,4,2,41,30,0,0
6890,-142.857142857143,4,2,48,30,0,0
7048,-142.857142857143,4,2,38,30,0,0
7363,-142.857142857143,4,2,51,30,0,0
7600,-142.857142857143,4,2,51,30,0,0
7679,-142.857142857143,4,2,52,30,0,0
8153,-142.857142857143,4,2,51,30,0,0
8627,-142.857142857143,4,2,48,30,0,0
8942,-142.857142857143,4,2,42,30,0,0
9258,-142.857142857143,4,2,36,30,0,0
9574,-142.857142857143,4,2,40,30,0,0
9890,-142.857142857143,4,2,44,30,0,0
10205,-142.857142857143,4,2,46,30,0,0
10679,-142.857142857143,4,2,44,30,0,0
11153,-142.857142857143,4,2,48,30,0,0
11390,-142.857142857143,4,2,48,30,0,0
11469,-142.857142857143,4,2,51,40,0,0
11942,-142.857142857143,4,2,52,40,0,0
12416,-142.857142857143,4,2,54,50,0,0
12732,-111.111111111111,4,2,52,60,0,0
13048,-111.111111111111,4,2,52,60,0,0
13995,-111.111111111111,4,2,78,60,0,0
14469,-111.111111111111,4,2,77,60,0,0
14627,-111.111111111111,4,2,77,60,0,0
14784,-111.111111111111,4,2,81,60,0,0
14942,-111.111111111111,4,2,76,60,0,0
15258,-111.111111111111,4,2,76,60,0,0
15574,-111.111111111111,4,2,77,60,0,0
15732,-111.111111111111,4,2,76,60,0,0
15890,-111.111111111111,4,2,83,50,0,0
15969,-111.111111111111,4,2,76,60,0,0
16048,-111.111111111111,4,2,72,60,0,0
16363,-111.111111111111,4,2,68,60,0,0
16521,-111.111111111111,4,2,68,60,0,0
16679,-111.111111111111,4,2,54,60,0,0
16758,-111.111111111111,4,2,56,60,0,0
16837,-111.111111111111,4,2,57,60,0,0
16995,-111.111111111111,4,2,56,60,0,0
17153,-111.111111111111,4,2,54,60,0,0
17311,-111.111111111111,4,2,52,60,0,0
17469,-111.111111111111,4,2,51,60,0,0
17627,-111.111111111111,4,2,48,60,0,0
17784,-111.111111111111,4,2,74,60,0,0
18100,-111.111111111111,4,2,48,60,0,0
18258,-111.111111111111,4,2,74,60,0,0
18416,-111.111111111111,4,2,83,50,0,0
18574,-111.111111111111,4,2,51,60,0,0
18732,-111.111111111111,4,2,46,60,0,0
18890,-111.111111111111,4,2,51,60,0,0
19048,-111.111111111111,4,2,74,60,0,0
19205,-111.111111111111,4,2,46,60,0,0
19363,-111.111111111111,4,2,50,60,0,0
19521,-111.111111111111,4,2,76,60,0,0
19679,-111.111111111111,4,2,83,50,0,0
19837,-111.111111111111,4,2,50,60,0,0
19995,-111.111111111111,4,2,74,60,0,0
20153,-111.111111111111,4,2,74,60,0,0
20311,-111.111111111111,4,2,73,60,0,0
20469,-111.111111111111,4,2,50,60,0,0
20627,-111.111111111111,4,2,46,60,0,0
20784,-111.111111111111,4,2,44,60,0,0
20942,-111.111111111111,4,2,43,50,0,0
21100,-111.111111111111,4,2,40,50,0,0
21258,-111.111111111111,4,2,36,50,0,0
21416,-111.111111111111,4,2,34,50,0,0
21574,-142.857142857143,4,2,33,40,0,0
22048,-142.857142857143,4,2,1,40,0,0
22205,-142.857142857143,4,2,1,40,0,0
22837,-166.666666666667,4,2,10,30,0,0
23153,-166.666666666667,4,2,34,35,0,0
23942,-166.666666666667,4,2,32,35,0,0
24100,-166.666666666667,4,2,34,35,0,0
24416,-166.666666666667,4,2,36,35,0,0
24732,-166.666666666667,4,2,34,35,0,0
25048,-166.666666666667,4,2,32,35,0,0
25363,-166.666666666667,4,2,11,45,0,0
25679,-166.666666666667,4,2,34,30,0,0
26469,-166.666666666667,4,2,32,30,0,0
26627,-166.666666666667,4,2,34,30,0,0
26942,-166.666666666667,4,2,36,30,0,0
27258,-166.666666666667,4,2,34,30,0,0
27574,-166.666666666667,4,2,32,30,0,0
27890,-166.666666666667,4,2,12,45,0,0
28205,-166.666666666667,4,2,28,30,0,0
28837,-166.666666666667,4,2,32,30,0,0
28995,-166.666666666667,4,2,34,30,0,0
29469,-166.666666666667,4,2,32,30,0,0
29784,-166.666666666667,4,2,31,30,0,0
30100,-166.666666666667,4,2,32,30,0,0
30416,-166.666666666667,4,2,13,30,0,0
30732,-166.666666666667,4,2,32,30,0,0
31363,-166.666666666667,4,2,38,30,0,0
31679,-166.666666666667,4,2,34,30,0,0
31995,-166.666666666667,4,2,48,45,0,0
32153,-166.666666666667,4,2,46,42,0,0
32311,-166.666666666667,4,2,42,40,0,0
32469,-166.666666666667,4,2,41,38,0,0
32627,-166.666666666667,4,2,38,36,0,0
32784,-166.666666666667,4,2,34,30,0,0
32942,-166.666666666667,4,2,14,30,0,0
33258,-166.666666666667,4,2,36,30,0,0
33574,-166.666666666667,4,2,34,30,0,0
33732,-166.666666666667,4,2,36,30,0,0
34205,-166.666666666667,4,2,37,30,0,0
34521,-166.666666666667,4,2,36,30,0,0
34837,-166.666666666667,4,2,34,30,0,0
35153,-166.666666666667,4,2,32,30,0,0
35469,-166.666666666667,4,2,15,45,0,0
35784,-166.666666666667,4,2,36,30,0,0
36100,-166.666666666667,4,2,34,30,0,0
36258,-166.666666666667,4,2,36,30,0,0
36732,-166.666666666667,4,2,16,30,0,0
37048,-166.666666666667,4,2,36,30,0,0
37363,-166.666666666667,4,2,34,30,0,0
37679,-166.666666666667,4,2,32,30,0,0
37995,-166.666666666667,4,2,17,45,0,0
38311,-166.666666666667,4,2,28,30,0,0
38942,-166.666666666667,4,2,32,30,0,0
39100,-166.666666666667,4,2,34,30,0,0
39574,-166.666666666667,4,2,32,30,0,0
39890,-166.666666666667,4,2,31,30,0,0
40205,-166.666666666667,4,2,32,30,0,0
40521,-166.666666666667,4,2,18,35,0,0
41153,-166.666666666667,4,2,30,30,0,0
41942,-166.666666666667,4,2,38,38,0,0
42100,-166.666666666667,4,2,48,52,0,0
42258,-166.666666666667,4,2,44,35,0,0
42416,-166.666666666667,4,2,42,44,0,0
42574,-166.666666666667,4,2,41,40,0,0
42732,-166.666666666667,4,2,38,36,0,0
42890,-166.666666666667,4,2,34,32,0,0
43048,-125,4,2,32,60,0,0
43521,-125,4,2,34,60,0,0
43995,-125,4,2,36,60,0,0
44153,-125,4,2,36,60,0,0
44311,-125,4,2,36,60,0,0
45574,-125,4,2,38,60,0,0
46048,-125,4,2,32,60,0,0
46205,-125,4,2,32,60,0,0
46363,-125,4,2,32,60,0,0
46521,-125,4,2,31,60,0,0
46679,-125,4,2,32,60,0,0
46995,-125,4,2,32,60,0,0
47151,-125,4,2,72,60,0,0
47311,-125,4,2,66,60,0,0
47469,-125,4,2,67,60,0,0
47627,-125,4,2,68,60,0,0
47784,-125,4,2,70,60,0,0
47942,-125,4,2,71,60,0,0
48100,-111.111111111111,4,2,72,60,0,0
48416,-111.111111111111,4,2,32,50,0,0
48574,-111.111111111111,4,2,32,50,0,0
48732,-111.111111111111,4,2,34,50,0,0
49048,-111.111111111111,4,2,35,50,0,0
49205,-111.111111111111,4,2,83,30,0,0
49363,-111.111111111111,4,2,20,30,0,0
49521,-111.111111111111,4,2,20,50,0,0
49679,-111.111111111111,4,2,34,50,0,0
49995,-111.111111111111,4,2,35,50,0,0
50153,-111.111111111111,4,2,35,50,0,0
50311,-111.111111111111,4,2,37,50,0,0
50469,-111.111111111111,4,2,81,50,0,0
50627,-111.111111111111,4,2,15,50,0,0
50942,-111.111111111111,4,2,35,50,0,0
51258,-111.111111111111,4,2,37,50,0,0
51574,-111.111111111111,4,2,38,50,0,0
51732,-111.111111111111,4,2,38,50,0,0
51890,-111.111111111111,4,2,17,30,0,0
52205,-111.111111111111,4,2,38,50,0,0
52521,-111.111111111111,4,2,39,50,0,0
52837,-111.111111111111,4,2,29,50,0,0
53153,-100,4,2,19,40,0,0
53469,-100,4,2,35,40,0,0
54100,-100,4,2,37,40,0,0
54416,-100,4,2,19,30,0,0
54732,-100,4,2,35,40,0,0
55048,-100,4,2,37,40,0,0
55205,-100,4,2,19,40,0,0
55363,-100,4,2,40,40,0,0
55600,-100,4,2,40,40,0,0
55679,-100,4,2,62,40,0,0
55995,-100,4,2,62,40,0,0
56153,-100,4,2,62,40,0,0
56311,-100,4,2,62,40,0,0
56469,-100,4,2,62,40,0,0
56627,-100,4,2,61,40,0,0
56784,-100,4,2,61,40,0,0
56942,-100,4,2,61,45,0,0
57100,-100,4,2,61,45,0,0
57574,-100,4,2,15,50,0,0
57890,-100,4,2,66,45,0,0
58048,-100,4,2,67,45,0,0
58205,-90.9090909090909,4,2,68,70,0,1
58521,-90.9090909090909,4,2,72,70,0,1
58679,-90.9090909090909,4,2,71,70,0,1
58758,-90.9090909090909,4,2,71,70,0,1
58995,-90.9090909090909,4,2,71,70,0,1
59153,-90.9090909090909,4,2,72,70,0,1
59311,-90.9090909090909,4,2,71,70,0,1
59627,-90.9090909090909,4,2,68,70,0,1
59784,-90.9090909090909,4,2,68,70,0,1
59942,-90.9090909090909,4,2,38,41,0,1
60100,-90.9090909090909,4,2,46,60,0,1
60258,-90.9090909090909,4,2,46,60,0,1
60416,-90.9090909090909,4,2,66,70,0,1
60574,-90.9090909090909,4,2,67,70,0,1
60732,-90.9090909090909,4,2,68,70,0,1
61048,-90.9090909090909,4,2,72,70,0,1
61205,-90.9090909090909,4,2,71,70,0,1
61679,-90.9090909090909,4,2,72,70,0,1
61837,-90.9090909090909,4,2,74,70,0,1
61995,-90.9090909090909,4,2,19,70,0,1
62232,-90.9090909090909,4,2,38,70,0,1
62311,-90.9090909090909,4,2,68,70,0,1
62469,-90.9090909090909,4,2,38,40,0,1
62627,-90.9090909090909,4,2,42,70,0,1
62942,-90.9090909090909,4,2,70,70,0,1
63179,-90.9090909090909,4,2,70,70,0,1
63258,-90.9090909090909,4,2,68,70,0,1
63416,-90.9090909090909,4,2,83,60,0,1
63574,-90.9090909090909,4,2,38,70,0,1
63811,-90.9090909090909,4,2,78,80,0,1
64048,-90.9090909090909,4,2,78,70,0,1
64205,-90.9090909090909,4,2,70,70,0,1
64363,-90.9090909090909,4,2,68,70,0,1
64679,-90.9090909090909,4,2,38,70,0,1
64837,-90.9090909090909,4,2,67,70,0,1
64995,-90.9090909090909,4,2,37,40,0,1
65153,-90.9090909090909,4,2,66,70,0,1
65469,-90.9090909090909,4,2,64,70,0,1
65627,-90.9090909090909,4,2,34,30,0,1
65705,-90.9090909090909,4,2,34,30,0,1
65784,-90.9090909090909,4,2,64,70,0,1
66021,-90.9090909090909,4,2,34,70,0,1
66100,-90.9090909090909,4,2,62,70,0,1
66258,-90.9090909090909,4,2,32,35,0,1
66416,-90.9090909090909,4,2,62,70,0,1
66653,-90.9090909090909,4,2,32,70,0,1
66732,-90.9090909090909,4,2,61,70,0,1
66890,-90.9090909090909,4,2,31,35,0,1
67048,-90.9090909090909,4,2,61,60,0,1
67284,-90.9090909090909,4,2,31,60,0,1
67363,-90.9090909090909,4,2,31,60,0,1
67679,-90.9090909090909,4,2,62,50,0,1
67837,-90.9090909090909,4,2,83,50,0,1
67916,-90.9090909090909,4,2,32,50,0,1
68311,-90.9090909090909,4,2,60,60,0,1
68627,-90.9090909090909,4,2,60,60,0,1
68784,-90.9090909090909,4,2,66,56,0,1
68942,-90.9090909090909,4,2,66,70,0,1
69100,-90.9090909090909,4,2,83,60,0,1
69258,-90.9090909090909,4,2,36,70,0,1
69416,-90.9090909090909,4,2,64,60,0,1
69574,-90.9090909090909,4,2,64,70,0,1
69732,-90.9090909090909,4,2,83,60,0,1
69890,-90.9090909090909,4,2,34,70,0,1
70048,-90.9090909090909,4,2,68,58,0,1
70205,-90.9090909090909,4,2,68,70,0,1
70521,-90.9090909090909,4,2,62,60,0,1
70837,-90.9090909090909,4,2,62,70,0,1
70995,-90.9090909090909,4,2,62,70,0,1
71153,-90.9090909090909,4,2,68,70,0,1
71311,-90.9090909090909,4,2,38,30,0,1
71469,-90.9090909090909,4,2,68,70,0,1
71784,-90.9090909090909,4,2,70,70,0,1
71942,-90.9090909090909,4,2,40,30,0,1
72100,-90.9090909090909,4,2,68,70,0,1
72258,-90.9090909090909,4,2,68,70,0,1
72416,-90.9090909090909,4,2,67,70,0,1
72732,-90.9090909090909,4,2,66,70,0,1
72811,-90.9090909090909,4,2,66,70,0,1
72890,-90.9090909090909,4,2,36,55,0,1
72969,-90.9090909090909,4,2,36,55,0,1
73048,-90.9090909090909,4,2,64,70,0,1
73127,-90.9090909090909,4,2,64,70,0,1
73205,-90.9090909090909,4,2,64,70,0,1
73284,-90.9090909090909,4,2,64,70,0,1
73363,-90.9090909090909,4,2,4,70,0,1
74627,-90.9090909090909,4,2,5,70,0,1
75574,-90.9090909090909,4,2,47,70,0,1
75653,-90.9090909090909,4,2,47,70,0,1
75890,-90.9090909090909,4,2,6,70,0,1
76205,-90.9090909090909,4,2,6,70,0,1
76363,-90.9090909090909,4,2,7,70,0,1
76521,-90.9090909090909,4,2,7,70,0,1
76679,-90.9090909090909,4,2,6,70,0,1
76837,-90.9090909090909,4,2,8,70,0,1
76995,-90.9090909090909,4,2,8,70,0,1
77311,-90.9090909090909,4,2,48,56,0,1
77469,-90.9090909090909,4,2,57,62,0,1
77548,-90.9090909090909,4,2,56,58,0,1
77627,-90.9090909090909,4,2,52,52,0,1
77705,-90.9090909090909,4,2,48,50,0,1
77784,-90.9090909090909,4,2,46,48,0,1
77863,-90.9090909090909,4,2,42,44,0,1
77942,-90.9090909090909,4,2,38,40,0,1
78021,-90.9090909090909,4,2,37,36,0,1
78100,-90.9090909090909,4,2,81,36,0,1
78416,-125,4,2,81,40,0,0
78732,-125,4,2,81,40,0,0
78890,-125,4,2,81,40,0,0
79205,-125,4,2,81,40,0,0
79363,-125,4,2,81,45,0,0
79521,-125,4,2,81,35,0,0
79679,-125,4,2,81,40,0,0
79995,-125,4,2,81,45,0,0
80311,-125,4,2,81,30,0,0
80627,-125,4,2,81,35,0,0
80942,-125,4,2,81,50,0,0
81258,-125,4,2,81,30,0,0
81416,-125,4,2,81,45,0,0
81732,-125,4,2,81,30,0,0
81890,-125,4,2,81,35,0,0
82205,-125,4,2,81,40,0,0
82521,-125,4,2,81,45,0,0
82837,-125,4,2,81,50,0,0
83153,-125,4,2,81,40,0,0
83469,-125,4,2,81,45,0,0
83627,-125,4,2,81,30,0,0
83784,-125,4,2,81,45,0,0
83942,-125,4,2,81,50,0,0
84258,-125,4,2,81,30,0,0
84732,-125,4,2,81,45,0,0
85048,-125,4,2,81,30,0,0
85363,-125,4,2,81,35,0,0
85679,-125,4,2,81,35,0,0
85995,-125,4,2,81,45,0,0
86153,-125,4,2,81,40,0,0
86311,-125,4,2,81,35,0,0
86469,-125,4,2,81,30,0,0
86627,-125,4,2,81,45,0,0
86942,-125,4,2,81,30,0,0
87100,-142.857142857143,4,2,81,30,0,0
87258,-142.857142857143,4,2,81,45,0,0
87890,-142.857142857143,4,2,81,50,0,0
88205,-142.857142857143,4,2,81,35,0,0
88521,-142.857142857143,4,2,81,40,0,0
89784,-142.857142857143,4,2,81,50,0,0
90100,-142.857142857143,4,2,81,55,0,0
90416,-142.857142857143,4,2,81,60,0,0
90732,-142.857142857143,4,2,81,65,0,0
91048,-142.857142857143,4,2,81,45,0,0
91995,-142.857142857143,4,2,81,30,0,0
92311,-142.857142857143,4,2,81,35,0,0
92627,-142.857142857143,4,2,81,30,0,0
92784,-142.857142857143,4,2,81,33,0,0
92942,-142.857142857143,4,2,81,36,0,0
93100,-142.857142857143,4,2,81,40,0,0
93258,-142.857142857143,4,2,81,45,0,0
93416,-142.857142857143,4,2,81,30,0,0
93574,-142.857142857143,4,2,81,55,0,0
94048,-142.857142857143,4,2,81,50,0,0
94205,-142.857142857143,4,2,81,50,0,0
94521,-142.857142857143,4,2,81,45,0,0
94837,-142.857142857143,4,2,81,40,0,0
94995,-142.857142857143,4,2,81,35,0,0
95311,-142.857142857143,4,2,81,40,0,0
95469,-142.857142857143,4,2,81,40,0,0
95627,-142.857142857143,4,2,81,45,0,0
95784,-142.857142857143,4,2,81,50,0,0
96100,-142.857142857143,4,2,78,30,0,0
96153,-142.857142857143,4,2,81,40,0,0
96205,-142.857142857143,4,2,81,35,0,0

[Colours]
Combo1 : 214,164,107
Combo2 : 186,186,199
Combo3 : 175,254,58
Combo4 : 112,96,255

[HitObjects]
317,68,2627,6,0,P|261:80|195:83,1,111.999996582031,2|0,0:0|0:0,0:0:0:0:
57,201,3100,2,0,P|112:191|174:187,1,111.999996582031,2|0,0:0|0:0,0:0:0:0:
272,188,3574,2,0,P|268:219|253:251,1,55.9999982910157,2|0,0:0|0:0,0:0:0:0:
191,332,3890,6,0,P|186:277|170:207,1,111.999996582031,2|0,0:0|0:0,0:0:0:0:
258,241,4363,2,0,P|301:275|353:308,1,111.999996582031,2|0,0:0|0:0,0:0:0:0:
463,271,4837,1,2,0:0:0:0:
463,271,5153,2,0,P|475:242|485:212,1,55.9999982910157,2|2,0:0|0:0,0:0:0:0:
498,111,5469,1,2,0:0:0:0:
343,145,5627,2,0,P|357:174|376:201,1,55.9999982910157,2|0,0:0|0:0,0:0:0:0:
463,271,5942,1,2,0:0:0:0:
349,303,6100,2,0,P|318:300|284:295,1,55.9999982910157,2|0,0:0|0:0,0:0:0:0:
159,228,6416,6,0,B|151:108,1,111.999996582031,2|0,0:0|0:0,0:0:0:0:
49,72,6890,2,0,P|97:98|161:118,1,111.999996582031,2|0,0:0|0:0,0:0:0:0:
246,31,7363,1,2,0:0:0:0:
246,31,7679,6,0,L|237:105,1,55.9999982910157,2|0,0:0|0:0,0:0:0:0:
285,172,7995,1,0,0:0:0:0:
151,116,8153,2,0,P|97:132|34:160,1,111.999996582031,2|0,0:0|0:0,0:0:0:0:
9,241,8627,1,2,0:0:0:0:
9,241,8942,5,2,0:0:0:0:
60,327,9258,1,2,0:0:0:0:
157,353,9574,1,2,0:0:0:0:
253,322,9890,1,2,0:0:0:0:
307,242,10205,6,0,P|252:226|188:251,1,111.999996582031,2|0,0:0|0:0,0:0:0:0:
352,329,10679,2,0,P|393:286|403:229,1,111.999996582031,2|0,0:0|0:0,0:0:0:0:
318,137,11153,2,0,P|366:126|391:101,1,83.9999974365235,2|0,0:0|0:0,0:0:0:0:
400,93,11469,6,0,P|410:152|424:220,1,111.999996582031,2|0,0:0|0:0,0:0:0:0:
322,318,11942,2,0,P|314:262|300:198,1,111.999996582031,2|0,0:0|0:0,0:0:0:0:
184,163,12416,1,2,0:0:0:0:
184,163,12495,1,0,0:0:0:0:
184,163,12574,1,0,0:0:0:0:
184,163,12653,1,0,0:0:0:0:
184,163,12732,6,0,P|149:178|107:189,1,71.9999978027344,6|0,3:1|0:0,0:0:0:0:
31,117,13048,2,0,L|27:32,1,71.9999978027344,0|0,3:0|0:0,0:0:0:0:
184,163,13363,2,0,L|189:242,1,71.9999978027344,0|0,3:0|0:0,0:0:0:0:
55,250,13679,1,0,3:0:0:0:
126,107,13995,6,0,P|196:127|270:144,1,143.999995605469,6|0,3:2|3:0,0:0:0:0:
363,127,14469,1,10,0:3:0:0:
309,35,14627,2,0,P|272:36|230:50,1,71.9999978027344,0|10,3:0|1:3,0:0:0:0:
232,227,14942,2,0,P|267:237|318:235,1,71.9999978027344,2|8,3:2|1:3,0:0:0:0:
126,107,15258,6,0,P|87:100|39:102,1,71.9999978027344,6|0,3:2|0:0,0:0:0:0:
77,230,15574,1,2,3:2:0:0:
232,227,15732,2,0,L|228:139,1,71.9999978027344,6|0,1:2|0:0,0:0:0:0:
126,107,16048,1,6,1:2:0:0:
150,193,16205,1,0,3:0:0:0:
255,51,16363,1,2,1:2:0:0:
203,129,16521,5,0,0:0:0:0:
77,34,16679,2,0,L|41:6,2,35.9999989013672,2|2|2,1:2|1:2|3:2,0:0:0:0:
29,200,16995,1,10,1:3:0:0:
132,224,17153,2,0,P|169:215|211:197,1,71.9999978027344,2|12,3:2|1:3,0:0:0:0:
289,113,17469,2,0,P|281:151|280:191,1,71.9999978027344,2|2,3:2|1:2,0:0:0:0:
306,331,17784,6,0,P|320:287|347:247,1,71.9999978027344,6|0,3:2|0:0,0:0:0:0:
409,166,18100,1,2,3:2:0:0:
494,267,18258,2,0,P|459:262|408:249,1,71.9999978027344,10|0,0:3|0:0,0:0:0:0:
279,184,18574,1,2,0:0:0:0:
221,283,18732,2,0,P|257:277|297:265,1,71.9999978027344,2|2,3:2|0:0,0:0:0:0:
291,267,18969,1,0,0:0:0:0:
291,267,19048,5,2,3:2:0:0:
193,173,19205,1,2,0:0:0:0:
137,296,19363,1,2,3:2:0:0:
226,330,19521,2,0,L|210:248,1,71.9999978027344,10|0,0:3|0:0,0:0:0:0:
89,199,19837,1,10,0:3:0:0:
43,319,19995,2,0,P|82:313|122:301,1,71.9999978027344,2|0,3:2|1:0,0:0:0:0:
289,189,20311,5,2,3:2:0:0:
212,259,20469,1,2,0:0:0:0:
314,292,20627,2,0,P|349:299|384:304,1,71.9999978027344,2|2,0:0|0:0,0:0:0:0:
289,189,20942,1,6,3:2:0:0:
212,259,21100,1,2,0:0:0:0:
183,161,21258,2,0,P|147:149|109:143,1,71.9999978027344,2|2,0:0|0:0,0:0:0:0:
16,258,21574,6,0,P|112:305|221:244,1,223.999993164063,2|0,3:2|0:0,0:0:0:0:
211,258,22837,6,0,P|255:238|310:231,1,95.9999970703126,8|2,0:2|0:0,0:0:0:0:
190,136,23311,1,0,0:0:0:0:
101,208,23469,2,0,P|56:205|-3:189,1,95.9999970703126,2|0,0:0|0:0,0:0:0:0:
91,97,23942,1,2,0:0:0:0:
190,136,24100,6,0,P|215:145|256:154,1,47.9999985351563,2|0,0:0|0:0,0:0:0:0:
104,51,24416,2,0,P|96:74|87:113,1,47.9999985351563,2|0,0:0|0:0,0:0:0:0:
101,208,24732,2,0,P|46:212|-8:206,2,95.9999970703126,2|2|8,0:0|0:0|0:0,0:0:0:0:
101,208,25679,6,0,P|127:215|152:220,1,47.9999985351563,2|2,0:0|0:0,0:0:0:0:
261,172,25995,2,0,P|224:147|176:133,1,95.9999970703126,2|0,0:0|0:0,0:0:0:0:
269,60,26469,1,2,0:0:0:0:
175,132,26627,2,0,P|151:137|127:143,1,47.9999985351563,2|0,0:0|0:0,0:0:0:0:
54,32,26942,2,0,P|81:38|112:48,1,47.9999985351563,2|0,0:0|0:0,0:0:0:0:
262,151,27258,2,0,P|307:141|368:140,1,95.9999970703126,2|2,0:0|0:0,0:0:0:0:
356,139,27890,5,8,0:0:0:0:
403,246,28048,1,0,0:0:0:0:
286,238,28205,2,0,P|239:231|187:209,1,95.9999970703126,2|2,0:0|0:0,0:0:0:0:
72,291,28679,2,0,P|97:285|134:280,1,47.9999985351563,0|2,0:0|0:0,0:0:0:0:
194,213,28995,2,0,P|204:262|212:318,1,95.9999970703126,2|0,0:0|0:0,0:0:0:0:
292,348,29469,6,0,P|315:352|344:355,1,47.9999985351563,2|0,0:0|0:0,0:0:0:0:
428,308,29784,2,0,P|433:283|436:260,1,47.9999985351563,2|0,0:0|0:0,0:0:0:0:
377,183,30100,1,2,0:0:0:0:
377,183,30416,6,0,P|329:187|273:195,1,95.9999970703126,10|2,0:0|0:0,0:0:0:0:
176,237,30890,2,0,P|187:192|191:141,1,95.9999970703126,2|0,0:0|0:0,0:0:0:0:
61,65,31363,2,0,P|61:113|73:165,1,95.9999970703126,2|2,0:0|0:0,0:0:0:0:
190,142,31837,1,0,0:0:0:0:
232,43,31995,1,2,0:0:0:0:
232,43,32153,1,2,0:0:0:0:
147,11,32311,2,0,P|149:39|150:68,1,47.9999985351563,2|2,0:0|0:0,0:0:0:0:
317,89,32627,2,0,P|314:65|311:27,1,47.9999985351563,2|2,0:0|0:0,0:0:0:0:
234,77,32942,6,0,L|242:186,1,95.9999970703126,10|2,0:0|0:0,0:0:0:0:
160,213,33416,1,0,0:0:0:0:
325,202,33574,1,2,1:2:0:0:
241,172,33732,1,2,0:0:0:0:
241,172,34048,5,2,0:0:0:0:
325,202,34205,2,0,P|361:167|363:112,1,95.9999970703126,2|2,0:0|0:0,0:0:0:0:
234,77,34679,1,0,0:0:0:0:
366,123,34837,2,0,P|392:120|431:113,1,47.9999985351563,2|0,1:2|0:0,0:0:0:0:
342,32,35153,2,0,P|316:28|283:25,1,47.9999985351563,2|0,0:0|0:0,0:0:0:0:
213,77,35469,6,0,P|208:125|211:175,1,95.9999970703126,8|2,0:0|0:0,0:0:0:0:
260,246,35942,2,0,P|282:240|316:235,1,47.9999985351563,0|0,0:0|1:2,0:0:0:0:
412,132,36258,2,0,P|367:144|315:153,1,95.9999970703126,2|2,0:0|0:0,0:0:0:0:
260,246,36732,6,0,P|283:259|320:271,1,47.9999985351563,10|0,0:0|0:0,0:0:0:0:
318,152,37048,2,0,P|314:130|311:102,1,47.9999985351563,2|0,0:0|0:0,0:0:0:0:
424,36,37363,2,0,P|419:85|408:150,1,95.9999970703126,2|2,1:2|0:0,0:0:0:0:
411,131,37995,5,8,0:0:0:0:
311,104,38153,1,0,0:0:0:0:
252,198,38311,2,0,L|261:259,1,47.9999985351563,2|0,0:0|0:0,0:0:0:0:
326,347,38627,2,0,P|280:338|228:320,1,95.9999970703126,2|2,1:2|0:0,0:0:0:0:
80,266,39100,2,0,P|128:259|183:257,1,95.9999970703126,2|0,0:0|0:0,0:0:0:0:
252,198,39574,2,0,P|228:194|196:186,1,47.9999985351563,2|0,0:0|0:0,0:0:0:0:
69,154,39890,2,0,P|94:153|116:148,1,47.9999985351563,2|0,1:2|0:0,0:0:0:0:
197,91,40205,1,2,0:0:0:0:
197,91,40521,6,0,P|245:103|304:108,1,95.9999970703126,10|0,0:0|0:0,0:0:0:0:
260,22,40995,1,0,0:0:0:0:
253,185,41153,2,0,P|301:187|350:174,1,95.9999970703126,2|2,1:2|0:0,0:0:0:0:
441,128,41627,1,2,1:2:0:0:
431,251,41784,6,0,P|436:221|439:184,1,47.9999985351563,0|2,0:0|0:0,0:0:0:0:
352,127,42100,2,0,L|344:192,1,47.9999985351563,0|2,0:0|0:0,0:0:0:0:
423,298,42416,2,0,L|434:229,1,47.9999985351563,2|2,0:0|0:0,0:0:0:0:
331,267,42732,2,0,L|323:332,1,47.9999985351563,2|2,0:0|0:0,0:0:0:0:
234,231,43048,6,0,B|178:260|101:252,1,128,6|0,3:2|3:2,0:0:0:0:
63,86,43521,1,2,0:0:0:0:
189,133,43679,2,0,P|253:134|335:106,1,128,0|2,3:2|3:2,0:0:0:0:
239,30,44153,1,6,0:3:0:0:
315,180,44311,2,0,L|313:106,1,64,4|4,3:0|0:3,0:0:0:0:
137,80,44627,1,4,3:0:0:0:
137,80,44942,6,0,L|138:162,1,64,0|8,3:0|1:3,0:0:0:0:
226,226,45258,2,0,L|225:151,1,64,2|0,3:2|0:0,0:0:0:0:
137,80,45574,2,0,P|68:89|1:95,1,128,2|0,3:2|3:0,0:0:0:0:
226,226,46048,1,2,0:0:0:0:
305,152,46205,2,0,P|336:153|374:158,1,64,0|0,3:2|0:0,0:0:0:0:
268,61,46521,1,2,3:2:0:0:
191,129,46679,2,0,P|144:168|123:242,1,128,10|8,0:3|1:3,0:0:0:0:
70,303,47153,6,0,L|-9:295,1,64,2|2,3:2|1:2,0:0:0:0:
123,230,47469,2,0,L|189:238,1,64,2|2,1:2|1:2,0:0:0:0:
278,335,47784,2,0,L|212:327,1,64,10|6,0:3|0:3,0:0:0:0:
176,160,48100,6,0,B|265:172|265:172|322:154,1,143.999995605469,6|2,3:2|0:0,0:0:0:0:
427,118,48574,1,0,3:0:0:0:
354,28,48732,2,0,P|312:85|322:167,1,143.999995605469,2|2,1:2|3:2,0:0:0:0:
403,240,49205,1,0,0:0:0:0:
162,222,49363,6,0,P|197:210|233:202,1,71.9999978027344,2|0,0:0|1:0,0:0:0:0:
358,308,49679,2,0,P|321:302|282:291,1,71.9999978027344,2|0,0:0|3:0,0:0:0:0:
348,212,49995,1,2,1:2:0:0:
348,212,50153,1,0,1:0:0:0:
427,118,50311,2,0,L|410:46,1,71.9999978027344,10|10,0:3|0:3,0:0:0:0:
279,12,50627,6,0,P|269:83|245:164,1,143.999995605469,12|2,3:2|0:0,0:0:0:0:
348,212,51100,1,0,3:0:0:0:
184,108,51258,2,0,P|151:99|106:93,1,71.9999978027344,2|0,1:2|0:0,0:0:0:0:
11,198,51574,2,0,P|49:196|101:181,1,71.9999978027344,2|0,3:2|0:0,0:0:0:0:
169,24,51890,5,8,0:0:0:0:
169,24,52048,1,0,0:0:0:0:
184,108,52205,2,0,P|190:147|199:185,1,71.9999978027344,2|0,1:2|3:0,0:0:0:0:
303,311,52521,2,0,P|318:275|327:238,1,71.9999978027344,2|0,1:2|1:2,0:0:0:0:
313,100,52837,1,10,0:3:0:0:
313,100,53153,6,0,L|301:17,1,80,12|0,3:2|0:0,0:0:0:0:
200,83,53469,2,0,L|211:166,1,80,2|0,0:0|0:0,0:0:0:0:
395,234,53784,2,0,P|356:221|299:208,1,80,2|0,3:2|0:0,0:0:0:0:
122,65,54100,2,0,P|165:78|205:83,1,80,2|0,3:2|0:0,0:0:0:0:
333,38,54416,5,2,3:2:0:0:
376,145,54574,1,0,0:0:0:0:
298,113,54732,1,2,3:2:0:0:
406,69,54890,1,0,0:0:0:0:
452,185,55048,2,0,P|456:223|459:267,1,80,2|0,3:2|0:0,0:0:0:0:
349,356,55363,2,0,P|289:352|221:337,1,120,2|0,3:2|0:0,0:0:0:0:
224,320,55679,6,0,P|185:322|138:332,1,80,14|0,0:0|0:0,0:0:0:0:
41,358,55995,2,0,P|35:319|19:256,1,80,0|0,1:2|1:2,0:0:0:0:
112,157,56311,1,0,1:2:0:0:
25,279,56469,1,0,1:2:0:0:
9,176,56627,1,10,1:2:0:0:
130,262,56784,6,0,P|209:193|18:102,1,400,10|8,1:2|0:0,0:0:0:0:
313,39,58205,6,0,L|323:137,1,88.000002685547,6|0,3:2|0:0,0:0:0:0:
341,298,58521,1,2,1:2:0:0:
244,212,58679,1,2,0:0:0:0:
159,234,58837,2,0,P|206:225|244:213,1,88.000002685547,0|0,0:0|3:2,0:0:0:0:
381,181,59153,2,0,P|369:225|350:270,1,88.000002685547,2|2,1:2|0:0,0:0:0:0:
233,106,59469,5,0,3:0:0:0:
335,50,59627,1,2,0:0:0:0:
408,200,59784,2,0,P|450:195|495:172,1,88.000002685547,2|0,1:2|3:2,0:0:0:0:
447,23,60100,2,0,L|419:128,1,88.000002685547,2|0,3:2|3:2,0:0:0:0:
212,191,60416,2,0,L|238:80,1,88.000002685547,2|2,1:2|0:0,0:0:0:0:
315,40,60732,1,2,3:2:0:0:
398,156,60890,5,0,0:0:0:0:
479,69,61048,2,0,P|442:46|392:39,1,88.000002685547,2|2,1:2|0:0,0:0:0:0:
311,173,61363,2,0,P|353:164|403:155,1,88.000002685547,0|0,0:0|3:2,0:0:0:0:
296,285,61679,1,2,1:2:0:0:
296,285,61837,1,2,0:0:0:0:
118,118,61995,6,0,P|161:118|213:132,1,88.000002685547,0|0,3:2|0:0,0:0:0:0:
206,301,62311,2,0,P|186:252|184:207,1,88.000002685547,2|0,1:2|3:2,0:0:0:0:
326,126,62627,2,0,P|302:170|253:198,1,88.000002685547,2|0,3:2|3:2,0:0:0:0:
55,237,62942,2,0,P|109:218|201:221,1,132.00000402832,2|0,1:2|1:0,0:0:0:0:
197,234,63258,6,0,P|234:267|278:278,1,88.000002685547,2|0,3:2|0:0,0:0:0:0:
407,187,63574,1,0,1:0:0:0:
416,199,63890,2,0,L|408:295,1,88.000002685547,2|0,0:0|3:2,0:0:0:0:
271,191,64205,2,0,L|280:98,1,88.000002685547,2|2,1:2|0:0,0:0:0:0:
446,43,64521,6,0,P|369:82|276:68,1,176.000005371094,0|2,3:0|1:2,0:0:0:0:
167,25,64995,1,0,3:2:0:0:
120,147,65153,2,0,P|163:128|199:105,1,88.000002685547,2|0,3:2|3:2,0:0:0:0:
330,241,65469,2,0,P|264:231|203:203,1,132.00000402832,2|0,1:2|0:0,0:0:0:0:
183,202,65784,6,0,P|155:239|125:288,1,88.000002685547,6|0,3:2|3:0,0:0:0:0:
178,359,66100,2,0,P|223:361|268:358,1,88.000002685547,2|0,1:2|3:0,0:0:0:0:
490,232,66416,2,0,P|447:226|393:224,1,88.000002685547,6|0,3:2|3:0,0:0:0:0:
366,380,66732,2,0,L|373:288,1,88.000002685547,2|0,1:2|3:0,0:0:0:0:
388,151,67048,5,6,3:2:0:0:
279,249,67205,1,0,3:0:0:0:
155,161,67363,2,0,L|263:154,1,88.000002685547,0|0,1:0|3:2,0:0:0:0:
372,292,67679,1,10,0:3:0:0:
315,95,67837,1,0,1:0:0:0:
203,240,67995,1,0,1:0:0:0:
203,240,68311,6,0,L|192:49,1,176.000005371094,6|0,3:2|1:2,0:0:0:0:
44,48,68784,1,2,0:0:0:0:
29,215,68942,2,0,P|115:236|217:239,1,176.000005371094,2|0,0:0|1:2,0:0:0:0:
278,139,69416,1,2,0:0:0:0:
129,8,69574,6,0,L|111:101,1,88.000002685547,6|0,3:2|0:0,0:0:0:0:
261,302,69890,2,0,P|279:252|280:212,1,88.000002685547,0|2,1:2|3:2,0:0:0:0:
29,215,70205,2,0,P|115:194|216:162,1,176.000005371094,2|2,0:0|1:2,0:0:0:0:
302,62,70679,1,2,1:2:0:0:
374,232,70837,6,0,P|343:207|304:172,1,88.000002685547,2|0,3:2|3:2,0:0:0:0:
220,13,71153,2,0,P|212:61|193:117,1,88.000002685547,2|0,1:2|3:0,0:0:0:0:
126,236,71469,1,2,0:0:0:0:
126,236,71627,1,0,3:2:0:0:
13,152,71784,2,0,P|57:140|122:129,1,88.000002685547,2|0,1:2|3:0,0:0:0:0:
287,307,72100,6,0,P|247:293|205:273,1,88.000002685547,2|0,1:2|3:0,0:0:0:0:
278,105,72416,2,0,P|283:150|284:210,1,88.000002685547,2|0,1:2|3:0,0:0:0:0:
206,274,72732,2,0,L|141:274,3,44.0000013427735,2|0|0|0,1:2|0:0|1:0|0:0,0:0:0:0:
85,334,73048,2,0,P|74:316|67:294,3,44.0000013427735,2|0|0|0,1:2|1:2|1:2|1:2,0:0:0:0:
32,198,73363,6,0,P|78:194|131:188,1,88.000002685547,6|0,3:2|3:0,0:0:0:0:
271,166,73679,1,6,1:2:0:0:
142,103,73837,1,0,3:2:0:0:
214,37,73995,2,0,P|258:32|308:30,1,88.000002685547,6|0,1:2|3:2,0:0:0:0:
457,158,74311,2,0,P|416:163|367:165,1,88.000002685547,6|0,1:2|3:2,0:0:0:0:
395,3,74627,6,0,P|403:49|404:120,1,88.000002685547,6|0,1:2|3:2,0:0:0:0:
270,263,74942,2,0,P|265:218|265:154,1,88.000002685547,6|0,1:2|3:2,0:0:0:0:
76,251,75258,2,0,P|121:242|165:228,1,88.000002685547,6|0,1:2|3:2,0:0:0:0:
47,52,75574,1,2,1:2:0:0:
47,52,75653,1,0,1:0:0:0:
47,52,75732,1,0,1:0:0:0:
47,52,75811,1,0,1:0:0:0:
47,52,75890,6,0,L|17:143,1,88.000002685547,6|6,3:2|3:2,0:0:0:0:
159,91,76205,1,2,1:0:0:0:
228,202,76363,2,0,P|181:197|133:177,1,88.000002685547,6|2,3:2|1:0,0:0:0:0:
283,337,76679,2,0,P|326:334|371:327,1,88.000002685547,6|2,3:2|1:0,0:0:0:0:
483,244,76995,2,0,P|409:206|307:225,1,176.000005371094,6|0,1:2|0:0,0:0:0:0:
211,283,77469,6,0,P|198:326|199:370,1,88.000002685547,4|0,3:2|0:0,0:0:0:0:
107,181,77784,2,0,P|110:137|101:91,1,88.000002685547,0|0,1:2|1:2,0:0:0:0:
311,88,78100,2,0,L|301:152,3,44.0000013427735,2|0|0|0,1:2|1:0|1:0|1:0,0:0:0:0:
294,177,78416,6,0,L|426:169,1,128,6|2,0:0|0:0,0:0:0:0:
311,88,78890,2,0,L|181:95,1,128,2|0,0:0|0:0,0:0:0:0:
107,181,79363,2,0,L|182:177,1,64,2|2,0:0|0:0,0:0:0:0:
297,255,79679,2,0,L|217:258,1,64,2|0,0:0|0:0,0:0:0:0:
45,175,79995,2,0,B|97:171|97:171|121:181|121:181|192:176,1,128,2|2,0:0|0:0,0:0:0:0:
170,177,80627,6,0,P|168:214|162:262,1,64,2|2,0:0|0:0,0:0:0:0:
111,369,80942,2,0,P|86:314|85:233,1,128,2|2,0:0|0:0,0:0:0:0:
285,211,81416,2,0,P|232:238|150:236,1,128,2|0,0:0|0:0,0:0:0:0:
197,91,81890,2,0,P|208:131|208:166,1,64,2|2,0:0|0:0,0:0:0:0:
164,239,82205,5,2,0:0:0:0:
88,287,82521,1,2,0:0:0:0:
22,225,82837,1,2,0:0:0:0:
59,143,83153,1,2,0:0:0:0:
148,144,83469,6,0,P|211:149|284:143,1,128,2|0,0:0|0:0,0:0:0:0:
323,25,83942,1,0,0:0:0:0:
315,37,84258,6,0,P|307:76|309:118,1,64,0|2,0:0|0:0,0:0:0:0:
390,199,84574,1,2,0:0:0:0:
459,140,84732,2,0,P|431:118|392:110,1,64,2|0,0:0|0:0,0:0:0:0:
246,200,85048,2,0,P|280:203|314:200,1,64,2|0,0:0|0:0,0:0:0:0:
459,140,85363,1,2,0:0:0:0:
459,140,85679,1,2,0:0:0:0:
459,140,85995,6,0,B|436:211|436:211|450:248|450:248|430:330,1,192,2|0,0:0|0:0,0:0:0:0:
345,264,86627,1,2,0:0:0:0:
345,264,86942,6,0,P|313:259|277:255,1,64,2|2,0:0|0:0,0:0:0:0:
109,352,87258,2,0,P|165:351|226:324,1,111.999996582031,2|0,0:0|0:0,0:0:0:0:
134,195,87890,1,2,0:0:0:0:
399,258,88521,6,0,P|342:179|281:255,1,223.999993164063,2|0,0:0|0:0,0:0:0:0:
320,354,89784,2,0,P|296:328|282:248,1,111.999996582031,2|0,0:0|0:0,0:0:0:0:
284,115,90416,5,2,0:0:0:0:
284,115,90732,1,2,0:0:0:0:
241,183,91048,6,0,P|359:135|234:52,1,335.999989746094,2|2,0:0|0:0,0:0:0:0:
241,183,92311,2,0,P|122:230|248:314,1,335.999989746094,2|2,0:0|0:0,0:0:0:0:
333,252,93574,5,2,0:0:0:0:
256,192,93653,12,2,96100,0:0:0:0:
