osu file format v14

[General]
AudioFilename: audio.mp3
AudioLeadIn: 0
PreviewTime: 57811
Countdown: 0
SampleSet: Soft
StackLeniency: 0.7
Mode: 0
LetterboxInBreaks: 0
WidescreenStoryboard: 1
SamplesMatchPlaybackRate: 1

[Editor]
DistanceSpacing: 1
BeatDivisor: 2
GridSize: 32
TimelineZoom: 1.6

[Metadata]
Title:Re:TrymenT
TitleUnicode:Re:TrymenT
Artist:Hotaru Murasaki
ArtistUnicode:紫咲ほたる
Creator:eLy
Version:Easy
Source:Re:LieF〜親愛なるあなたへ〜
Tags:rask レリーフ relief Shin'ainaru Anata e DeaR YoU retryment opening op short eroge game visual novel 甘利紗陽 amari saya piano homura- wring lecana litoluna cookiezi asahina momoko mokori kawaiwkyik rizia vellya alyce 5hiki
BeatmapID:1165772
BeatmapSetID:519521

[Difficulty]
HPDrainRate:2
CircleSize:3
OverallDifficulty:2
ApproachRate:3
SliderMultiplier:0.899999999999999
SliderTickRate:2

[Events]
//Background and Video events
0,0,"BG.jpg",0,0
//Break Periods
//Storyboard Layer 0 (Background)
//Storyboard Layer 1 (Fail)
//Storyboard Layer 2 (Pass)
//Storyboard Layer 3 (Foreground)
//Storyboard Sound Samples

[TimingPoints]
2627,315.789473684211,4,2,2,50,1,0
12732,-100,4,2,1,90,0,0
22837,-100,4,2,2,50,0,0
32627,-100,4,2,1,50,0,0
33574,-100,4,2,2,50,0,0
43048,-100,4,2,1,80,0,0
58205,-100,4,2,1,100,0,1
78416,-100,4,2,1,50,0,0
79679,-100,4,2,2,50,0,0
94205,-100,4,2,81,50,0,0
95469,-100,4,2,81,40,0,0
96100,-100,4,2,78,30,0,0

[Colours]
Combo1 : 214,164,107
Combo2 : 186,186,199
Combo3 : 175,254,58
Combo4 : 112,96,255

[HitObjects]
294,271,2627,6,0,P|233:243|167:253,2,135,2|2|0,0:0|0:0|0:0,0:0:0:0:
380,243,3890,2,0,L|363:96,2,135,2|2|0,0:0|0:0|0:0,0:0:0:0:
386,334,5153,6,0,P|304:341|236:287,2,135,2|0|0,0:0|0:0|0:0,0:0:0:0:
459,281,6416,2,0,P|475:214|458:139,2,135,2|2|0,0:0|0:0|0:0,0:0:0:0:
386,334,7679,6,0,B|238:370|272:261|129:290,1,270,2|0,0:0|0:0,0:0:0:0:
59,347,8942,2,0,P|42:305|47:261,1,89.9999999999999,2|0,0:0|0:0,0:0:0:0:
118,204,9574,2,0,P|123:159|106:118,1,89.9999999999999,2|2,0:0|0:0,0:0:0:0:
42,52,10205,6,0,B|169:122|169:8|300:85,1,270,2|0,0:0|0:0,0:0:0:0:
355,156,11469,2,0,P|460:109|365:39,1,270,2|0,0:0|0:0,0:0:0:0:
300,85,12732,6,0,P|260:162|306:239,1,180,6|2,0:0|0:0,0:0:0:0:
392,237,13679,1,8,0:0:0:0:
471,194,13995,2,0,B|435:156|435:156|401:150|354:158,2,135,2|8|2,0:0|0:3|0:0,0:0:0:0:
478,285,15258,6,0,B|443:340|364:348|364:348|327:325|278:340|278:340|242:316|190:328,2,315,6|2|6,0:0|0:0|0:3,0:0:0:0:
471,195,17784,6,0,B|427:169|377:168|342:184|342:184|351:140|312:102|312:102|368:78|446:91,1,360,6|2,0:0|0:0,0:0:0:0:
396,264,19679,2,0,P|350:276|305:273,1,89.9999999999999,2|2,0:0|0:0,0:0:0:0:
237,217,20311,6,0,B|106:189|106:189|63:214,2,180,6|6|2,0:0|0:0|0:0,0:0:0:0:
458,364,22837,6,0,P|480:278|470:175,1,180,2|0,0:0|0:0,0:0:0:0:
358,48,24100,2,0,B|251:26|286:86|182:65,1,180,2|2,0:0|0:0,0:0:0:0:
108,15,25048,1,2,0:0:0:0:
37,70,25363,6,0,B|23:160|23:160|40:250,1,180,2|0,0:0|0:0,0:0:0:0:
164,377,26627,2,0,B|228:375|228:375|264:346|264:346|333:342,1,180,2|2,0:0|0:0,0:0:0:0:
419,368,27574,1,2,0:0:0:0:
502,333,27890,6,0,P|515:290|511:245,1,89.9999999999999,2|0,0:0|0:0,0:0:0:0:
441,190,28521,2,0,L|345:184,1,89.9999999999999,2|0,0:0|0:0,0:0:0:0:
270,232,29153,2,0,B|302:273|302:273|429:281,2,180,2|2|2,0:0|0:0|0:0,0:0:0:0:
263,51,31048,6,0,P|252:96|237:140,1,89.9999999999999,2|0,0:0|0:0,0:0:0:0:
180,206,31679,2,0,B|73:171|105:245|4:216,2,180,2|2|6,0:0|0:0|0:0,0:0:0:0:
303,337,33574,6,0,P|343:317|387:315,1,89.9999999999999,2|0,0:0|0:0,0:0:0:0:
470,348,34205,2,0,P|490:260|483:170,1,180,2|2,0:0|0:0,0:0:0:0:
454,85,35153,1,2,0:0:0:0:
375,128,35469,6,0,B|276:156|308:82|202:116,1,180,2|0,0:0|0:0,0:0:0:0:
39,39,36732,2,0,P|49:91|49:133,1,89.9999999999999,2|0,0:0|0:0,0:0:0:0:
103,199,37363,2,0,P|101:243|92:287,1,89.9999999999999,2|0,0:0|0:0,0:0:0:0:
35,357,37995,6,0,B|174:296|160:409|295:355,1,270,2|0,0:0|0:0,0:0:0:0:
364,298,39258,1,2,0:0:0:0:
308,126,39890,2,0,L|214:118,1,89.9999999999999,2|0,0:0|0:0,0:0:0:0:
168,193,40521,6,0,B|246:199|246:199|256:205|256:205|268:201|268:201|345:207,1,180,2|2,0:0|0:0,0:0:0:0:
401,36,41784,2,0,P|407:82|410:131,1,89.9999999999999,0|2,0:0|0:0,0:0:0:0:
472,190,42416,2,0,P|443:226|411:263,1,89.9999999999999,0|2,0:0|0:0,0:0:0:0:
413,349,43048,6,0,P|367:355|272:356,1,135,6|2,0:0|0:0,0:0:0:0:
144,376,43995,2,0,B|128:272|128:272|157:247|174:211|172:160|131:126,1,270,2|2,0:0|0:0,0:0:0:0:
44,108,45258,1,2,0:0:0:0:
73,194,45574,6,0,P|210:173|160:43,2,315,6|10|2,0:0|0:3|0:0,0:0:0:0:
132,127,48100,6,0,B|172:160|174:211|157:247|128:272|128:272|144:376,2,270,6|2|8,0:0|0:0|0:0,0:0:0:0:
44,108,50311,1,8,0:3:0:0:
73,194,50627,6,0,B|183:206|183:206|228:178|228:178|334:187,1,270,6|2,0:0|0:0,0:0:0:0:
413,144,51890,2,0,P|423:187|411:229,1,89.9999999999999,0|8,0:0|0:0,0:0:0:0:
354,300,52521,2,0,L|256:334,1,89.9999999999999,8|8,0:0|0:3,0:0:0:0:
178,326,53153,6,0,P|158:274|233:185,1,180,6|2,0:0|0:0,0:0:0:0:
316,206,54100,2,0,P|321:140|327:27,2,180,2|2|2,0:0|0:0|0:0,0:0:0:0:
256,192,55679,12,4,56784,0:0:0:0:
207,179,58205,6,0,P|195:222|192:268,2,89.9999999999999,6|8|2,0:0|0:0|0:0,0:0:0:0:
286,221,59153,1,8,0:0:0:0:
362,174,59469,2,0,P|415:169|462:277,1,180,2|2,0:0|0:0,0:0:0:0:
419,345,60416,1,8,0:0:0:0:
332,319,60732,6,0,P|287:319|231:324,1,89.9999999999999,6|8,0:0|0:0,0:0:0:0:
162,363,61363,2,0,P|117:363|61:358,1,89.9999999999999,2|8,0:0|0:0,0:0:0:0:
20,285,61995,2,0,P|6:196|10:106,1,180,2|2,0:0|0:0,0:0:0:0:
58,29,62942,1,8,0:0:0:0:
138,69,63258,6,0,B|229:80|223:30|313:47,1,180,6|2,0:0|0:0,0:0:0:0:
391,92,64205,1,8,0:0:0:0:
472,53,64521,2,0,P|479:98|467:143,1,89.9999999999999,2|8,0:0|0:0,0:0:0:0:
387,182,65153,2,0,L|290:177,1,89.9999999999999,2|8,0:0|0:0,0:0:0:0:
260,95,65784,6,0,P|214:162|248:253,1,180,6|6,0:0|0:0,0:0:0:0:
333,261,66732,1,8,0:0:0:0:
387,191,67048,2,0,B|433:94|433:94|392:20,1,180,6|4,0:0|0:3,0:0:0:0:
308,19,67995,1,8,0:0:0:0:
260,95,68311,6,0,P|201:65|79:99,1,180,6|2,0:0|0:0,0:0:0:0:
59,170,69258,1,8,0:0:0:0:
82,256,69574,2,0,P|141:286|263:252,1,180,6|2,0:0|0:0,0:0:0:0:
291,184,70521,1,8,0:0:0:0:
235,110,70837,6,0,P|207:143|201:188,1,89.9999999999999,6|8,0:0|0:0,0:0:0:0:
248,263,71469,2,0,P|296:275|341:260,1,89.9999999999999,2|8,0:0|0:0,0:0:0:0:
383,188,72100,2,0,P|391:269|399:368,2,180,6|8|6,0:0|0:0|0:0,0:0:0:0:
334,112,73679,5,8,0:0:0:0:
256,157,73995,2,0,P|208:158|157:156,1,89.9999999999999,10|8,0:0|0:0,0:0:0:0:
97,98,74627,1,10,0:0:0:0:
35,163,74942,1,10,0:0:0:0:
98,226,75258,2,0,P|101:280|100:317,1,89.9999999999999,10|10,0:0|0:0,0:0:0:0:
30,373,75890,6,0,P|100:357|176:349,1,135,6|2,0:0|0:0,0:0:0:0:
252,360,76679,1,2,0:0:0:0:
343,364,76995,2,0,P|389:326|252:215,1,315,12|2,0:0|0:0,0:0:0:0:
312,281,78416,5,6,0:0:0:0:
65,18,79679,2,0,P|72:111|77:199,1,180,2|2,0:0|0:0,0:0:0:0:
64,287,80627,1,2,0:0:0:0:
149,259,80942,5,2,0:0:0:0:
488,377,82205,2,0,P|480:283|476:196,1,180,2|2,0:0|0:0,0:0:0:0:
489,108,83153,1,2,0:0:0:0:
404,136,83469,6,0,B|293:133|293:133|253:229,1,180,2|0,0:0|0:0,0:0:0:0:
92,242,84732,2,0,B|59:180|74:112|74:112|107:80,1,180,2|0,0:0|0:0,0:0:0:0:
268,143,85995,6,0,P|180:130|107:80,1,180,2|2,0:0|0:0,0:0:0:0:
284,52,87258,2,0,P|290:145|296:244,1,180,2|2,0:0|0:0,0:0:0:0:
284,321,88205,1,0,0:0:0:0:
196,298,88521,6,0,B|101:288|121:353|26:337,2,180,2|0|2,0:0|0:0|0:0,0:0:0:0:
284,321,90100,1,0,0:0:0:0:
366,356,90416,2,0,P|372:321|358:269,1,89.9999999999999,2|0,0:0|0:0,0:0:0:0:
275,231,91048,6,0,P|324:240|241:156,2,360,2|2|4,0:0|0:0|0:0,0:0:0:0:
256,192,93732,12,2,96100,0:0:0:0:
