osu file format v14

[General]
AudioFilename: audio.mp3
AudioLeadIn: 0
PreviewTime: 57044
Countdown: 0
SampleSet: Soft
StackLeniency: 0.7
Mode: 0
LetterboxInBreaks: 0
WidescreenStoryboard: 0

[Editor]
DistanceSpacing: 1.5
BeatDivisor: 8
GridSize: 4
TimelineZoom: 2.2

[Metadata]
Title:Re:TrymenT
TitleUnicode:Re:TrymenT
Artist:Hotaru Murasaki
ArtistUnicode:紫咲ほたる
Creator:_Meep_
Version:Nowa's FloweR
Source:Re:LieF~親愛なるあなたへ~
Tags:visual novel short レリーフ dear you shin'ainaru anata e Eroge DTM9 Nowa 619 Opening Rask opening Re:LieF~DeaR YoU~ re tryment Sinnoh Ascendance Yaleufeu
BeatmapID:1101073
BeatmapSetID:518004

[Difficulty]
HPDrainRate:7
CircleSize:4.2
OverallDifficulty:8.7
ApproachRate:9.3
SliderMultiplier:2.1
SliderTickRate:1

[Events]
//Background and Video events
0,0,"Tryment.jpg",0,0
Video,-1310,"ReTrymenT.avi"
//Break Periods
//Storyboard Layer 0 (Background)
//Storyboard Layer 1 (Fail)
//Storyboard Layer 2 (Pass)
//Storyboard Layer 3 (Foreground)
//Storyboard Sound Samples

[TimingPoints]
1939,315.789473684211,4,2,1,40,1,0
1939,-125,4,2,1,40,0,0
8886,-142.857142857143,4,2,1,40,0,0
9517,-125,4,2,1,40,0,0
10465,-125,4,2,1,45,0,0
10781,-125,4,2,1,50,0,0
11254,-125,4,2,1,55,0,0
11728,-125,4,2,1,60,0,0
11965,-125,4,2,1,50,0,0
12044,-100,4,2,1,60,0,0
14807,-100,4,2,1,5,0,0
14886,-100,4,2,1,60,0,0
21360,-100,4,2,1,10,0,0
22149,-125,4,2,1,40,0,0
26175,-125,4,2,1,5,0,0
26254,-125,4,2,1,40,0,0
29649,-125,4,2,1,5,0,0
29728,-125,4,2,1,40,0,0
42044,-200,4,2,1,40,0,0
42360,-100,4,1,1,60,0,0
55149,-100,4,1,1,30,0,0
55307,-100,4,1,1,35,0,0
55465,-100,4,1,1,40,0,0
55623,-100,4,1,1,45,0,0
55781,-100,4,1,1,50,0,0
55939,-100,4,1,1,55,0,0
56096,-200,4,2,1,65,0,0
57202,-200,4,2,1,30,0,0
57281,-200,4,2,1,40,0,0
57360,-200,4,2,1,50,0,0
57439,-200,4,2,1,60,0,0
57517,-90.9090909090909,4,1,1,70,0,1
62254,-133.333333333333,4,1,1,70,0,1
62491,-133.333333333333,4,1,1,5,0,1
62570,-90.9090909090909,4,1,1,70,0,1
65412,-153.846153846154,4,1,1,70,0,1
65649,-153.846153846154,4,1,1,5,0,1
65728,-90.9090909090909,4,1,1,70,0,1
66044,-153.846153846154,4,1,1,70,0,1
66281,-153.846153846154,4,1,1,5,0,1
66360,-90.9090909090909,4,1,1,70,0,1
67623,-90.9090909090909,4,1,1,70,0,1
72675,-90.9090909090909,4,1,1,70,0,1
73939,-90.9090909090909,4,1,1,75,0,1
75202,-90.9090909090909,4,1,1,80,0,1
77728,-133.333333333333,4,2,1,40,0,0
82702,-133.333333333333,4,2,1,5,0,0
82781,-133.333333333333,4,2,1,40,0,0
87833,-200,4,2,1,20,0,0
87912,-200,4,2,1,10,0,0
89096,-200,4,2,1,40,0,0
89412,-200,4,2,1,20,0,0
89570,-200,4,2,1,30,0,0
89728,-200,4,2,1,40,0,0
91623,-200,4,2,1,30,0,0
92254,-200,4,2,1,20,0,0
92412,-200,4,2,1,27,0,0
92570,-200,4,2,1,34,0,0
92728,-200,4,2,1,10,0,0
92886,-200,4,2,1,20,0,0

[Colours]
Combo1 : 251,142,218
Combo2 : 219,225,225
Combo3 : 192,254,137
Combo4 : 255,187,119
Combo5 : 207,155,255
Combo6 : 255,255,149

[HitObjects]
40,118,1939,6,0,L|32:26,2,84,2|0|2,0:0|0:0|0:0,0:0:0:0:
116,212,2412,2,0,P|160:168|264:164,1,168,2|0,0:0|0:0,0:0:0:0:
366,225,2886,2,0,L|449:217,1,84,2|0,0:0|0:0,0:0:0:0:
490,69,3202,5,2,0:0:0:0:
490,69,3675,1,2,0:0:0:0:
455,319,4149,1,2,0:0:0:0:
316,150,4465,6,0,L|304:64,2,84,2|0|2,0:0|0:0|0:0,0:0:0:0:
302,259,4939,1,2,0:0:0:0:
113,149,5254,1,2,0:0:0:0:
127,258,5412,1,2,0:0:0:0:
157,41,5728,5,2,0:0:0:0:
157,41,6202,1,2,0:0:0:0:
266,48,6360,1,0,0:0:0:0:
56,108,6675,1,2,0:0:0:0:
273,131,6991,6,0,L|367:142,2,84,2|0|2,0:0|0:0|0:0,0:0:0:0:
170,169,7465,1,2,0:0:0:0:
170,169,7939,1,2,0:0:0:0:
119,14,8254,5,2,0:0:0:0:
43,219,8570,1,2,0:0:0:0:
219,98,8886,2,0,P|290:81|373:110,1,146.999995513916,2|2,0:0|0:0,0:0:0:0:
484,32,9517,6,0,P|445:86|486:179,1,168,2|2,0:0|0:0,0:0:0:0:
480,245,9991,2,0,B|425:238|425:238|361:252|361:252|294:245,1,168,2|0,0:0|0:0,0:0:0:0:
205,232,10465,1,2,0:0:0:0:
405,314,10781,5,2,0:0:0:0:
216,24,11254,1,2,0:0:0:0:
77,321,11728,2,0,L|50:188,1,126,2|0,0:0|0:0,0:0:0:0:
114,136,12044,6,0,L|134:238,1,105,4|0,0:1|0:0,0:0:0:0:
262,356,12360,2,0,L|241:253,1,105,8|0,0:0|0:0,0:0:0:0:
269,88,12675,1,0,0:0:0:0:
290,191,12833,1,0,0:0:0:0:
184,89,12991,2,0,P|199:39|239:7,1,105,8|0,0:0|0:0,0:0:0:0:
375,32,13307,6,0,L|482:21,2,105,2|0|8,0:0|0:0|0:0,0:0:0:0:
418,149,13781,2,0,P|429:199|418:251,1,105,2|0,3:2|0:0,0:0:0:0:
344,368,14096,1,0,3:2:0:0:
314,201,14254,1,8,3:2:0:0:
512,233,14412,1,0,0:0:0:0:
254,275,14570,6,0,P|220:182|268:116,1,157.5,6|0,0:0|0:0,0:0:0:0:
288,107,14886,1,10,0:0:0:0:
445,107,15044,1,2,0:0:0:0:
315,201,15202,1,0,0:0:0:0:
365,48,15360,1,2,0:0:0:0:
395,279,15517,1,8,0:0:0:0:
169,207,15675,2,0,P|162:151|182:95,1,105,2|8,0:0|0:0,0:0:0:0:
287,176,15991,5,2,0:0:0:0:
287,176,16070,1,0,0:0:0:0:
287,176,16149,1,10,3:2:0:0:
243,311,16307,1,2,3:2:0:0:
284,156,16465,5,8,3:2:0:0:
312,334,16623,1,2,3:2:0:0:
280,135,16781,5,10,3:2:0:0:
231,354,16939,1,2,3:2:0:0:
276,114,17096,6,0,L|264:9,1,105,14|0,0:0|0:0,0:0:0:0:
145,78,17412,1,10,0:0:0:0:
245,188,17570,2,0,P|297:190|341:162,1,105,2|0,3:2|0:0,0:0:0:0:
389,32,17886,1,0,3:2:0:0:
482,160,18044,1,8,3:2:0:0:
276,114,18202,1,2,0:0:0:0:
276,114,18281,1,2,0:0:0:0:
276,114,18360,6,0,P|225:112|181:140,1,105,2|0,3:2|0:0,0:0:0:0:
193,276,18675,1,8,0:0:0:0:
394,298,18833,2,0,B|326:275|326:275|256:296|256:296|193:276,1,210,2|0,3:2|3:2,0:0:0:0:
132,132,19307,2,0,L|231:166,1,105,10|0,3:2|0:0,0:0:0:0:
49,219,19623,6,0,P|16:180|12:128,1,105,2|0,0:0|0:0,0:0:0:0:
137,54,19939,1,10,0:0:0:0:
137,54,20096,1,2,0:0:0:0:
182,193,20254,2,0,B|237:213|280:197|280:197|334:179|388:201,1,210,4|10,0:0|0:0,0:0:0:0:
479,253,20728,1,2,0:0:0:0:
493,149,20886,5,10,0:0:0:0:
371,340,21360,2,0,L|357:363,4,26.25,2|2|2|2|2,2:0|2:0|2:0|2:0|2:0,2:0:0:0:
469,47,22149,5,4,0:0:0:0:
209,73,22465,2,0,L|115:82,1,84,2|0,0:0|0:0,0:0:0:0:
209,189,22781,2,0,P|232:276|204:348,1,168,2|0,0:0|0:0,0:0:0:0:
335,335,23254,1,2,0:0:0:0:
335,335,23412,6,0,P|404:299|508:313,1,168,2|2,0:0|0:0,0:0:0:0:
266,202,24044,2,0,P|222:210|177:195,1,84,2|0,0:0|0:0,0:0:0:0:
137,100,24360,2,0,P|181:92|226:107,1,84,2|0,0:0|0:0,0:0:0:0:
83,178,24675,5,2,0:0:0:0:
83,178,24991,2,0,L|68:287,1,84,2|0,0:0|0:0,0:0:0:0:
154,333,25307,2,0,B|200:319|245:330|245:330|288:341|332:325,1,168,2|0,0:0|0:0,0:0:0:0:
407,262,25781,1,2,0:0:0:0:
307,217,25939,6,0,B|267:205|267:205|230:218|230:218|186:207,1,126,2|0,0:0|0:0,0:0:0:0:
118,171,26254,2,0,P|111:212|123:251,1,84,2|0,0:0|0:0,0:0:0:0:
371,252,26570,2,0,P|380:211|367:171,1,84,2|0,0:0|0:0,0:0:0:0:
192,283,26886,2,0,P|185:324|198:364,1,84,2|0,0:0|0:0,0:0:0:0:
259,163,27202,6,0,P|272:81|248:2,1,168,10|2,0:0|0:0,0:0:0:0:
123,108,27675,1,0,0:0:0:0:
210,227,27833,2,0,P|289:237|338:173,1,168,2|2,0:0|0:0,0:0:0:0:
123,108,28307,1,2,0:0:0:0:
210,227,28465,6,0,P|214:185|199:146,1,84,2|0,0:0|0:0,0:0:0:0:
99,203,28781,2,0,P|83:241|87:283,1,84,2|0,0:0|0:0,0:0:0:0:
274,273,29096,2,0,B|358:268,1,84,2|0,0:0|0:0,0:0:0:0:
233,338,29412,2,0,P|199:288|210:228,1,126,2|0,0:0|0:0,0:0:0:0:
259,173,29728,6,0,P|309:177|348:164,1,84,2|0,0:0|0:0,0:0:0:0:
461,111,30044,1,2,0:0:0:0:
461,111,30202,2,0,L|461:298,1,168,2|0,0:0|0:0,0:0:0:0:
336,335,30675,2,0,P|295:342|257:325,1,84,2|0,0:0|0:0,0:0:0:0:
293,192,30991,6,0,P|310:229|303:270,1,84,2|0,0:0|0:0,0:0:0:0:
135,285,31307,1,2,0:0:0:0:
208,132,31465,1,2,0:0:0:0:
308,308,31623,5,10,0:0:0:0:
100,270,31781,1,8,0:0:0:0:
237,109,31939,1,10,0:0:0:0:
166,328,32096,1,0,0:0:0:0:
12,157,32254,6,0,P|0:111|6:58,1,84,2|0,0:0|0:0,0:0:0:0:
148,69,32570,2,0,P|160:115|154:168,1,84,2|0,0:0|0:0,0:0:0:0:
55,225,32886,1,2,0:0:0:0:
8,110,33044,2,0,P|6:68|18:27,1,84,2|0,0:0|0:0,0:0:0:0:
169,65,33360,1,0,0:0:0:0:
169,65,33517,6,0,P|180:105|179:147,1,84,2|0,0:0|0:0,0:0:0:0:
326,186,33833,2,0,P|323:145|333:104,1,84,2|0,0:0|0:0,0:0:0:0:
406,215,34149,2,0,P|347:269|269:248,1,168,2|0,0:0|0:0,0:0:0:0:
179,147,34623,1,0,0:0:0:0:
154,270,34781,5,2,0:0:0:0:
154,270,35096,2,0,L|146:354,1,84,2|0,0:0|0:0,0:0:0:0:
260,294,35412,1,2,0:0:0:0:
260,294,35570,2,0,P|307:289|346:297,1,84,2|0,0:0|0:0,0:0:0:0:
430,371,35886,1,2,0:0:0:0:
487,253,36044,6,0,P|496:211|486:165,1,84,2|0,0:0|0:0,0:0:0:0:
375,105,36360,2,0,P|367:146|376:186,1,84,2|0,0:0|0:0,0:0:0:0:
405,314,36675,2,0,P|327:274|250:289,1,168,2|2,0:0|0:0,0:0:0:0:
192,358,37149,1,0,0:0:0:0:
196,230,37307,5,2,0:0:0:0:
61,273,37465,1,0,0:0:0:0:
104,176,37623,2,0,P|112:133|100:87,1,84,2|0,0:0|0:0,0:0:0:0:
202,132,37939,2,0,P|283:157|366:136,1,168,2|2,0:0|0:0,0:0:0:0:
452,73,38412,1,2,0:0:0:0:
452,73,38570,6,0,L|461:159,1,84,2|0,0:0|0:0,0:0:0:0:
431,263,38886,2,0,B|388:252|348:260|348:260|307:269|261:257,1,168,2|2,0:0|0:0,0:0:0:0:
175,213,39360,1,0,0:0:0:0:
81,245,39517,2,0,P|39:253|-2:246,1,84,2|0,0:0|0:0,0:0:0:0:
39,144,39833,6,0,B|82:132|121:140|121:140|163:151|206:136,1,168,2|0,0:0|0:0,0:0:0:0:
307,97,40307,2,0,P|350:89|396:96,2,84,2|2|0,0:0|0:0|0:0,0:0:0:0:
204,136,40781,2,0,P|161:145|121:140,1,84,2|2,0:0|0:0,0:0:0:0:
25,85,41096,6,0,L|9:187,1,84,2|0,0:0|0:0,0:0:0:0:
0,279,41412,1,2,0:0:0:0:
111,203,41570,1,2,0:0:0:0:
164,317,41728,1,2,0:0:0:0:
203,157,41886,1,2,0:0:0:0:
367,225,42044,6,0,L|371:171,1,52.5,10|0,0:0|0:0,0:0:0:0:
495,192,42360,6,0,L|505:303,1,105,12|0,0:0|0:0,0:0:0:0:
383,359,42675,1,0,0:0:0:0:
270,281,42833,1,0,0:0:0:0:
140,325,42991,2,0,B|112:334|101:353|101:353|109:311|89:273|89:273|71:237|88:195,1,210,8|8,0:0|3:1,0:0:0:0:
135,22,43465,5,10,3:1:0:0:
175,152,43623,1,0,0:0:0:0:
285,67,43781,1,8,3:1:0:0:
328,211,43939,2,0,L|319:323,1,105
466,258,44254,2,0,L|459:153,1,105
325,75,44570,2,0,P|245:85|159:59,1,157.5,8|0,0:0|0:0,0:0:0:0:
115,134,44886,6,0,P|59:121|10:134,1,105,12|0,0:0|0:0,0:0:0:0:
148,216,45202,1,8,0:0:0:0:
172,66,45360,1,0,0:0:0:0:
321,124,45517,2,0,B|400:115|454:64|454:64|433:91|439:136,1,210,8|8,0:0|3:1,0:0:0:0:
469,269,45991,5,8,3:1:0:0:
274,207,46149,1,0,0:0:0:0:
432,204,46307,1,8,3:1:0:0:
308,272,46465,1,0,0:0:0:0:
361,178,46623,5,10,0:0:0:0:
379,298,46781,1,10,0:1:0:0:
419,130,46939,1,8,0:0:0:0:
262,180,47096,1,2,3:1:0:0:
473,276,47254,1,10,3:1:0:0:
482,35,47412,5,12,0:0:0:0:
451,45,47728,2,0,L|323:42,1,105
219,80,48044,2,0,L|91:83,1,105,8|0,0:0|0:0,0:0:0:0:
57,258,48360,1,0,0:0:0:0:
29,130,48517,1,0,0:0:0:0:
107,336,48675,1,0,0:0:0:0:
135,208,48833,1,8,0:0:0:0:
232,296,48991,2,0,P|286:299|339:283,1,105
363,125,49307,5,10,0:1:0:0:
439,295,49465,1,10,0:0:0:0:
283,109,49623,1,2,3:1:0:0:
509,66,49781,1,2,3:1:0:0:
309,186,49939,5,4,0:0:0:0:
300,206,50254,2,0,P|296:257|320:304,1,105
419,376,50570,2,0,P|443:329|440:277,1,105,8|0,0:0|0:0,0:0:0:0:
336,107,50886,2,0,L|295:214,1,105
422,97,51202,6,0,P|357:23|265:58,1,210,0|8,0:0|0:0,0:0:0:0:
294,225,51675,1,2,0:1:0:0:
337,107,51833,1,10,0:1:0:0:
187,235,51991,1,10,0:1:0:0:
373,301,52149,2,0,P|398:260|384:185,1,105,2|2,3:1|3:1,0:0:0:0:
328,72,52465,5,12,0:0:0:0:
342,62,52781,2,0,P|393:49|450:54,1,105,2|0,0:0|0:0,0:0:0:0:
506,194,53096,2,0,P|453:197|403:184,1,105,8|0,0:0|0:0,0:0:0:0:
287,120,53412,1,2,0:0:0:0:
162,161,53570,1,0,0:0:0:0:
145,169,53649,1,0,0:0:0:0:
128,177,53728,6,0,L|114:283,1,105,8|0,0:0|0:0,0:0:0:0:
252,359,54044,1,2,0:0:0:0:
235,234,54202,1,0,0:0:0:0:
331,153,54360,2,0,L|345:47,1,105,8|0,0:0|0:0,0:0:0:0:
192,88,54675,1,2,0:0:0:0:
38,53,54833,1,0,0:0:0:0:
31,75,54912,1,0,0:0:0:0:
24,97,54991,6,0,L|13:205,1,105,12|0,0:0|3:1,0:0:0:0:
135,321,55307,1,10,3:1:0:0:
190,119,55465,1,0,3:1:0:0:
58,341,55623,5,10,3:1:0:0:
303,363,55781,1,0,3:1:0:0:
28,211,55939,1,10,3:1:0:0:
281,142,56096,6,0,B|332:126|382:140|382:140|464:161|520:156|496:92|444:132,1,262.5,8|0,3:1|0:0,0:0:0:0:
501,322,57202,5,0,0:0:0:0:
461,333,57281,1,0,0:0:0:0:
419,333,57360,1,0,0:0:0:0:
378,324,57439,1,0,0:0:0:0:
336,308,57517,6,0,P|276:296|217:309,1,115.50000352478,4|0,0:0|0:0,0:0:0:0:
65,353,57833,1,8,0:0:0:0:
187,233,57991,2,0,P|198:175|185:106,1,115.50000352478,0|0,0:0|0:0,0:0:0:0:
118,11,58307,1,0,0:0:0:0:
271,86,58465,1,8,0:0:0:0:
411,40,58623,1,0,0:0:0:0:
357,179,58781,6,0,P|342:235|365:296,1,115.50000352478,0|0,0:0|0:0,0:0:0:0:
232,219,59096,2,0,P|173:203|115:220,1,115.50000352478,10|0,0:0|0:0,0:0:0:0:
42,361,59412,1,2,0:0:0:0:
13,178,59570,1,0,0:0:0:0:
175,289,59728,2,0,P|231:305|286:291,1,115.50000352478,10|0,0:0|0:0,0:0:0:0:
416,186,60044,6,0,P|358:171|300:188,1,115.50000352478,2|0,0:0|0:0,0:0:0:0:
176,290,60360,1,8,0:0:0:0:
176,290,60517,2,0,L|140:153,1,115.50000352478,0|0,0:0|0:0,0:0:0:0:
102,17,60833,1,0,0:0:0:0:
44,214,60991,1,8,0:0:0:0:
202,75,61149,1,0,0:0:0:0:
247,242,61307,6,0,P|257:299|239:353,1,115.50000352478,0|0,0:0|0:0,0:0:0:0:
137,197,61623,1,10,0:0:0:0:
335,237,61781,1,0,0:0:0:0:
172,289,61939,1,2,0:0:0:0:
245,112,62096,1,0,0:0:0:0:
415,215,62254,6,0,L|423:334,1,118.125004506111,10|0,0:0|0:0,0:0:0:0:
502,368,62570,6,0,L|509:252,1,115.50000352478,2|0,0:0|0:0,0:0:0:0:
311,138,62886,2,0,L|304:254,1,115.50000352478,10|0,0:0|0:0,0:0:0:0:
303,275,63123,1,0,0:0:0:0:
301,296,63202,1,2,0:0:0:0:
412,98,63360,1,0,0:0:0:0:
181,77,63517,2,0,L|188:193,1,115.50000352478,10|0,0:0|0:0,0:0:0:0:
365,244,63833,6,0,L|374:128,1,115.50000352478,2|0,0:0|0:0,0:0:0:0:
282,356,64149,2,0,L|273:241,1,115.50000352478,10|0,0:0|0:0,0:0:0:0:
90,181,64465,6,0,L|81:65,1,115.50000352478,2|0,0:0|0:0,0:0:0:0:
173,292,64781,2,0,L|182:177,1,115.50000352478,10|0,0:0|0:0,0:0:0:0:
352,75,65096,6,0,P|411:89|477:74,1,115.50000352478,6|0,0:1|0:1,0:1:0:0:
434,204,65412,6,0,P|428:258|442:307,1,102.374995313645,8|0,0:1|0:1,0:1:0:0:
352,311,65728,6,0,P|286:298|234:308,1,115.50000352478,6|0,3:1|0:1,0:1:0:0:
113,292,66044,6,0,P|63:304|13:298,1,102.374995313645,8|0,0:1|0:1,0:1:0:0:
28,211,66360,6,0,L|16:82,1,115.50000352478,6|0,3:1|0:1,0:1:0:0:
179,31,66675,1,8,0:1:0:0:
148,196,66833,1,0,0:1:0:0:
80,20,66991,1,10,3:1:0:0:
318,91,67149,1,0,3:1:0:0:
50,163,67307,1,10,3:1:0:0:
75,169,67623,6,0,L|194:160,1,115.50000352478,6|0,0:1|0:1,0:1:0:0:
300,281,67939,1,8,0:1:0:0:
128,264,68096,1,0,0:1:0:0:
278,120,68254,2,0,P|333:105|388:122,1,115.50000352478,2|0,0:1|0:1,0:1:0:0:
484,281,68570,1,8,0:1:0:0:
332,206,68728,1,0,0:1:0:0:
251,356,68886,6,0,P|194:369|138:358,1,115.50000352478,6|0,0:1|0:1,0:1:0:0:
104,141,69202,1,8,0:1:0:0:
194,251,69360,1,0,0:1:0:0:
54,274,69517,1,2,0:1:0:0:
244,118,69675,1,0,0:1:0:0:
283,360,69833,2,0,P|227:370|174:350,1,115.50000352478,8|0,0:1|0:1,0:1:0:0:
133,234,70149,6,0,L|153:106,1,115.50000352478,6|0,0:1|0:1,0:1:0:0:
265,246,70465,2,0,L|285:374,1,115.50000352478,8|0,0:1|0:1,0:1:0:0:
117,329,70781,2,0,P|58:319|-4:338,1,115.50000352478,2|0,0:1|0:1,0:1:0:0:
72,173,71096,2,0,P|156:187|244:160,1,173.250005287171,8|0,0:1|0:1,0:1:0:0:
318,206,71412,6,0,P|373:191|429:202,1,115.50000352478,2|0,0:1|0:1,0:1:0:0:
322,348,71728,2,0,P|266:362|210:351,1,115.50000352478,8|0,0:1|0:1,0:1:0:0:
91,169,72044,1,10,0:1:0:0:
241,231,72202,1,0,0:1:0:0:
106,348,72360,2,0,P|50:340|6:303,1,115.50000352478,8|0,0:1|0:1,0:1:0:0:
112,169,72675,5,14,0:1:0:0:
226,43,72833,1,0,0:1:0:0:
165,282,72991,5,10,0:1:0:0:
250,115,73149,1,0,0:1:0:0:
272,355,73307,5,10,0:1:0:0:
316,155,73465,1,0,0:1:0:0:
405,378,73623,5,10,0:1:0:0:
395,153,73781,1,0,0:1:0:0:
272,355,73939,5,14,0:1:0:0:
476,262,74096,1,0,0:1:0:0:
191,269,74254,5,10,0:1:0:0:
395,153,74412,1,0,0:1:0:0:
98,186,74570,5,10,0:1:0:0:
301,46,74728,1,0,0:1:0:0:
191,269,74886,5,10,0:1:0:0:
54,69,75044,1,0,0:1:0:0:
292,179,75202,6,0,L|406:164,1,115.50000352478,2|2,0:1|0:1,0:1:0:0:
234,139,75517,1,8,0:1:0:0:
284,340,75675,1,0,0:0:0:0:
311,42,75833,1,8,0:1:0:0:
154,293,75991,1,0,0:0:0:0:
448,261,76149,1,2,0:1:0:0:
303,210,76307,6,0,L|178:191,1,115.50000352478,14|0,0:1|0:1,0:1:0:0:
0,264,76623,1,2,0:1:0:0:
32,64,76781,5,10,0:1:0:0:
65,80,76860,1,0,0:1:0:0:
102,85,76939,1,2,0:1:0:0:
139,78,77017,1,0,0:1:0:0:
173,63,77096,5,10,0:1:0:0:
227,48,77175,1,0,0:1:0:0:
283,53,77254,1,2,0:1:0:0:
335,68,77333,1,0,0:1:0:0:
389,124,77412,6,0,L|393:188,1,57.7500017623902,8|0,0:1|0:1,0:1:0:0:
300,244,77570,2,0,L|303:186,1,57.7500017623902,0|0,0:1|0:1,0:1:0:0:
378,299,77728,6,0,P|311:336|237:316,1,157.500006008148,6|2,0:1|0:0,0:1:0:0:
121,343,78202,2,0,L|127:181,1,157.500006008148,2|0,0:0|0:1,0:1:0:0:
97,71,78675,1,2,0:0:0:0:
210,103,78833,1,2,0:0:0:0:
323,71,78991,6,0,P|292:149|305:228,1,157.500006008148,2|2,0:0|0:0,0:0:0:0:
380,314,79465,1,2,0:0:0:0:
231,336,79623,1,2,0:0:0:0:
432,214,79939,2,0,L|428:122,1,78.7500030040742,2|0,0:0|0:0,0:0:0:0:
365,35,80254,6,0,P|290:54|211:23,1,157.500006008148,2|2,0:0|0:0,0:0:0:0:
107,75,80728,2,0,L|99:233,1,157.500006008148,2|0,0:0|0:0,0:0:0:0:
159,334,81202,2,0,P|200:324|241:328,1,78.7500030040742,2|2,0:0|0:0,0:0:0:0:
349,358,81517,6,0,P|326:283|339:206,1,157.500006008148,2|2,0:0|0:0,0:0:0:0:
394,100,81991,1,2,0:0:0:0:
264,147,82149,2,0,P|225:149|177:134,1,78.7500030040742,2|0,0:0|0:0,0:0:0:0:
84,77,82465,2,0,L|74:200,1,118.125004506111,2|0,0:0|0:0,0:0:0:0:
92,220,82781,6,0,L|90:313,1,78.7500030040742,2|2,0:0|0:0,0:0:0:0:
130,363,83096,1,2,0:0:0:0:
204,334,83254,2,0,P|280:314|354:334,1,157.500006008148,2|0,0:0|0:0,0:0:0:0:
340,216,83728,2,0,L|330:137,1,78.7500030040742,2|2,0:0|0:0,0:0:0:0:
222,177,84044,6,0,L|203:341,1,157.500006008148,2|2,0:0|0:0,0:0:0:0:
139,186,84517,1,0,0:0:0:0:
139,186,84675,2,0,P|165:119|252:101,1,157.500006008148,2|2,0:0|0:0,0:0:0:0:
297,192,85307,6,0,P|250:189|214:172,1,78.7500030040742,2|0,0:0|0:0,0:0:0:0:
329,263,85623,2,0,P|282:272|243:265,1,78.7500030040742,2|0,0:0|0:0,0:0:0:0:
378,323,85939,2,0,P|335:343|296:347,1,78.7500030040742,2|0,0:0|0:0,0:0:0:0:
456,291,86254,1,2,0:0:0:0:
449,367,86412,1,2,0:0:0:0:
466,215,86570,6,0,L|481:50,1,157.500006008148,2|0,0:0|0:0,0:0:0:0:
355,82,87044,1,2,0:0:0:0:
363,158,87202,2,0,L|378:314,1,157.500006008148,2|2,0:0|0:0,0:0:0:0:
213,332,87833,6,0,L|208:362,2,26.25,2|0|0,0:0|0:0|0:0,0:0:0:0:
219,146,89096,5,2,0:0:0:0:
98,287,89412,2,0,L|88:345,2,52.5,2|2|2,0:0|0:0|0:0,0:0:0:0:
133,107,90044,1,2,0:0:0:0:
133,107,90360,6,0,B|169:104|188:84|188:84|198:115|198:115|233:96|267:107|267:107|302:117|330:107|330:107|349:113|361:130|361:130|380:107|357:73|346:50|358:29|386:23|407:32|416:52|409:74|386:63,1,420,2|2,0:0|0:0,0:0:0:0:
483,257,92254,5,2,0:0:0:0:
408,331,92412,1,2,0:0:0:0:
310,293,92570,1,2,0:0:0:0:
213,333,92728,2,0,L|205:370,2,26.25,2|2|2,0:0|0:0|0:0,0:0:0:0:
256,192,92965,12,6,95412,0:1:0:0:
