osu file format v14

[General]
AudioFilename: audio.mp3
AudioLeadIn: 0
PreviewTime: 57044
Countdown: 0
SampleSet: Soft
StackLeniency: 0.4
Mode: 0
LetterboxInBreaks: 0
WidescreenStoryboard: 0

[Editor]
Bookmarks: 57044
DistanceSpacing: 1.5
BeatDivisor: 4
GridSize: 16
TimelineZoom: 2.6

[Metadata]
Title:Re:TrymenT
TitleUnicode:Re:TrymenT
Artist:Hotaru Murasaki
ArtistUnicode:紫咲ほたる
Creator:_Meep_
Version:Insane
Source:Re:LieF~親愛なるあなたへ~
Tags:visual novel short レリーフ dear you shin'ainaru anata e Eroge DTM9 Nowa 619 Opening Rask opening Re:LieF~DeaR YoU~ re tryment Sinnoh Ascendance Yaleufeu
BeatmapID:1100514
BeatmapSetID:518004

[Difficulty]
HPDrainRate:6.9
CircleSize:4.4
OverallDifficulty:7.9
ApproachRate:9.1
SliderMultiplier:1.4
SliderTickRate:1

[Events]
//Background and Video events
0,0,"Tryment.jpg",0,0
Video,-1310,"ReTrymenT.avi"
//Break Periods
//Storyboard Layer 0 (Background)
//Storyboard Layer 1 (Fail)
//Storyboard Layer 2 (Pass)
//Storyboard Layer 3 (Foreground)
//Storyboard Sound Samples

[TimingPoints]
1939,315.789473684211,4,2,1,40,1,0
1939,-125,4,2,1,40,0,0
10465,-125,4,2,1,50,0,0
10781,-100,4,2,1,60,0,0
11254,-100,4,2,1,70,0,0
12044,-100,4,2,1,60,0,0
19623,-166.666666666667,4,2,1,60,0,0
21360,-125,4,2,1,10,0,0
22149,-125,4,2,1,40,0,0
39833,-166.666666666667,4,2,1,40,0,0
40939,-125,4,2,1,40,0,0
41175,-125,4,2,1,5,0,0
41254,-125,4,2,1,40,0,0
42360,-100,4,1,1,60,0,0
44807,-100,4,1,1,5,0,0
44886,-100,4,1,1,60,0,0
51754,-100,4,1,1,5,0,0
51833,-100,4,1,1,60,0,0
52465,-66.6666666666667,4,1,1,60,0,0
52702,-66.6666666666667,4,1,1,5,0,0
52781,-100,4,1,1,60,0,0
55149,-100,4,1,1,30,0,0
55307,-100,4,1,1,35,0,0
55465,-100,4,1,1,40,0,0
55623,-100,4,1,1,45,0,0
55781,-100,4,1,1,50,0,0
55939,-100,4,1,1,55,0,0
56096,-71.4285714285714,4,2,1,60,0,0
57044,-83.3333333333333,4,2,1,60,0,0
57202,-200,4,1,1,30,0,0
57307,-200,4,1,1,40,0,0
57360,-200,4,1,1,50,0,0
57439,-200,4,1,1,60,0,0
57517,-83.3333333333333,4,1,1,70,0,1
67623,-83.3333333333333,4,1,1,60,0,0
72675,-83.3333333333333,4,1,1,70,0,1
77728,-125,4,2,1,40,0,0
87833,-166.666666666667,4,2,1,20,0,0
89096,-125,4,2,1,40,0,0
89412,-125,4,2,1,30,0,0
89728,-125,4,2,1,40,0,0
90360,-166.666666666667,4,2,1,40,0,0
91623,-166.666666666667,4,2,1,80,0,0
92412,-166.666666666667,4,2,1,27,0,0
92570,-166.666666666667,4,2,1,34,0,0
92728,-166.666666666667,4,2,1,10,0,0
92886,-166.666666666667,4,2,1,20,0,0

[Colours]
Combo1 : 251,142,218
Combo2 : 219,225,225
Combo3 : 192,254,137
Combo4 : 255,187,119
Combo5 : 207,155,255
Combo6 : 255,255,149

[HitObjects]
127,150,1939,6,0,P|155:152|183:146,2,56,2|0|2,0:0|0:0|0:0,0:0:0:0:
146,71,2412,2,0,P|190:63|258:111,1,112,2|0,0:0|0:0,0:0:0:0:
262,145,2886,2,0,P|260:117|246:92,1,56,2|0,0:0|0:0,0:0:0:0:
146,71,3202,6,0,P|102:79|34:31,1,112,2|0,0:0|0:0,0:0:0:0:
262,145,3675,2,0,P|306:153|373:101,1,112,2|0,0:0|0:0,0:0:0:0:
129,197,4149,1,2,0:0:0:0:
129,197,4465,6,0,L|117:251,2,56,2|0|2,0:0|0:0|0:0,0:0:0:0:
237,183,4939,2,0,P|223:237|266:285,1,112,2|2,0:0|0:0,0:0:0:0:
285,159,5412,2,0,P|258:166|236:183,1,56,2|0,0:0|0:0,0:0:0:0:
84,267,5728,6,0,L|77:156,1,112,2|0,0:0|0:0,0:0:0:0:
165,36,6202,2,0,L|157:147,1,112,2|0,0:0|0:0,0:0:0:0:
73,78,6675,1,2,0:0:0:0:
73,78,6991,6,0,P|68:58|71:17,1,56,2|0,0:0|0:0,0:0:0:0:
163,122,7307,1,2,0:0:0:0:
163,122,7465,2,0,P|108:119|73:78,1,112,2|0,0:0|0:0,0:0:0:0:
286,90,7939,1,2,0:0:0:0:
258,236,8254,6,0,P|314:244|362:200,2,112,2|2|2,0:0|0:0|0:0,0:0:0:0:
242,184,9202,2,0,P|243:212|258:236,1,56,2|0,0:0|0:0,0:0:0:0:
257,235,9517,6,0,L|145:231,1,112,2|2,0:0|0:0,0:0:0:0:
168,314,9991,2,0,L|296:318,1,112,2|0,0:0|0:0,0:0:0:0:
360,193,10465,2,0,P|353:220|342:245,1,56,2|0,0:0|0:0,0:0:0:0:
431,93,10781,6,0,P|382:66|296:92,1,140,2|0,0:0|0:0,0:0:0:0:
74,207,11254,2,0,P|123:234|209:208,1,140,2|0,0:0|0:0,0:0:0:0:
368,32,11728,1,2,0:0:0:0:
368,32,12044,6,0,L|376:116,1,70,4|0,0:1|0:0,0:0:0:0:
188,72,12360,2,0,L|180:156,1,70,8|0,0:0|0:0,0:0:0:0:
383,196,12675,2,0,L|395:264,1,70,0|0,0:0|0:0,0:0:0:0:
170,243,12991,2,0,L|162:327,1,70,8|0,0:0|0:0,0:0:0:0:
387,339,13307,6,0,P|439:327|457:228,1,140,2|8,0:0|0:0,0:0:0:0:
257,256,13781,2,0,B|304:264|304:264|354:256|354:256|395:264,1,140,2|0,3:2|3:2,0:0:0:0:
314,190,14254,2,0,L|185:167,1,105,8|0,3:2|0:0,0:0:0:0:
186,171,14570,6,0,P|222:170|255:156,1,70,6|0,0:0|0:0,0:0:0:0:
395,197,14886,1,10,0:0:0:0:
329,34,15044,2,0,P|323:69|332:103,1,70,2|0,0:0|0:0,0:0:0:0:
408,253,15360,2,0,P|414:218|405:184,1,70,2|8,0:0|0:0,0:0:0:0:
218,285,15675,1,2,0:0:0:0:
326,73,15991,5,2,0:0:0:0:
326,73,16070,1,0,0:0:0:0:
326,73,16149,2,0,P|281:66|253:72,1,70,10|2,3:2|3:2,0:0:0:0:
117,144,16465,1,8,3:2:0:0:
218,285,16623,1,2,3:2:0:0:
289,163,16781,1,10,3:2:0:0:
81,266,16939,1,2,3:2:0:0:
184,355,17096,6,0,P|221:362|270:346,1,70,14|0,0:0|0:0,0:0:0:0:
408,247,17412,1,10,0:0:0:0:
340,106,17570,2,0,L|329:175,1,70,2|0,3:2|0:0,0:0:0:0:
220,273,17886,1,0,3:2:0:0:
331,191,18044,1,8,3:2:0:0:
272,52,18202,5,2,0:0:0:0:
272,52,18281,1,2,0:0:0:0:
272,52,18360,2,0,L|353:58,2,70,2|0|8,3:2|0:0|0:0,0:0:0:0:
91,46,18833,2,0,L|83:196,1,140,2|0,3:2|3:2,0:0:0:0:
146,290,19307,2,0,P|188:281|233:249,1,70,10|0,3:2|0:0,0:0:0:0:
325,165,19623,5,2,0:0:0:0:
467,252,19781,1,0,0:0:0:0:
358,270,19939,1,10,0:0:0:0:
468,130,20097,1,2,0:0:0:0:
366,280,20254,2,0,L|352:362,1,83.9999974365235,4|10,0:0|0:0,0:0:0:0:
256,160,20886,5,10,0:0:0:0:
256,160,21360,2,0,L|302:156,2,28,2|2|2,2:0|2:0|2:0,0:0:0:0:
350,322,22149,5,4,0:0:0:0:
155,248,22465,2,0,P|163:192|175:176,1,56,2|0,0:0|0:0,0:0:0:0:
228,140,22781,2,0,B|272:152|304:120|304:120|352:104|392:140,1,168,2|2,0:0|0:0,0:0:0:0:
420,209,23412,6,0,L|436:269,1,56,2|0,0:0|0:0,0:0:0:0:
332,192,23728,2,0,L|348:132,1,56,2|0,0:0|0:0,0:0:0:0:
246,209,24044,2,0,L|262:269,1,56,2|0,0:0|0:0,0:0:0:0:
161,192,24360,2,0,L|177:132,1,56,2|0,0:0|0:0,0:0:0:0:
203,48,24675,5,2,0:0:0:0:
203,48,24991,2,0,P|228:60|262:59,1,56,2|0,0:0|0:0,0:0:0:0:
358,22,25307,2,0,L|350:143,1,112,2|0,0:0|0:0,0:0:0:0:
341,243,25781,1,2,0:0:0:0:
341,243,25939,6,0,B|311:233|282:243|282:243|253:252|224:243,1,112,2|2,0:0|0:0,0:0:0:0:
30,127,26570,2,0,B|59:117|88:127|88:127|117:136|146:127,1,112,2|2,0:0|0:0,0:0:0:0:
219,266,27202,5,10,0:0:0:0:
219,266,27518,2,0,P|182:278|151:273,1,56,2|0,0:0|0:0,0:0:0:0:
280,210,27833,2,0,P|301:257|283:318,1,112,2|2,0:0|0:0,0:0:0:0:
195,180,28307,2,0,P|227:137|288:120,1,112,2|0,0:0|0:0,0:0:0:0:
376,143,28781,1,2,0:0:0:0:
376,143,29096,2,0,L|386:198,1,56,2|0,0:0|0:0,0:0:0:0:
280,119,29412,2,0,L|290:63,1,56,2|0,0:0|0:0,0:0:0:0:
457,151,29728,6,0,P|473:203|436:269,1,112,2|2,0:0|0:0,0:0:0:0:
339,314,30202,2,0,L|227:300,1,112,2|0,0:0|0:0,0:0:0:0:
200,136,30675,2,0,L|197:60,1,56,2|0,0:0|0:0,0:0:0:0:
200,136,30991,1,2,0:0:0:0:
168,243,31149,1,0,0:0:0:0:
199,352,31307,5,2,0:0:0:0:
176,223,31465,1,2,0:0:0:0:
114,371,31623,5,10,0:0:0:0:
180,130,31781,1,8,0:0:0:0:
288,256,31939,5,10,0:0:0:0:
297,71,32096,1,0,0:0:0:0:
128,129,32254,1,2,0:0:0:0:
286,336,32570,6,0,P|275:293|278:264,1,56,2|0,0:0|0:0,0:0:0:0:
348,180,32886,2,0,P|369:130|354:75,1,112,2|0,0:0|0:0,0:0:0:0:
285,125,33360,1,2,0:0:0:0:
285,125,33517,6,0,P|241:141|162:116,1,112,2|2,0:0|0:0,0:0:0:0:
354,76,34149,2,0,P|398:60|477:85,1,112,2|0,0:0|0:0,0:0:0:0:
456,224,34781,5,2,0:0:0:0:
456,224,35096,2,0,L|376:232,1,56,2|0,0:0|0:0,0:0:0:0:
324,192,35412,2,0,L|212:202,1,112,2|0,0:0|0:0,0:0:0:0:
140,248,35886,1,2,0:0:0:0:
140,248,36044,6,0,P|152:293|120:369,1,112,2|2,0:0|0:0,0:0:0:0:
108,176,36675,2,0,P|95:130|127:54,1,112,2|2,0:0|0:0,0:0:0:0:
379,44,37307,5,2,0:0:0:0:
379,44,37623,2,0,P|380:72|373:105,1,56,2|0,0:0|0:0,0:0:0:0:
315,166,37939,2,0,L|203:159,1,112,2|2,0:0|0:0,0:0:0:0:
126,210,38412,2,0,P|82:194|5:232,1,112,2|0,0:0|0:0,0:0:0:0:
86,325,38886,2,0,L|76:270,1,56,2|0,0:0|0:0,0:0:0:0:
46,103,39202,2,0,L|21:215,1,112,2|2,0:0|0:0,0:0:0:0:
311,127,39833,6,0,B|227:171|227:91|132:133,1,167.999994873047,2|2,0:0|0:0,0:0:0:0:
181,213,40781,1,2,0:0:0:0:
181,213,40939,2,0,P|229:233|281:228,1,84,2|0,0:0|0:0,0:0:0:0:
286,230,41254,1,0,0:0:0:0:
394,121,41412,5,2,0:0:0:0:
353,305,41570,1,2,0:0:0:0:
301,140,41728,5,2,0:0:0:0:
452,206,41886,1,2,0:0:0:0:
206,227,42044,5,10,0:0:0:0:
355,206,42202,1,0,0:0:0:0:
197,319,42360,6,0,P|133:285|96:223,1,140,12|0,0:0|0:0,0:0:0:0:
266,50,42833,2,0,B|340:57|375:139,1,140,0|0,0:0|0:0,0:0:0:0:
421,254,43307,1,8,3:1:0:0:
284,132,43465,1,10,3:1:0:0:
156,337,43781,5,8,3:1:0:0:
332,198,43939,1,0,0:0:0:0:
317,354,44096,1,0,0:0:0:0:
284,132,44254,1,0,0:0:0:0:
284,132,44570,2,0,P|224:100|156:108,1,105,8|0,0:0|0:0,0:0:0:0:
153,106,44886,6,0,L|65:118,1,70,12|0,0:0|0:0,0:0:0:0:
10,215,45202,1,8,0:0:0:0:
153,342,45360,2,0,P|171:271|124:212,1,140,0|0,0:0|0:0,0:0:0:0:
96,287,45833,1,8,3:1:0:0:
212,384,45991,2,0,L|351:377,1,140,8|8,3:1|3:1,0:0:0:0:
217,218,46465,5,0,0:0:0:0:
156,334,46623,1,10,0:0:0:0:
48,240,46781,5,10,0:1:0:0:
148,348,46939,1,8,0:0:0:0:
224,204,47096,5,2,3:1:0:0:
284,384,47254,1,10,3:1:0:0:
474,269,47412,1,12,0:0:0:0:
474,269,47728,6,0,L|382:280,1,70,0|0,0:0|0:0,0:0:0:0:
164,184,48044,2,0,L|256:195,1,70,8|0,0:0|0:0,0:0:0:0:
336,301,48360,2,0,P|313:250|339:157,1,140,0|0,0:0|0:0,0:0:0:0:
470,133,48833,1,8,0:0:0:0:
387,55,48991,1,0,0:0:0:0:
446,244,49149,1,0,0:0:0:0:
484,149,49307,5,10,0:1:0:0:
512,325,49465,1,10,0:0:0:0:
348,254,49623,5,2,3:1:0:0:
490,187,49781,1,2,3:1:0:0:
232,304,49939,1,4,0:0:0:0:
232,304,50254,6,0,P|253:253|218:165,2,140,0|8|0,0:0|0:0|0:0,0:0:0:0:
124,275,51044,1,0,0:0:0:0:
168,351,51202,2,0,P|135:362|101:361,1,70,0|0,0:0|0:0,0:0:0:0:
292,331,51517,2,0,P|325:333|410:364,1,105,8|0,0:0|0:0,0:0:0:0:
425,371,51833,5,10,0:1:0:0:
381,179,51991,1,10,0:1:0:0:
472,257,52149,1,2,3:1:0:0:
428,66,52307,1,2,3:1:0:0:
203,128,52465,6,0,P|194:206|295:247,1,157.500006008148,12|0,0:0|0:0,0:0:0:0:
294,253,52781,6,0,L|363:255,1,70,2|0,0:0|0:0,0:0:0:0:
133,131,53096,2,0,L|202:128,1,70,8|0,0:0|0:0,0:0:0:0:
108,232,53412,1,2,0:0:0:0:
269,97,53570,5,0,0:0:0:0:
269,97,53649,1,0,0:0:0:0:
269,97,53728,2,0,P|279:59|264:20,1,70,8|0,0:0|0:0,0:0:0:0:
259,277,54044,2,0,P|249:315|264:354,1,70,2|0,0:0|0:0,0:0:0:0:
333,223,54360,2,0,P|291:189|202:205,1,140,8|2,0:0|0:0,0:0:0:0:
210,198,54833,1,0,0:0:0:0:
160,336,54991,5,12,0:0:0:0:
270,76,55149,1,0,3:1:0:0:
289,288,55307,1,10,3:1:0:0:
181,107,55465,1,0,3:1:0:0:
391,150,55623,1,10,3:1:0:0:
216,265,55781,1,0,3:1:0:0:
346,84,55939,1,10,3:1:0:0:
385,285,56096,6,0,B|374:219|320:198|320:198|356:173|391:150|391:150|319:198|224:134|237:29|310:-11|370:10,1,489.999985046387,8|0,3:1|0:0,0:0:0:0:
156,154,57202,6,2,L|166:161,5,11.6666666666667,0|0|0|0|0|0,0:0|0:0|0:0|0:0|0:0|0:0,0:0:0:0:
173,166,57517,6,0,P|247:113|336:159,1,167.999994873047,4|8,0:1|0:1,0:0:0:0:
499,263,57991,2,0,L|478:86,1,167.999994873047,0|0,0:1|0:1,0:0:0:0:
379,270,58465,1,8,0:1:0:0:
257,167,58623,2,0,L|237:333,1,167.999994873047,0|0,0:1|0:1,0:0:0:0:
379,270,59096,6,0,P|367:228|339:199,1,83.9999974365235,10|0,0:1|0:1,0:0:0:0:
94,217,59412,2,0,P|134:226|175:218,1,83.9999974365235,2|0,0:1|0:1,0:0:0:0:
300,18,59728,2,0,P|272:48|258:87,1,83.9999974365235,10|0,0:1|0:1,0:0:0:0:
303,274,60044,6,0,L|405:296,1,83.9999974365235,2|0,0:1|0:1,0:0:0:0:
504,238,60360,1,8,0:1:0:0:
311,190,60517,2,0,P|239:220|235:324,1,167.999994873047,0|0,0:1|0:1,0:0:0:0:
400,154,60991,1,8,0:1:0:0:
303,274,61149,2,0,L|124:333,1,167.999994873047,0|0,0:1|0:1,0:0:0:0:
166,105,61623,6,0,P|162:146|179:183,1,83.9999974365235,10|0,0:1|0:1,0:0:0:0:
348,13,61939,2,0,P|307:9|270:26,1,83.9999974365235,2|0,0:1|0:1,0:0:0:0:
323,291,62254,2,0,P|341:253|335:212,1,83.9999974365235,10|0,0:1|0:0,0:0:0:0:
305,118,62570,6,0,L|388:126,1,83.9999974365235,2|0,0:1|0:1,0:0:0:0:
266,242,62886,2,0,P|225:247|187:229,1,83.9999974365235,8|0,0:1|0:1,0:0:0:0:
187,229,63123,1,0,0:1:0:0:
187,229,63201,1,0,0:1:0:0:
23,142,63360,1,0,0:1:0:0:
49,327,63517,1,8,0:1:0:0:
102,191,63675,6,0,P|114:130|33:50,1,167.999994873047,0|0,0:1|0:1,0:0:0:0:
197,116,64149,2,0,L|215:209,1,83.9999974365235,10|0,0:1|0:1,0:0:0:0:
15,196,64465,2,0,L|-3:289,1,83.9999974365235,2|0,0:1|0:1,0:0:0:0:
127,293,64781,2,0,L|145:386,1,83.9999974365235,10|0,0:1|0:1,0:0:0:0:
248,338,65096,6,0,P|268:270|175:194,1,167.999994873047,6|8,0:1|0:1,0:0:0:0:
212,200,65570,1,0,0:0:0:0:
0,88,65728,6,0,P|48:139|160:97,1,167.999994873047,6|8,3:1|0:1,0:0:0:0:
138,125,66202,1,0,0:0:0:0:
339,0,66360,6,0,P|270:16|250:134,1,167.999994873047,6|8,3:1|0:1,0:0:0:0:
236,100,66833,1,0,0:1:0:0:
368,343,66991,6,0,P|377:285|346:246,1,83.9999974365235,10|0,3:1|3:1,0:0:0:0:
236,100,67307,1,10,3:1:0:0:
282,271,67623,6,0,L|378:263,1,83.9999974365235,6|0,0:1|0:1,0:0:0:0:
230,158,67939,1,8,0:1:0:0:
220,328,68096,1,0,0:1:0:0:
292,204,68254,2,0,P|304:132|287:107,2,83.9999974365235,2|0|8,0:1|0:1|0:1,0:0:0:0:
220,328,68728,1,0,0:1:0:0:
292,204,68886,6,0,B|360:212|360:212|404:196|404:196|472:204,1,167.999994873047,6|8,0:1|0:1,0:0:0:0:
512,363,69360,1,0,0:1:0:0:
363,287,69517,2,0,L|273:276,1,83.9999974365235,2|0,0:1|0:1,0:0:0:0:
180,132,69833,1,8,0:1:0:0:
279,276,69991,1,0,0:1:0:0:
364,120,70149,6,0,P|360:78|341:41,1,83.9999974365235,6|0,0:1|0:1,0:0:0:0:
180,131,70465,2,0,P|160:169|156:210,1,83.9999974365235,8|0,0:1|0:1,0:0:0:0:
241,64,70781,6,0,P|191:44|132:52,1,83.9999974365235,2|0,0:1|0:1,0:0:0:0:
156,210,71097,2,0,P|178:244|212:269,1,83.9999974365235,8|0,0:1|0:0,0:0:0:0:
124,124,71412,6,0,P|82:156|59:212,1,83.9999974365235,2|0,0:1|0:1,0:0:0:0:
212,269,71728,2,0,P|252:272|296:256,1,83.9999974365235,8|0,0:1|0:1,0:0:0:0:
408,172,72044,5,10,0:1:0:0:
432,137,72122,1,0,0:0:0:0:
436,96,72201,1,0,0:1:0:0:
414,62,72280,1,0,0:0:0:0:
374,50,72359,1,8,0:1:0:0:
336,66,72438,1,0,0:0:0:0:
316,102,72517,1,0,0:1:0:0:
325,142,72596,1,0,0:0:0:0:
356,172,72675,6,0,P|364:220|356:276,1,83.9999974365235,14|0,0:1|0:1,0:0:0:0:
192,232,72991,2,0,P|149:256|93:268,1,83.9999974365235,10|0,0:1|0:1,0:0:0:0:
62,123,73307,6,0,P|81:85|108:54,1,83.9999974365235,10|0,0:1|0:1,0:0:0:0:
240,158,73623,2,0,P|259:195|288:226,1,83.9999974365235,10|0,0:1|0:1,0:0:0:0:
448,354,73939,6,0,P|384:338|352:342,1,83.9999974365235,14|0,0:1|0:1,0:0:0:0:
165,371,74254,2,0,P|145:327|149:267,1,83.9999974365235,10|0,0:1|0:1,0:0:0:0:
132,74,74570,6,0,P|93:107|70:159,1,83.9999974365235,10|0,0:1|0:1,0:0:0:0:
43,307,74886,1,10,0:1:0:0:
60,337,74964,1,0,0:0:0:0:
92,355,75043,1,0,0:1:0:0:
129,357,75122,1,0,0:0:0:0:
163,345,75202,6,0,P|205:334|279:341,1,83.9999974365235,2|2,0:1|0:1,0:0:0:0:
331,341,75517,1,8,0:1:0:0:
87,258,75675,2,0,L|187:266,1,83.9999974365235,0|8,0:0|0:0,0:0:0:0:
408,187,75991,2,0,L|308:195,1,83.9999974365235,0|2,0:1|0:1,0:0:0:0:
171,265,76307,6,0,P|207:213|151:93,1,167.999994873047,14|2,0:1|0:1,0:0:0:0:
56,8,76781,2,0,L|156:19,1,83.9999974365235,10|2,0:1|0:1,0:0:0:0:
320,66,77096,5,10,0:1:0:0:
353,88,77175,1,0,0:1:0:0:
382,119,77253,1,2,0:1:0:0:
402,155,77332,1,0,0:1:0:0:
413,195,77412,2,0,P|418:238|415:262,1,41.9999987182618,8|0,0:1|0:1,0:0:0:0:
337,339,77570,2,0,P|341:318|343:297,1,41.9999987182618,0|0,0:1|0:1,0:0:0:0:
331,210,77728,6,0,P|278:190|213:220,1,112,0|0,0:1|0:1,0:0:0:0:
218,296,78202,2,0,B|101:305,1,112,0|0,0:1|0:1,0:0:0:0:
34,362,78675,1,2,0:0:0:0:
13,272,78833,2,0,B|17:238|5:210|5:210|-8:176|4:149,1,112,2|0,0:0|0:0,0:0:0:0:
26,78,79307,2,0,P|50:59|77:53,1,56,2|2,0:0|0:0,0:0:0:0:
160,66,79623,2,0,P|186:82|200:105,1,56,2|0,0:0|0:0,0:0:0:0:
206,194,79939,1,2,0:0:0:0:
156,263,80096,2,0,L|119:251,1,28,0|0,0:0|0:0,0:0:0:0:
112,325,80254,6,0,P|164:301|222:303,1,112,2|2,0:0|0:0,0:0:0:0:
302,342,80728,2,0,B|323:297|298:254|298:254|277:217|294:176,1,168,2|2,0:0|0:0,0:0:0:0:
481,197,81360,2,0,P|456:213|363:204,1,112,2|0,0:0|0:0,0:0:0:0:
416,118,81833,2,0,L|418:53,1,56,2|2,0:0|0:0,0:0:0:0:
323,10,82149,2,0,L|318:139,1,112,2|2,0:0|0:0,0:0:0:0:
365,323,82781,6,0,P|266:355|204:270,1,224,2|0,0:0|0:0,0:0:0:0:
459,66,83728,1,2,0:0:0:0:
459,66,83886,6,0,L|482:249,1,168,2|2,0:0|0:0,0:0:0:0:
280,291,84675,1,2,0:0:0:0:
323,152,84991,1,2,0:0:0:0:
280,291,85307,6,0,L|390:297,1,112,2|2,0:0|0:0,0:0:0:0:
471,268,85781,1,0,0:0:0:0:
493,187,85939,2,0,P|486:135|443:96,1,112,2|2,0:0|0:0,0:0:0:0:
492,30,86412,2,0,P|371:54|411:171,1,280,2|2,0:0|0:0,0:0:0:0:
157,173,87517,2,0,P|209:177|233:169,1,56,2|0,0:0|0:0,0:0:0:0:
284,148,87833,6,0,P|364:155|388:231,1,167.999994873047,2|0,0:0|0:0,0:0:0:0:
388,229,88781,2,0,P|387:266|393:285,1,41.9999987182618,0|0,0:0|0:0,0:0:0:0:
416,350,89096,5,2,0:0:0:0:
256,304,89412,1,2,0:0:0:0:
248,320,89570,1,2,0:0:0:0:
240,336,89728,5,2,0:0:0:0:
160,280,90044,1,2,0:0:0:0:
248,291,90360,6,0,B|251:265|247:239|220:240|240:224|240:224|224:208|224:208|208:224|200:199|156:192|156:192|200:184|208:160|224:176|224:176|240:160|240:160|224:144|248:128|255:96|255:96|264:128|288:144|272:160|272:160|288:176|288:176|304:160|312:184|356:192|356:192|311:200|304:224|288:208|288:208|272:224|272:224|288:241|263:239|259:265|262:292,1,671.999979492188,2|2,0:0|0:0,0:0:0:0:
256,192,92965,12,6,95412,0:1:0:0:
