osu file format v14

[General]
AudioFilename: audio.mp3
AudioLeadIn: 0
PreviewTime: 57044
Countdown: 0
SampleSet: Soft
StackLeniency: 0.7
Mode: 0
LetterboxInBreaks: 0
WidescreenStoryboard: 0

[Editor]
DistanceSpacing: 1.5
BeatDivisor: 4
GridSize: 16
TimelineZoom: 3.199999

[Metadata]
Title:Re:TrymenT
TitleUnicode:Re:TrymenT
Artist:Hotaru Murasaki
ArtistUnicode:紫咲ほたる
Creator:_Meep_
Version:Hard
Source:Re:LieF~親愛なるあなたへ~
Tags:visual novel short レリーフ dear you shin'ainaru anata e Eroge DTM9 Nowa 619 Opening Rask opening Re:LieF~DeaR YoU~ re tryment Sinnoh Ascendance Yaleufeu
BeatmapID:1100513
BeatmapSetID:518004

[Difficulty]
HPDrainRate:5.5
CircleSize:4
OverallDifficulty:5.5
ApproachRate:8
SliderMultiplier:1.2
SliderTickRate:1

[Events]
//Background and Video events
Video,-1310,"ReTrymenT.avi"
0,0,"Tryment.jpg",0,0
//Break Periods
//Storyboard Layer 0 (Background)
//Storyboard Layer 1 (Fail)
//Storyboard Layer 2 (Pass)
//Storyboard Layer 3 (Foreground)
//Storyboard Sound Samples

[TimingPoints]
1939,315.789473684211,4,2,1,40,1,0
1939,-125,4,2,1,40,0,0
10465,-100,4,2,1,50,0,0
10781,-100,4,2,1,60,0,0
11254,-100,4,2,1,70,0,0
12044,-100,4,2,1,60,0,0
19623,-125,4,2,1,60,0,0
21360,-125,4,2,1,10,0,0
22149,-125,4,2,1,40,0,0
42360,-100,4,1,1,60,0,0
55149,-100,4,1,1,30,0,0
55307,-100,4,1,1,35,0,0
55465,-100,4,1,1,40,0,0
55623,-100,4,1,1,45,0,0
55781,-100,4,1,1,50,0,0
55939,-100,4,1,1,55,0,0
56096,-100,4,2,1,60,0,0
57202,-100,4,1,1,30,0,0
57360,-100,4,1,1,50,0,0
57517,-83.3333333333333,4,1,1,70,0,1
67623,-83.3333333333333,4,1,1,60,0,0
72675,-83.3333333333333,4,1,1,70,0,1
77728,-125,4,2,1,40,0,0
91623,-125,4,2,1,30,0,0
92254,-125,4,2,1,20,0,0
92570,-125,4,2,1,34,0,0
92886,-125,4,2,1,20,0,0

[Colours]
Combo1 : 251,142,218
Combo2 : 219,225,225
Combo3 : 192,254,137
Combo4 : 255,187,119
Combo5 : 207,155,255
Combo6 : 255,255,149

[HitObjects]
272,146,1939,6,0,P|323:149|408:93,2,144,2|2|2,0:0|0:0|0:0,0:0:0:0:
94,72,3202,2,0,B|90:129|90:129|103:165|103:165|99:221,2,144,2|2|2,0:0|0:0|0:0,0:0:0:0:
207,226,4465,6,0,B|195:249|195:249|207:273|207:273|195:297|218:321|218:321|254:333|290:321|290:321|314:297|302:273|302:273|314:249|314:249|302:226|302:226,1,288,2|2,0:0|0:0,0:0:0:0:
208,72,5728,2,0,P|254:25|304:68,2,144,2|2|2,0:0|0:0|0:0,0:0:0:0:
383,276,6991,6,0,B|421:272|441:251|441:251|418:221|419:176,2,144,2|2|2,0:0|0:0|0:0,0:0:0:0:
179,306,8254,2,0,P|163:269|159:204,1,96,2|2,0:0|0:0,0:0:0:0:
353,213,8886,2,0,P|350:261|333:306,1,96,2|2,0:0|0:0,0:0:0:0:
255,162,9517,6,0,L|152:156,1,96,2|2,0:0|0:0,0:0:0:0:
75,198,9991,1,2,0:0:0:0:
223,319,10307,1,0,0:0:0:0:
223,319,10465,2,0,L|298:314,1,60,2|0,0:0|0:0,0:0:0:0:
369,342,10781,6,0,B|385:301|385:301|374:210,1,120,2|0,0:0|0:0,0:0:0:0:
305,169,11254,2,0,P|243:183|181:157,1,120,2|0,0:0|0:0,0:0:0:0:
124,112,11728,1,2,0:0:0:0:
95,120,12044,6,0,B|125:203|125:203|122:264,1,120,4|8,0:1|0:0,0:0:0:0:
112,320,12517,1,0,0:0:0:0:
192,288,12675,2,0,P|253:276|320:313,1,120,0|8,0:0|0:0,0:0:0:0:
374,352,13149,1,0,0:0:0:0:
447,304,13307,2,0,B|470:266|446:213|446:213|422:157|464:109,2,180,2|2|8,0:0|3:2|3:2,0:0:0:0:
374,352,14412,5,0,0:0:0:0:
374,352,14491,1,0,0:0:0:0:
374,352,14570,2,0,P|315:356|254:328,1,120,6|10,0:0|0:0,0:0:0:0:
197,266,15044,2,0,P|193:221|246:244,2,120,2|2|2,0:0|0:0|0:0,0:0:0:0:
50,156,15991,6,0,L|44:126,2,30,2|0|10,0:0|0:0|3:2,0:0:0:0:
129,202,16307,1,2,3:2:0:0:
211,155,16465,2,0,P|256:161|288:181,1,60,8|2,3:2|3:2,0:0:0:0:
317,243,16781,2,0,P|272:249|240:269,1,60,10|2,3:2|3:2,0:0:0:0:
193,312,17096,6,0,P|157:328|117:330,1,60,14|0,0:0|0:0,0:0:0:0:
46,317,17412,1,10,0:0:0:0:
102,247,17570,2,0,L|94:106,1,120,2|0,3:2|3:2,0:0:0:0:
99,37,18044,1,8,3:2:0:0:
176,83,18202,1,2,0:0:0:0:
176,83,18281,1,2,0:0:0:0:
176,83,18360,6,0,P|222:91|253:85,2,60,2|0|8,3:2|0:0|0:0,0:0:0:0:
95,127,18833,2,0,L|88:246,1,120,2|0,3:2|3:2,0:0:0:0:
130,326,19307,2,0,P|176:316|230:336,1,90,10|0,3:2|0:0,0:0:0:0:
246,348,19623,6,0,P|250:309|256:285,1,48,2|0,0:0|0:0,0:0:0:0:
264,229,19939,2,0,P|260:190|254:166,1,48,10|2,0:0|0:0,0:0:0:0:
258,110,20254,5,4,0:0:0:0:
264,229,20570,1,10,0:0:0:0:
242,353,20886,1,10,0:0:0:0:
256,192,20965,12,4,22149,0:0:0:0:
143,218,22465,6,0,P|175:224|196:221,1,48,2|0,0:0|0:0,0:0:0:0:
274,202,22781,2,0,B|311:184|350:197|350:197|390:210|428:192,1,144,2|2,0:0|0:0,0:0:0:0:
485,147,23412,2,0,P|494:112|457:50,1,96,2|2,0:0|0:0,0:0:0:0:
302,15,24044,2,0,P|279:56|287:102,1,96,2|2,0:0|0:0,0:0:0:0:
378,249,24675,5,2,0:0:0:0:
378,249,24991,2,0,L|319:256,1,48,2|0,0:0|0:0,0:0:0:0:
252,294,25307,2,0,P|239:274|159:263,1,96,2|0,0:0|0:0,0:0:0:0:
101,306,25781,1,2,0:0:0:0:
101,306,25939,2,0,P|96:275|99:190,1,96,2|2,0:0|0:0,0:0:0:0:
244,121,26570,2,0,P|245:168|239:216,1,96,2|2,0:0|0:0,0:0:0:0:
410,189,27202,5,10,0:0:0:0:
410,189,27517,2,0,L|419:133,1,48,2|0,0:0|0:0,0:0:0:0:
430,55,27833,2,0,B|407:37|407:37|335:28,1,96,2|2,0:0|0:0,0:0:0:0:
254,19,28307,2,0,L|265:126,1,96,2|0,0:0|0:0,0:0:0:0:
268,201,28781,2,0,L|203:192,1,48,2|0,0:0|0:0,0:0:0:0:
145,237,29096,1,2,0:0:0:0:
145,237,29412,1,2,0:0:0:0:
145,237,29728,6,0,B|130:273|130:273|74:279|51:343,2,144,2|2|2,0:0|0:0|0:0,0:0:0:0:
217,190,30833,1,0,0:0:0:0:
259,265,30991,5,2,0:0:0:0:
414,189,31307,2,0,P|419:158|410:130,1,48,2|2,0:0|0:0,0:0:0:0:
386,60,31623,2,0,L|324:53,2,48,10|8|10,0:0|0:0|0:0,0:0:0:0:
470,77,32096,1,0,0:0:0:0:
503,198,32254,5,2,0:0:0:0:
503,198,32570,2,0,L|437:191,1,48,2|0,0:0|0:0,0:0:0:0:
373,164,32886,2,0,P|383:214|365:274,1,96,2|0,0:0|0:0,0:0:0:0:
311,318,33360,1,2,0:0:0:0:
234,279,33517,2,0,L|127:277,1,96,2|2,0:0|0:0,0:0:0:0:
68,106,34149,2,0,L|164:105,1,96,2|0,0:0|0:0,0:0:0:0:
327,48,34781,5,2,0:0:0:0:
327,48,35096,2,0,L|323:106,1,48,2|0,0:0|0:0,0:0:0:0:
280,171,35412,2,0,L|381:166,1,96,2|0,0:0|0:0,0:0:0:0:
450,121,35886,1,2,0:0:0:0:
466,205,36044,2,0,P|465:222|448:269,1,48,2|0,0:0|0:0,0:0:0:0:
407,323,36360,1,2,0:0:0:0:
234,326,36675,2,0,P|210:272|219:221,1,96,2|2,0:0|0:0,0:0:0:0:
279,76,37307,5,2,0:0:0:0:
279,76,37623,2,0,L|294:185,2,96,2|2|2,0:0|0:0|0:0,0:0:0:0:
208,126,38412,2,0,P|169:144|110:140,1,96,2|0,0:0|0:0,0:0:0:0:
41,185,38886,1,2,0:0:0:0:
114,229,39044,1,0,0:0:0:0:
116,142,39202,2,0,L|95:39,1,96,2|2,0:0|0:0,0:0:0:0:
222,166,39833,6,0,P|283:135|273:221,1,192,2|2,0:0|0:0,0:0:0:0:
54,322,40781,1,2,0:0:0:0:
54,322,40939,1,2,0:0:0:0:
64,298,41254,6,0,L|73:238,2,48,0|2|2,0:0|0:0|0:0,0:0:0:0:
135,360,41728,1,2,0:0:0:0:
205,310,41886,1,2,0:0:0:0:
278,355,42044,2,0,P|320:356|345:347,1,48,10|0,0:0|0:0,0:0:0:0:
412,290,42360,6,0,P|397:229|421:158,1,120,12|0,0:0|0:0,0:0:0:0:
506,231,42833,2,0,P|521:170|497:99,1,120,0|0,0:0|0:0,0:0:0:0:
416,65,43307,1,8,3:1:0:0:
321,117,43465,2,0,L|176:104,1,120,10|8,3:1|3:1,0:0:0:0:
100,66,43939,2,0,L|118:148,1,60,0|0,0:0|0:0,0:0:0:0:
147,260,44254,1,0,0:0:0:0:
147,260,44570,2,0,P|174:277|135:297,1,90,8|0,0:0|0:0,0:0:0:0:
147,260,44886,6,0,L|290:253,1,120,12|8,0:0|0:0,0:0:0:0:
370,220,45360,2,0,P|362:276|396:330,1,120,0|0,0:0|0:0,0:0:0:0:
449,260,45833,1,8,3:1:0:0:
442,164,45991,2,0,B|413:107|413:107|354:90,1,120,8|8,3:1|3:1,0:0:0:0:
253,115,46465,2,0,P|215:127|172:122,1,60,0|10,0:0|0:0,0:0:0:0:
222,20,46781,2,0,P|260:8|303:13,1,60,10|8,0:1|0:0,0:0:0:0:
359,91,47096,2,0,P|321:103|278:98,1,60,2|10,3:1|3:1,0:0:0:0:
127,55,47412,5,12,0:0:0:0:
127,55,47728,2,0,L|136:118,1,60,0|0,0:0|0:0,0:0:0:0:
141,205,48044,2,0,L|156:76,1,120,8|0,0:0|0:0,0:0:0:0:
239,11,48517,1,0,0:0:0:0:
239,11,48833,6,0,L|249:77,1,60,8|0,0:0|0:0,0:0:0:0:
368,127,49149,1,0,0:0:0:0:
457,187,49307,2,0,P|465:215|464:245,1,60,10|10,0:1|0:0,0:0:0:0:
368,127,49623,2,0,P|359:98|360:68,1,60,2|2,3:1|3:1,0:0:0:0:
286,213,49939,5,4,0:0:0:0:
286,213,50254,2,0,L|216:207,1,60,0|0,0:0|0:0,0:0:0:0:
125,249,50570,2,0,B|82:255|82:255|5:227,2,120,8|0|0,0:0|0:0|0:0,0:0:0:0:
226,207,51360,1,0,0:0:0:0:
203,101,51517,2,0,P|208:56|260:18,1,90,8|0,0:0|0:0,0:0:0:0:
267,17,51833,2,0,L|342:25,1,60,10|10,0:1|0:1,0:0:0:0:
427,63,52149,1,2,3:1:0:0:
461,165,52307,1,2,3:1:0:0:
442,271,52465,6,0,L|438:347,1,60,12|0,0:0|0:0,0:0:0:0:
337,358,52781,2,0,L|334:299,1,60,2|0,0:0|0:0,0:0:0:0:
239,260,53096,2,0,L|235:336,1,60,8|0,0:0|0:0,0:0:0:0:
134,347,53412,2,0,L|131:288,1,60,2|0,0:0|0:0,0:0:0:0:
167,189,53728,6,0,P|143:161|164:74,2,120,8|2|8,0:0|0:0|0:0,0:0:0:0:
272,165,54517,1,0,0:0:0:0:
353,235,54675,2,0,B|366:290|341:277|352:341,1,90,2|0,0:0|0:0,0:0:0:0:
353,354,54991,5,12,0:0:0:0:
101,213,55307,5,10,3:1:0:0:
101,213,55465,1,0,3:1:0:0:
195,266,55623,1,10,3:1:0:0:
195,266,55781,1,0,3:1:0:0:
293,220,55939,5,10,3:1:0:0:
293,220,56096,2,0,B|273:177|293:137|293:137|312:96|294:57|294:57|369:20|415:77,1,300,8|0,3:1|0:0,0:0:0:0:
473,282,57202,6,0,L|466:358,1,60,0|0,0:0|0:0,0:0:0:0:
373,288,57517,6,0,P|334:265|236:284,1,143.999995605469,4|8,0:1|0:1,0:0:0:0:
144,330,57991,2,0,L|172:164,1,143.999995605469,0|0,0:1|0:1,0:0:0:0:
258,128,58465,1,8,0:1:0:0:
328,210,58623,2,0,B|407:221|407:221|480:180,1,143.999995605469,0|0,0:1|0:1,0:0:0:0:
393,106,59096,2,0,P|356:85|308:86,1,71.9999978027344,10|0,0:1|0:1,0:0:0:0:
225,120,59412,2,0,P|204:157|205:205,1,71.9999978027344,2|0,0:1|0:1,0:0:0:0:
239,288,59728,2,0,P|276:309|324:308,1,71.9999978027344,10|0,0:1|0:1,0:0:0:0:
407,274,60044,6,0,L|410:119,1,143.999995605469,2|8,0:1|0:1,0:0:0:0:
316,184,60517,2,0,P|260:154|174:178,1,143.999995605469,0|0,0:1|0:1,0:0:0:0:
241,252,60991,1,8,0:1:0:0:
316,184,61149,2,0,P|314:120|328:17,1,143.999995605469,0|0,0:1|0:1,0:0:0:0:
419,145,61623,2,0,L|400:225,1,71.9999978027344,10|0,0:1|0:1,0:0:0:0:
506,285,61939,2,0,L|489:214,1,71.9999978027344,2|0,0:1|0:1,0:0:0:0:
435,74,62254,2,0,L|416:154,1,71.9999978027344,10|0,0:1|0:0,0:0:0:0:
342,260,62570,6,0,P|288:241|201:274,1,143.999995605469,2|8,0:1|0:1,0:0:0:0:
122,334,63044,1,0,0:1:0:0:
122,334,63123,1,0,0:1:0:0:
122,334,63202,2,0,L|103:253,1,71.9999978027344,0|0,0:1|0:1,0:0:0:0:
124,157,63517,1,8,0:1:0:0:
200,80,63675,2,0,L|357:49,1,143.999995605469,0|0,0:1|0:1,0:0:0:0:
425,120,64149,2,0,P|431:163|424:198,1,71.9999978027344,10|0,0:1|0:1,0:0:0:0:
379,280,64454,2,0,P|344:306|310:318,1,71.9999978027344,0|0,0:0|0:0,0:0:0:0:
202,329,64781,2,0,P|161:312|134:289,1,71.9999978027344,10|0,0:1|0:1,0:0:0:0:
84,202,65096,6,0,L|95:119,1,71.9999978027344,6|0,0:1|0:1,0:0:0:0:
183,23,65412,2,0,L|172:106,1,71.9999978027344,8|0,0:1|0:0,0:0:0:0:
77,196,65728,6,0,L|95:114,1,71.9999978027344,6|0,3:1|0:1,0:0:0:0:
189,28,66044,2,0,L|170:109,1,71.9999978027344,8|0,0:1|0:0,0:0:0:0:
71,189,66360,6,0,L|96:109,1,71.9999978027344,6|0,3:1|0:1,0:0:0:0:
194,34,66676,2,0,L|169:114,1,71.9999978027344,8|0,0:1|0:1,0:0:0:0:
168,233,66991,5,10,3:1:0:0:
277,212,67149,1,0,3:1:0:0:
240,313,67307,1,10,3:1:0:0:
240,313,67623,6,0,B|339:325|339:325|404:301,1,143.999995605469,6|8,0:1|0:1,0:0:0:0:
460,237,68096,1,0,0:1:0:0:
404,144,68254,2,0,P|388:96|454:-1,1,143.999995605469,2|8,0:1|0:1,0:0:0:0:
501,92,68728,1,0,0:1:0:0:
404,144,68886,2,0,L|258:120,1,143.999995605469,6|8,0:1|0:1,0:0:0:0:
161,78,69360,1,0,0:1:0:0:
73,140,69517,2,0,P|52:184|84:257,1,107.999996704102,2|0,0:1|0:0,0:0:0:0:
92,264,69833,1,8,0:1:0:0:
192,225,69991,1,0,0:1:0:0:
280,286,70149,6,0,L|409:277,1,107.999996704102,6|0,0:1|0:0,0:0:0:0:
420,295,70465,2,0,P|419:252|434:200,1,71.9999978027344,8|0,0:1|0:1,0:0:0:0:
447,117,70781,2,0,P|395:135|300:73,1,143.999995605469,2|8,0:1|0:1,0:0:0:0:
226,41,71254,1,0,0:0:0:0:
142,109,71412,2,0,L|160:273,1,143.999995605469,2|8,0:1|0:1,0:0:0:0:
238,333,71886,1,0,0:1:0:0:
350,351,72044,2,0,L|365:207,1,143.999995605469,10|8,0:1|0:1,0:0:0:0:
334,104,72517,1,0,0:1:0:0:
233,65,72675,6,0,P|194:71|149:99,1,71.9999978027344,14|0,0:1|0:1,0:0:0:0:
165,201,72991,2,0,P|189:170|236:145,1,71.9999978027344,10|0,0:1|0:1,0:0:0:0:
316,210,73307,2,0,P|276:216|231:244,1,71.9999978027344,10|0,0:1|0:1,0:0:0:0:
248,346,73623,2,0,P|272:315|319:290,1,71.9999978027344,10|0,0:1|0:1,0:0:0:0:
385,268,73939,6,0,L|372:360,1,71.9999978027344,14|0,0:1|0:1,0:0:0:0:
498,294,74254,2,0,L|488:223,1,71.9999978027344,10|0,0:1|0:1,0:0:0:0:
341,127,74570,2,0,L|328:219,1,71.9999978027344,10|0,0:1|0:1,0:0:0:0:
509,139,74885,2,0,L|498:67,1,71.9999978027344,10|0,0:1|0:1,0:0:0:0:
399,21,75202,5,2,0:1:0:0:
399,21,75360,2,0,L|307:27,1,71.9999978027344,2|8,0:1|0:1,0:0:0:0:
258,109,75675,2,0,P|194:112|122:61,1,143.999995605469,0|0,0:0|0:1,0:0:0:0:
217,6,76149,1,2,0:1:0:0:
258,109,76307,6,0,L|243:266,1,143.999995605469,14|2,0:1|0:1,0:0:0:0:
328,321,76781,2,0,P|348:277|345:242,1,71.9999978027344,10|2,0:1|0:1,0:0:0:0:
379,150,77096,2,0,L|414:161,3,35.9999989013672,10|0|2|0,0:1|0:1|0:1|0:1,0:0:0:0:
439,186,77412,2,0,L|474:175,3,35.9999989013672,8|0|0|0,0:1|0:1|0:1|0:1,0:0:0:0:
503,154,77728,6,0,L|513:262,1,96,0|0,0:1|0:1,0:0:0:0:
437,311,78202,2,0,P|390:294|341:304,1,96,0|0,0:1|0:1,0:0:0:0:
260,345,78675,1,2,0:0:0:0:
166,321,78833,2,0,P|136:284|128:237,1,96,2|0,0:0|0:0,0:0:0:0:
152,143,79307,1,2,0:0:0:0:
342,116,79623,1,2,0:0:0:0:
268,293,79939,1,2,0:0:0:0:
268,293,80096,1,0,0:0:0:0:
268,293,80254,6,0,L|368:282,1,96,2|2,0:0|0:0,0:0:0:0:
418,202,80728,2,0,P|405:165|416:96,1,96,2|0,0:0|0:0,0:0:0:0:
448,20,81202,1,2,0:0:0:0:
448,20,81360,2,0,L|352:30,1,96,2|0,0:0|0:0,0:0:0:0:
257,46,81833,1,2,0:0:0:0:
138,197,82149,1,2,0:0:0:0:
328,218,82465,2,0,P|320:180|325:157,1,48,2|0,0:0|0:0,0:0:0:0:
416,186,82781,6,0,L|405:292,1,96,2|2,0:0|0:0,0:0:0:0:
330,340,83254,2,0,P|290:323|232:323,1,96,2|0,0:0|0:0,0:0:0:0:
144,345,83728,1,2,0:0:0:0:
144,345,83886,1,2,0:0:0:0:
59,300,84044,2,0,L|46:190,1,96,2|2,0:0|0:0,0:0:0:0:
194,80,84675,2,0,L|207:190,1,96,2|2,0:0|0:0,0:0:0:0:
372,271,85307,6,0,P|362:226|298:207,1,96,2|2,0:0|0:0,0:0:0:0:
235,250,85781,1,0,0:0:0:0:
169,180,85939,5,2,0:0:0:0:
20,218,86570,1,2,0:0:0:0:
86,356,87202,1,2,0:0:0:0:
86,356,87517,2,0,L|96:302,1,48,2|0,0:0|0:0,0:0:0:0:
182,345,87833,6,0,B|229:360|274:343|274:343|325:326|369:343,1,192,2|0,0:0|0:0,0:0:0:0:
454,279,89096,2,0,B|480:189|480:189|446:79,1,192,2|2,0:0|0:0,0:0:0:0:
352,31,90044,1,2,0:0:0:0:
263,112,90360,6,0,B|247:96|247:96|190:63|146:159|198:213|218:216,1,192,2|0,0:0|0:0,0:0:0:0:
263,112,91623,2,0,B|284:117|284:117|341:150|280:236|208:218|195:202,1,192,2|2,0:0|0:0,0:0:0:0:
263,112,92886,5,2,0:0:0:0:
256,192,92965,12,6,95412,0:1:0:0:
