osu file format v14

[General]
AudioFilename: audio.mp3
AudioLeadIn: 0
PreviewTime: 57044
Countdown: 0
SampleSet: Soft
StackLeniency: 0.4
Mode: 2
LetterboxInBreaks: 0
WidescreenStoryboard: 0

[Editor]
Bookmarks: 57044
DistanceSpacing: 2
BeatDivisor: 4
GridSize: 8
TimelineZoom: 2.6

[Metadata]
Title:Re:TrymenT
TitleUnicode:Re:TrymenT
Artist:Hotaru Murasaki
ArtistUnicode:紫咲ほたる
Creator:_Meep_
Version:Ascendance's DreaM
Source:Re:LieF~親愛なるあなたへ~
Tags:visual novel short レリーフ dear you shin'ainaru anata e Eroge DTM9 Nowa 619 Opening Rask opening Re:LieF~DeaR YoU~ re tryment Sinnoh Ascendance Yaleufeu
BeatmapID:1209998
BeatmapSetID:518004

[Difficulty]
HPDrainRate:7
CircleSize:4.2
OverallDifficulty:9.4
ApproachRate:9.4
SliderMultiplier:1.92
SliderTickRate:2

[Events]
//Background and Video events
0,0,"Tryment.jpg",0,0
Video,0,"ReTrymenT.avi"
//Break Periods
//Storyboard Layer 0 (Background)
//Storyboard Layer 1 (Fail)
//Storyboard Layer 2 (Pass)
//Storyboard Layer 3 (Foreground)
//Storyboard Sound Samples

[TimingPoints]
1939,315.789473684211,4,2,1,40,1,0
57517,-100,4,1,1,70,0,1
77728,-100,4,2,1,40,0,0

[Colours]
Combo1 : 251,142,218
Combo2 : 219,225,225
Combo3 : 192,254,137
Combo4 : 255,187,119
Combo5 : 207,155,255
Combo6 : 255,255,149

[HitObjects]
168,328,1939,6,0,L|160:224,1,96,2|0,0:0|0:0,0:0:0:0:
248,168,2254,1,2,0:0:0:0:
136,40,2412,2,0,P|72:104|160:160,1,192,2|0,0:0|0:0,0:0:0:0:
248,168,2886,6,0,P|312:232|240:288,1,192,2|2,0:0|0:0,0:0:0:0:
144,288,3360,1,0,0:0:0:0:
256,288,3517,1,0,0:0:0:0:
104,288,3675,2,0,B|80:184|80:184|88:88,1,192,2|0,0:0|0:0,0:0:0:0:
240,40,4149,2,0,L|144:48,1,96,2|0,0:0|0:0,0:0:0:0:
312,96,4465,6,0,L|432:112,2,96,2|0|2,0:0|0:0|0:0,0:0:0:0:
184,136,4939,2,0,P|136:192|184:296,1,192,2|2,0:0|0:0,0:0:0:0:
296,344,5412,2,0,L|400:336,1,96,2|0,0:0|0:0,0:0:0:0:
128,296,5728,6,0,P|64:216|104:120,1,192,2|0,0:0|0:0,0:0:0:0:
208,24,6202,2,0,P|264:88|224:184,1,192,2|0,0:0|0:0,0:0:0:0:
448,296,6675,2,0,L|456:192,1,96,2|0,0:0|0:0,0:0:0:0:
200,160,6991,6,0,L|104:176,2,96,2|0|2,0:0|0:0|0:0,0:0:0:0:
320,208,7465,2,0,L|448:224,2,96,2|0|0,0:0|0:0|0:0,0:0:0:0:
480,176,7939,2,0,P|504:112|416:16,1,192,2|2,0:0|0:0,0:0:0:0:
320,304,8412,2,0,L|432:296,1,96,0|2,0:0|0:0,0:0:0:0:
40,152,8886,2,0,L|64:352,1,192,2|2,0:0|0:0,0:0:0:0:
496,256,9517,6,0,L|456:48,1,192,2|2,0:0|0:0,0:0:0:0:
336,40,9991,2,0,P|280:88|368:168,1,192,2|0,0:0|0:0,0:0:0:0:
96,128,10465,2,0,L|120:304,1,144,2|0,0:0|0:0,0:0:0:0:
400,320,10781,6,0,P|448:256|432:144,1,192,2|0,0:0|0:0,0:0:0:0:
200,48,11254,2,0,P|160:112|232:224,1,192,2|0,0:0|0:0,0:0:0:0:
464,56,11728,2,0,L|384:64,1,48,2|0,0:0|0:0,0:0:0:0:
120,240,11886,2,0,L|200:232,1,48,0|0,0:0|0:0,0:0:0:0:
376,304,12044,6,0,L|480:296,2,96,4|0|8,0:1|0:0|0:0,0:0:0:0:
224,256,12517,2,0,P|184:192|240:88,1,192,0|0,0:0|0:0,0:0:0:0:
336,48,12991,2,0,L|464:56,1,96,8|0,0:0|0:0,0:0:0:0:
144,136,13307,6,0,L|248:144,2,96,2|0|8,0:0|0:0|0:0,0:0:0:0:
256,224,13781,2,0,P|304:160|232:80,1,192,2|0,3:2|3:2,0:0:0:0:
104,320,14254,2,0,L|208:312,1,96,8|0,3:2|0:0,0:0:0:0:
480,216,14570,6,0,L|288:232,1,192,6|10,0:0|0:0,0:0:0:0:
40,96,15044,2,0,L|144:104,1,96,2|0,0:0|0:0,0:0:0:0:
304,200,15360,2,0,L|192:208,1,96,2|8,0:0|0:0,0:0:0:0:
424,272,15675,6,0,P|456:216|384:112,1,192,2|2,0:0|0:0,0:0:0:0:
344,104,16070,1,0,0:0:0:0:
88,64,16149,2,0,L|216:72,1,96,10|2,3:2|3:2,0:0:0:0:
296,152,16465,2,0,L|288:256,1,96,8|2,3:2|3:2,0:0:0:0:
152,256,16781,2,0,L|144:368,1,96,10|2,3:2|3:2,0:0:0:0:
192,240,17017,1,0,0:0:0:0:
408,160,17096,6,0,L|504:168,2,96,14|0|10,0:0|0:0|0:0,0:0:0:0:
160,64,17570,2,0,P|112:128|176:216,1,192,2|0,3:2|3:2,0:0:0:0:
280,272,18044,2,0,L|384:272,1,96,8|2,3:2|0:0,0:0:0:0:
416,304,18281,1,2,0:0:0:0:
80,312,18360,5,2,3:2:0:0:
208,312,18517,1,0,0:0:0:0:
80,312,18675,1,8,0:0:0:0:
344,312,18833,2,0,P|400:280|424:152,1,192,2|0,3:2|3:2,0:0:0:0:
200,56,19307,2,0,L|328:64,1,96,10|0,3:2|0:0,0:0:0:0:
48,128,19623,5,2,0:0:0:0:
184,184,19781,1,0,0:0:0:0:
48,232,19939,1,10,0:0:0:0:
296,144,20096,2,0,L|424:152,2,96,2|4|0,0:0|0:0|0:0,0:0:0:0:
184,184,20570,2,0,L|144:96,1,96,10|2,0:0|0:0,0:0:0:0:
384,32,20886,6,0,P|464:80|344:296,1,384,10|2,0:0|2:0,0:0:0:0:
48,280,22149,5,4,0:0:0:0:
264,224,22465,2,0,L|280:128,1,96,2|0,0:0|0:0,0:0:0:0:
160,40,22781,2,0,P|128:96|152:216,1,192,2|0,0:0|0:0,0:0:0:0:
256,248,23254,1,2,0:0:0:0:
144,320,23412,6,0,L|344:320,1,192,2|2,0:0|0:0,0:0:0:0:
120,208,24044,2,0,L|232:208,2,96,2|0|2,0:0|0:0|0:0,0:0:0:0:
384,208,24675,5,2,0:0:0:0:
176,136,24991,2,0,L|368:136,1,192,2|2,0:0|0:0,0:0:0:0:
96,216,25623,1,0,0:0:0:0:
216,216,25781,1,2,0:0:0:0:
96,216,25939,6,0,L|304:216,1,192,2|2,0:0|0:0,0:0:0:0:
472,112,26570,2,0,L|280:112,1,192,2|2,0:0|0:0,0:0:0:0:
160,112,27044,1,0,0:0:0:0:
424,144,27202,6,0,L|400:248,1,96,10|0,0:0|0:0,0:0:0:0:
256,224,27517,2,0,L|272:344,1,96,2|0,0:0|0:0,0:0:0:0:
416,328,27833,2,0,P|448:272|392:168,1,192,2|2,0:0|0:0,0:0:0:0:
248,48,28307,2,0,P|208:112|272:216,1,192,2|0,0:0|0:0,0:0:0:0:
344,240,28781,1,2,0:0:0:0:
176,328,29096,2,0,L|384:328,1,192,2|2,0:0|0:0,0:0:0:0:
96,264,29728,6,0,L|72:56,1,192,2|2,0:0|0:0,0:0:0:0:
192,96,30202,2,0,P|256:120|384:88,1,192,2|0,0:0|0:0,0:0:0:0:
472,48,30675,1,2,0:0:0:0:
240,152,30991,5,2,0:0:0:0:
384,192,31149,2,0,L|360:296,1,96,0|2,0:0|0:0,0:0:0:0:
224,320,31465,1,2,0:0:0:0:
104,240,31623,2,0,L|208:240,1,96,10|8,0:0|0:0,0:0:0:0:
64,160,31939,2,0,L|160:160,1,96,10|0,0:0|0:0,0:0:0:0:
440,160,32254,5,2,0:0:0:0:
184,176,32570,2,0,L|192:288,1,96,2|0,0:0|0:0,0:0:0:0:
288,320,32886,1,2,0:0:0:0:
400,312,33044,1,2,0:0:0:0:
176,336,33360,1,2,0:0:0:0:
288,280,33517,6,0,L|296:144,1,96,2|0,0:0|0:0,0:0:0:0:
192,56,33833,2,0,P|128:112|136:192,1,144,2|0,0:0|0:0,0:0:0:0:
176,200,34149,1,2,0:0:0:0:
432,176,34465,2,0,L|312:176,1,96,0|0,0:0|0:0,0:0:0:0:
64,176,34781,5,2,0:0:0:0:
280,184,35096,2,0,L|296:72,1,96,2|0,0:0|0:0,0:0:0:0:
160,208,35412,2,0,L|176:328,1,96,2|2,0:0|0:0,0:0:0:0:
328,344,35886,1,2,0:0:0:0:
432,280,36044,6,0,L|448:184,3,96,2|0|2|0,0:0|0:0|0:0|0:0,0:0:0:0:
328,128,36675,2,0,L|136:112,1,192,2|2,0:0|0:0,0:0:0:0:
384,72,37307,5,2,0:0:0:0:
208,168,37623,2,0,L|224:272,1,96,2|0,0:0|0:0,0:0:0:0:
312,312,37939,2,0,L|504:288,1,192,2|2,0:0|0:0,0:0:0:0:
392,232,38412,6,0,P|344:160|400:64,1,192,2|0,0:0|0:0,0:0:0:0:
464,40,38886,1,2,0:0:0:0:
248,184,39202,2,0,L|48:176,1,192,2|2,0:0|0:0,0:0:0:0:
448,48,39833,6,0,P|488:104|440:208,1,192,2|0,0:0|0:0,0:0:0:0:
192,336,40465,2,0,P|160:264|224:176,1,192,2|2,0:0|0:0,0:0:0:0:
336,176,40939,2,0,P|384:96|320:16,1,192,2|0,0:0|0:0,0:0:0:0:
80,104,41412,6,0,L|120:200,1,96,2|2,0:0|0:0,0:0:0:0:
272,208,41728,2,0,L|312:304,1,96,2|2,0:0|0:0,0:0:0:0:
464,328,42044,2,0,L|472:192,1,96,10|0,0:0|0:0,0:0:0:0:
176,88,42360,6,0,L|80:96,2,96,12|0|0,0:0|0:0|0:0,0:0:0:0:
296,104,42833,2,0,P|336:144|296:264,1,192,0|0,0:0|0:0,0:0:0:0:
192,288,43307,1,8,3:1:0:0:
360,288,43465,1,10,3:1:0:0:
240,224,43623,6,0,L|256:120,1,96,0|8,0:0|3:1,0:0:0:0:
400,40,43939,2,0,L|384:136,1,96,0|0,0:0|0:0,0:0:0:0:
248,200,44254,2,0,L|264:304,2,96,0|0|8,0:0|0:0|0:0,0:0:0:0:
120,144,44728,1,0,0:0:0:0:
376,40,44886,6,0,P|432:96|408:208,1,192,12|8,0:0|0:0,0:0:0:0:
296,224,45360,1,0,0:0:0:0:
416,296,45517,2,0,L|312:296,2,96,8|0|8,0:0|0:0|3:1,0:0:0:0:
152,248,45991,6,0,P|112:184|168:80,1,192,8|8,3:1|3:1,0:0:0:0:
272,40,46465,2,0,L|376:48,1,96,0|10,0:0|0:0,0:0:0:0:
224,112,46781,2,0,L|112:104,1,96,10|8,0:1|0:0,0:0:0:0:
432,280,47096,2,0,L|440:216,1,48,2|0,3:1|0:0,0:0:0:0:
192,352,47254,2,0,L|184:296,1,48,10|0,3:1|0:0,0:0:0:0:
400,40,47412,6,0,P|456:104|408:192,1,192,12|0,0:0|0:0,0:0:0:0:
320,208,47886,1,0,0:0:0:0:
48,232,48044,1,8,0:0:0:0:
240,304,48360,2,0,L|128:304,1,96,0|0,0:0|0:0,0:0:0:0:
240,304,48675,6,0,L|376:304,2,96,0|8|0,0:0|0:0|0:0,0:0:0:0:
144,304,49149,1,0,0:0:0:0:
416,216,49307,2,0,L|304:216,1,96,10|10,0:1|0:0,0:0:0:0:
64,96,49623,2,0,L|200:96,1,96,2|2,3:1|3:1,0:0:0:0:
416,88,49939,6,0,P|472:144|416:224,1,192,4|0,0:0|0:0,0:0:0:0:
320,232,50412,1,0,0:0:0:0:
184,160,50570,2,0,L|280:160,1,96,8|0,0:0|0:0,0:0:0:0:
448,88,50886,2,0,L|320:88,1,96,0|0,0:0|0:0,0:0:0:0:
104,88,51202,6,0,P|40:152|112:216,1,192,0|8,0:0|0:0,0:0:0:0:
200,216,51675,1,2,0:1:0:0:
96,304,51833,2,0,L|200:304,1,96,10|10,0:1|0:1,0:0:0:0:
472,176,52149,2,0,L|360:176,1,96,2|2,3:1|3:1,0:0:0:0:
64,88,52465,6,0,L|160:88,1,96,12|0,0:0|0:0,0:0:0:0:
304,176,52781,2,0,L|168:176,1,96,2|0,0:0|0:0,0:0:0:0:
464,96,53096,2,0,L|368:96,1,96,8|0,0:0|0:0,0:0:0:0:
88,240,53412,2,0,L|216:240,1,96,2|0,0:0|0:0,0:0:0:0:
232,208,53649,1,0,0:0:0:0:
464,56,53728,6,0,L|448:160,1,96,8|0,0:0|0:0,0:0:0:0:
280,224,54044,2,0,L|296:336,1,96,2|0,0:0|0:0,0:0:0:0:
24,160,54360,2,0,L|128:144,1,96,8|0,0:0|0:0,0:0:0:0:
448,240,54675,2,0,L|344:224,1,96,2|0,0:0|0:0,0:0:0:0:
304,256,54912,1,0,0:0:0:0:
96,336,54991,6,0,L|72:176,1,144,12|0,0:0|0:0,0:0:0:0:
408,80,55307,2,0,L|312:88,1,96,10|0,3:1|3:1,0:0:0:0:
88,128,55623,1,10,3:1:0:0:
376,208,55781,1,0,3:1:0:0:
48,264,55939,1,10,3:1:0:0:
432,320,56096,6,0,B|464:280|448:168|320:144|264:136|264:136|368:152|480:80,1,480,8|0,3:1|0:0,0:0:0:0:
400,72,57202,6,0,L|416:128,1,48,0|0,0:0|0:0,0:0:0:0:
104,176,57360,2,0,L|96:224,1,48,0|0,0:0|0:0,0:0:0:0:
368,312,57517,6,0,L|464:304,1,96,4|0,0:1|0:1,0:0:0:0:
112,248,57833,1,8,0:1:0:0:
232,184,57991,2,0,L|232:88,1,96,0|0,0:1|0:1,0:0:0:0:
120,48,58307,1,0,0:1:0:0:
440,48,58465,1,8,0:1:0:0:
80,128,58623,6,0,P|56:192|160:272,1,192,0|0,0:1|0:1,0:0:0:0:
424,336,59096,2,0,L|304:336,1,96,10|0,0:1|0:1,0:0:0:0:
184,232,59412,2,0,L|312:232,1,96,2|0,0:1|0:1,0:0:0:0:
408,192,59728,1,10,0:1:0:0:
441,158,59806,1,0,0:0:0:0:
446,111,59885,1,0,0:1:0:0:
421,71,59964,1,0,0:0:0:0:
184,56,60044,6,0,L|64:56,1,96,2|0,0:1|0:1,0:0:0:0:
376,128,60360,1,8,0:1:0:0:
280,128,60517,2,0,L|168:128,2,96,0|0|0,0:1|0:1|0:1,0:0:0:0:
40,184,60991,1,8,0:1:0:0:
400,280,61149,6,0,P|456:208|376:128,1,192,0|0,0:1|0:1,0:0:0:0:
80,80,61623,2,0,L|104:184,1,96,10|0,0:1|0:1,0:0:0:0:
352,208,61939,2,0,L|336:304,1,96,2|0,0:1|0:1,0:0:0:0:
48,344,62254,2,0,L|24:192,1,144,10|0,0:1|0:1,0:0:0:0:
248,120,62570,6,0,L|368:112,1,96,2|0,0:1|0:1,0:0:0:0:
168,184,62886,1,8,0:1:0:0:
280,288,63044,1,0,0:1:0:0:
283,240,63122,1,0,0:1:0:0:
287,192,63201,1,0,0:1:0:0:
168,184,63360,1,0,0:1:0:0:
432,184,63517,1,8,0:1:0:0:
56,64,63675,6,0,L|64:264,1,192,0|0,0:1|0:1,0:0:0:0:
392,328,64149,2,0,L|368:232,1,96,10|0,0:1|0:1,0:0:0:0:
136,176,64465,2,0,L|160:72,1,96,2|0,0:1|0:1,0:0:0:0:
376,48,64781,1,10,0:1:0:0:
422,55,64859,1,0,0:0:0:0:
459,85,64938,1,0,0:1:0:0:
475,130,65017,1,0,0:0:0:0:
152,288,65096,5,6,0:1:0:0:
288,288,65254,1,0,0:1:0:0:
48,200,65412,1,8,0:1:0:0:
184,200,65570,1,0,0:0:0:0:
472,64,65728,5,6,3:1:0:0:
336,64,65886,1,0,0:1:0:0:
40,160,66044,1,8,0:1:0:0:
176,160,66202,1,0,0:0:0:0:
464,256,66360,6,0,L|360:256,1,96,6|0,3:1|0:1,0:0:0:0:
112,144,66675,2,0,L|224:144,1,96,8|0,0:1|0:1,0:0:0:0:
336,144,66991,1,10,3:1:0:0:
208,144,67149,1,0,3:1:0:0:
496,144,67307,1,10,3:1:0:0:
64,144,67465,1,0,0:0:0:0:
376,280,67623,6,0,P|400:216|312:136,1,192,6|8,0:1|0:1,0:0:0:0:
72,136,68096,1,0,0:1:0:0:
336,104,68254,2,0,L|448:104,2,96,2|0|8,0:1|0:1|0:1,0:0:0:0:
208,104,68728,1,0,0:1:0:0:
480,240,68886,6,0,L|272:240,1,192,6|8,0:1|0:1,0:0:0:0:
40,232,69360,1,0,0:1:0:0:
304,176,69517,2,0,P|360:128|288:40,1,192,2|8,0:1|0:1,0:0:0:0:
152,32,69991,1,0,0:1:0:0:
440,152,70149,6,0,L|328:152,1,96,6|0,0:1|0:1,0:0:0:0:
80,272,70465,2,0,L|200:272,1,96,8|0,0:1|0:1,0:0:0:0:
328,224,70781,2,0,L|224:224,2,96,2|0|8,0:1|0:1|0:1,0:0:0:0:
440,224,71254,1,0,0:0:0:0:
120,192,71412,6,0,L|96:96,1,96,2|0,0:1|0:1,0:0:0:0:
432,96,71728,2,0,L|416:208,1,96,8|0,0:1|0:1,0:0:0:0:
152,352,72044,1,10,0:1:0:0:
123,314,72122,1,0,0:0:0:0:
124,267,72201,1,0,0:1:0:0:
155,231,72280,1,0,0:0:0:0:
352,160,72360,2,0,L|400:152,1,48,8|0,0:1|0:0,0:0:0:0:
128,112,72517,2,0,L|120:40,1,48,0|0,0:1|0:0,0:0:0:0:
384,64,72675,6,0,L|480:72,1,96,14|0,0:1|0:1,0:0:0:0:
64,176,72991,2,0,L|176:184,1,96,10|0,0:1|0:1,0:0:0:0:
472,296,73307,2,0,L|336:280,1,96,10|0,0:1|0:1,0:0:0:0:
56,72,73623,2,0,L|192:96,1,96,10|0,0:1|0:1,0:0:0:0:
408,64,73939,5,14,0:1:0:0:
256,64,74096,1,0,0:1:0:0:
496,64,74254,1,10,0:1:0:0:
64,64,74412,1,0,0:1:0:0:
472,136,74570,2,0,L|464:232,1,96,10|0,0:1|0:1,0:0:0:0:
56,184,74886,2,0,L|64:296,1,96,10|0,0:1|0:1,0:0:0:0:
112,312,75123,1,0,0:0:0:0:
368,240,75202,6,0,L|480:240,1,96,2|2,0:1|0:1,0:0:0:0:
112,168,75517,1,8,0:1:0:0:
480,72,75675,2,0,L|352:72,1,96,0|8,0:0|0:0,0:0:0:0:
80,152,75991,2,0,L|176:152,1,96,0|2,0:1|0:1,0:0:0:0:
464,248,76307,6,0,L|256:248,1,192,14|2,0:1|0:1,0:0:0:0:
224,232,76702,1,0,0:0:0:0:
400,136,76781,2,0,L|448:136,1,48,10|0,0:1|0:1,0:0:0:0:
168,64,76939,2,0,L|104:64,1,48,2|0,0:1|0:1,0:0:0:0:
400,136,77096,6,0,L|392:208,1,48,10|0,0:1|0:1,0:0:0:0:
176,232,77254,2,0,L|168:296,1,48,2|0,0:1|0:1,0:0:0:0:
352,336,77412,1,8,0:1:0:0:
380,298,77490,1,0,0:1:0:0:
382,251,77569,1,0,0:1:0:0:
355,212,77648,1,0,0:1:0:0:
168,152,77728,6,0,L|72:152,2,96,0|0|0,0:1|0:0|0:1,0:0:0:0:
280,152,78202,2,0,P|328:184|248:288,1,192,0|0,0:1|0:1,0:0:0:0:
192,328,78675,2,0,L|96:328,1,96,2|2,0:0|0:0,0:0:0:0:
280,280,78991,6,0,L|320:88,1,192,2|2,0:0|0:0,0:0:0:0:
56,64,79623,2,0,L|88:264,1,192,2|2,0:0|0:0,0:0:0:0:
192,288,80096,1,0,0:0:0:0:
448,248,80254,6,0,L|344:248,2,96,2|0|2,0:0|0:0|0:0,0:0:0:0:
288,200,80728,2,0,P|256:144|328:48,1,192,2|0,0:0|0:0,0:0:0:0:
424,48,81202,1,2,0:0:0:0:
136,56,81360,6,0,P|72:112|160:264,1,288,2|2,0:0|0:0,0:0:0:0:
360,288,82149,2,0,L|168:296,1,192,2|2,0:0|0:0,0:0:0:0:
424,240,82781,6,0,L|448:128,2,96,2|2|2,0:0|0:0|0:0,0:0:0:0:
320,152,83254,2,0,L|104:160,1,192,2|0,0:0|0:0,0:0:0:0:
248,80,83728,2,0,L|360:72,1,96,2|2,0:0|0:0,0:0:0:0:
64,320,84044,6,0,L|40:120,1,192,2|2,0:0|0:0,0:0:0:0:
240,56,84675,2,0,L|208:256,1,192,2|2,0:0|0:0,0:0:0:0:
416,320,85307,6,0,P|472:272|424:160,1,192,2|2,0:0|0:0,0:0:0:0:
232,64,85939,2,0,P|184:120|248:216,1,192,2|2,0:0|0:0,0:0:0:0:
344,224,86412,2,0,P|392:272|328:368,1,192,2|0,0:0|0:0,0:0:0:0:
248,376,86886,1,0,0:0:0:0:
464,248,87202,2,0,L|264:248,1,192,2|2,0:0|0:0,0:0:0:0:
88,248,87833,6,0,B|48:200|72:88|72:88|96:120|152:152|288:152|256:144|192:152|88:216,1,480,2|0,0:0|0:0,0:0:0:0:
248,272,88781,2,0,L|376:264,1,96,0|0,0:0|0:0,0:0:0:0:
40,176,89096,5,2,0:0:0:0:
184,176,89412,1,2,0:0:0:0:
320,176,89728,1,2,0:0:0:0:
480,176,90044,1,2,0:0:0:0:
80,32,90360,6,0,B|0:112|0:112|168:88|240:112|240:112|136:104|64:128|48:176|64:224|128:288|192:288,1,720,2|0,0:0|0:0,0:0:0:0:
448,344,91623,6,0,B|496:216|496:216|440:248|304:208|304:208|392:216|472:184|480:128|432:64|400:56|352:48|256:48,1,720,2|2,0:0|0:0,0:0:0:0:
24,80,92886,5,2,0:0:0:0:
256,192,93044,12,6,95412,0:1:0:0:
