osu file format v14

[General]
AudioFilename: audio.mp3
AudioLeadIn: 0
PreviewTime: 57044
Countdown: 0
SampleSet: Normal
StackLeniency: 0.7
Mode: 0
LetterboxInBreaks: 0
WidescreenStoryboard: 0

[Editor]
Bookmarks: -34
DistanceSpacing: 1
BeatDivisor: 4
GridSize: 16
TimelineZoom: 2.5

[Metadata]
Title:Re:TrymenT
TitleUnicode:Re:TrymenT
Artist:Hotaru Murasaki
ArtistUnicode:紫咲ほたる
Creator:_Meep_
Version:619's NormaL
Source:Re:LieF~親愛なるあなたへ~
Tags:visual novel short レリーフ dear you shin'ainaru anata e Eroge DTM9 Nowa 619 Opening Rask opening Re:LieF~DeaR YoU~ re tryment Sinnoh Ascendance Yaleufeu
BeatmapID:1104520
BeatmapSetID:518004

[Difficulty]
HPDrainRate:3
CircleSize:3
OverallDifficulty:4
ApproachRate:5
SliderMultiplier:1
SliderTickRate:1

[Events]
//Background and Video events
0,0,"Tryment.jpg",0,0
Video,0,"ReTrymenT.avi"
//Break Periods
//Storyboard Layer 0 (Background)
//Storyboard Layer 1 (Fail)
//Storyboard Layer 2 (Pass)
//Storyboard Layer 3 (Foreground)
//Storyboard Sound Samples

[TimingPoints]
1939,315.789473684211,4,2,1,40,1,0
1939,-100,4,2,1,40,0,0
10781,-100,4,2,1,60,0,0
22149,-100,4,2,1,30,0,0
42360,-100,4,1,1,60,0,0
57517,-100,4,1,1,70,0,1
67623,-100,4,1,1,60,0,0
72675,-100,4,1,1,70,0,1
77728,-100,4,2,1,40,0,0
87833,-100,4,2,1,30,0,0
89096,-100,4,2,1,40,0,0
89728,-100,4,2,1,40,0,0
92886,-100,4,2,1,30,0,0
93517,-100,4,2,1,25,0,0
94149,-100,4,2,1,20,0,0
94781,-100,4,2,1,15,0,0
95412,-100,4,1,1,10,0,0

[Colours]
Combo1 : 251,142,218
Combo2 : 219,225,225
Combo3 : 192,254,137
Combo4 : 255,187,119
Combo5 : 207,155,255
Combo6 : 255,255,149
SliderBorder : 255,255,149

[HitObjects]
402,58,1939,6,0,P|417:159|398:206,1,150,2|0,0:0|0:0,0:0:0:0:
287,299,2886,2,0,L|226:287,1,50,2|0,0:0|0:0,0:0:0:0:
189,277,3202,2,0,B|159:260|115:265|115:265|98:232|60:215,2,150,2|2|2,0:0|0:0|0:0,0:0:0:0:
251,198,4465,6,0,P|259:145|243:83,1,100,2|2,0:0|0:0,0:0:0:0:
229,54,4939,2,0,L|123:48,1,100,2|2,0:0|0:0,0:0:0:0:
80,41,5412,1,2,0:0:0:0:
30,127,5728,6,0,L|36:237,1,100,2|0,0:0|0:0,0:0:0:0:
44,276,6202,2,0,P|111:284|148:269,1,100,2|0,0:0|0:0,0:0:0:0:
186,255,6675,1,2,0:0:0:0:
250,178,6991,6,0,P|284:274|254:328,1,150,2|0,0:0|0:0,0:0:0:0:
120,345,7939,1,0,0:0:0:0:
82,252,8254,2,0,P|70:203|74:141,1,100,2|2,0:0|0:0,0:0:0:0:
71,53,8886,2,0,L|179:50,1,100
256,102,9517,6,0,P|340:111|402:71,2,150,2|2|2,0:0|0:0|0:0,0:0:0:0:
159,128,10781,2,0,P|151:208|144:284,2,150,2|2|2,0:0|0:0|0:0,0:0:0:0:
59,142,12044,6,0,L|49:242,1,100,12|8,0:1|0:0,0:0:0:0:
144,277,12675,2,0,P|193:291|246:287,1,100,8|8,0:0|0:0,0:0:0:0:
293,295,13149,1,0,0:0:0:0:
293,295,13307,2,0,P|299:238|290:186,1,100,10|8,0:0|0:0,0:0:0:0:
282,146,13781,2,0,P|342:126|381:44,1,150,2|0,3:2|3:2,0:0:0:0:
282,46,14570,6,0,P|220:64|190:104,1,100,14|10,0:0|0:0,0:0:0:0:
179,136,15044,2,0,P|186:189|217:228,2,100,2|2|2,0:0|0:0|0:0,0:0:0:0:
282,146,15991,1,2,0:0:0:0:
282,146,16149,6,0,L|392:149,1,100,10|10,0:0|0:0,0:0:0:0:
431,160,16623,1,2,0:0:0:0:
431,160,16781,2,0,L|421:228,1,50,8|2,0:0|0:0,0:0:0:0:
408,257,17096,6,0,P|367:284|309:294,1,100,14|0,0:0|0:0,0:0:0:0:
268,286,17570,2,0,P|227:259|169:249,1,100,8|8,0:0|0:0,0:0:0:0:
128,240,18044,1,4,0:0:0:0:
27,232,18360,2,0,B|29:183|29:183|44:127,1,100,8|8,0:0|0:0,0:0:0:0:
57,86,18833,2,0,P|128:104|210:80,1,150,2|0,0:0|0:0,0:0:0:0:
301,78,19623,6,0,B|294:128|320:177|320:177|295:227|301:281,2,200,10|12|10,0:0|0:0|0:0,0:0:0:0:
500,87,21517,1,4,0:0:0:0:
301,78,22149,6,0,L|196:70,1,100,4|2,0:0|0:0,0:0:0:0:
100,71,22781,1,2,0:0:0:0:
144,160,23096,1,0,0:0:0:0:
185,251,23412,2,0,P|130:260|86:242,1,100,2|2,0:0|0:0,0:0:0:0:
144,160,24044,2,0,P|199:151|243:169,1,100,2|2,0:0|0:0,0:0:0:0:
298,247,24675,6,0,L|288:358,1,100,2|2,0:0|0:0,0:0:0:0:
388,345,25307,2,0,L|398:234,1,100,2|0,0:0|0:0,0:0:0:0:
410,145,25939,1,6,0:0:0:0:
464,61,26254,1,2,0:0:0:0:
363,58,26570,2,0,P|314:60|252:44,1,100,2|2,0:0|0:0,0:0:0:0:
164,46,27202,6,0,L|103:56,2,50,10|0|2,0:0|0:0|0:0,0:0:0:0:
264,49,27833,1,2,0:0:0:0:
224,140,28149,1,2,0:0:0:0:
222,240,28465,2,0,P|224:299|201:354,1,100,0|2,0:0|0:0,0:0:0:0:
110,337,29096,2,0,P|95:289|99:239,1,100,2|2,0:0|0:0,0:0:0:0:
123,142,29728,6,0,P|75:145|21:124,2,100,2|2|0,0:0|0:0|0:0,0:0:0:0:
223,140,30675,1,0,0:0:0:0:
221,39,30991,2,0,P|270:31|320:34,1,100,2|2,0:0|0:0,0:0:0:0:
369,32,31465,1,2,0:0:0:0:
369,32,31623,2,0,L|381:105,1,50,10|8,0:0|0:0,0:0:0:0:
378,131,31939,2,0,L|366:204,1,50,8|0,0:0|0:0,0:0:0:0:
375,230,32254,6,0,L|494:222,1,100,6|2,0:0|0:0,0:0:0:0:
481,323,32886,2,0,L|362:331,1,100,2|0,0:0|0:0,0:0:0:0:
330,329,33360,1,2,0:0:0:0:
330,329,33517,2,0,B|288:304|288:304|261:261,1,100,2|2,0:0|0:0,0:0:0:0:
338,196,34149,2,0,P|345:138|332:82,1,100,2|2,0:0|0:0,0:0:0:0:
246,55,34781,6,0,L|134:42,1,100,2|2,0:0|0:0,0:0:0:0:
112,138,35412,2,0,L|224:151,1,100,2|0,0:0|0:0,0:0:0:0:
261,155,35886,1,2,0:0:0:0:
261,155,36044,2,0,P|317:128|345:77,1,100,2|2,0:0|0:0,0:0:0:0:
425,49,36675,2,0,B|435:85|435:85|427:164,1,100,2|2,0:0|0:0,0:0:0:0:
408,245,37307,6,0,P|440:247|461:242,2,50,2|0|2,0:0|0:0|0:0,0:0:0:0:
318,289,37939,2,0,P|309:233|332:180,1,100,2|2,0:0|0:0,0:0:0:0:
345,148,38412,1,2,0:0:0:0:
345,148,38570,2,0,L|234:132,1,100,2|2,0:0|0:0,0:0:0:0:
155,89,39202,2,0,P|145:134|160:188,1,100,2|2,0:0|0:0,0:0:0:0:
181,282,39833,6,0,L|69:274,1,100,2|0,0:0|0:0,0:0:0:0:
30,188,40465,2,0,L|21:78,1,100,2|2,0:0|0:0,0:0:0:0:
19,38,40939,1,2,0:0:0:0:
117,55,41254,1,0,0:0:0:0:
117,55,41412,6,0,L|174:47,1,50,2|2,0:0|0:0,0:0:0:0:
216,49,41728,2,0,L|265:55,1,50,2|2,0:0|0:0,0:0:0:0:
315,55,42044,2,0,L|372:47,1,50,10|0,0:0|0:0,0:0:0:0:
414,44,42360,6,0,B|418:88|418:88|408:156,1,100,12|8,0:0|0:0,0:0:0:0:
421,242,42991,2,0,P|367:233|327:198,1,100,8|8,0:0|3:1,0:0:0:0:
297,169,43465,1,2,3:1:0:0:
297,169,43623,2,0,B|247:156|247:156|193:159,1,100,8|8,0:0|0:0,0:0:0:0:
101,133,44254,2,0,P|100:184|124:228,1,100,8|8,0:0|0:0,0:0:0:0:
199,159,44886,6,0,P|200:108|176:64,2,100,12|8|8,0:0|0:0|0:0,0:0:0:0:
122,226,45833,1,8,3:1:0:0:
122,226,45991,2,0,P|189:260|259:241,1,150,8|8,0:0|0:0,0:0:0:0:
354,266,46781,2,0,P|354:219|327:171,1,100
325,122,47254,1,2,3:1:0:0:
325,122,47412,6,0,P|389:115|425:97,2,100,12|8|8,0:0|0:0|0:0,0:0:0:0:
224,120,48360,1,8,0:0:0:0:
159,43,48675,1,8,0:0:0:0:
60,60,48991,2,0,L|52:118,1,50,8|0,0:0|0:0,0:0:0:0:
51,159,49307,2,0,L|59:217,1,50,10|10,0:1|0:1,0:0:0:0:
71,256,49623,1,10,3:1:0:0:
152,313,49939,6,0,P|170:252|156:206,1,100,12|8,0:0|0:0,0:0:0:0:
197,125,50570,2,0,L|306:125,1,100,8|8,0:0|0:0,0:0:0:0:
332,219,51202,2,0,P|324:267|342:314,1,100,8|8,0:0|0:0,0:0:0:0:
377,349,51675,1,2,0:1:0:0:
377,349,51833,2,0,L|440:336,1,50,10|10,0:1|0:1,0:0:0:0:
475,327,52149,2,0,L|481:262,1,50,10|2,3:1|3:1,0:0:0:0:
483,226,52465,6,0,P|483:169|463:112,1,100,12|10,0:0|0:0,0:0:0:0:
392,66,53096,2,0,L|290:59,1,100,8|10,0:0|0:0,0:0:0:0:
241,59,53570,1,8,0:0:0:0:
241,59,53728,2,0,L|141:65,1,100,8|10,0:0|0:0,0:0:0:0:
50,108,54360,2,0,P|85:148|136:165,1,100,8|10,0:0|0:0,0:0:0:0:
178,173,54833,1,8,0:0:0:0:
178,173,54991,6,0,L|178:279,1,100,12|10,0:0|3:1,0:0:0:0:
272,306,55623,2,0,L|272:200,1,100,10|10,0:0|3:1,0:0:0:0:
274,156,56096,2,0,P|358:88|262:53,1,250,0|10,0:0|0:0,0:0:0:0:
73,83,57517,6,0,P|86:132|87:192,1,100,12|8,0:0|0:0,0:0:0:0:
33,265,58149,2,0,P|78:280|133:270,1,100,8|8,0:0|0:0,0:0:0:0:
175,253,58623,1,0,0:0:0:0:
175,253,58781,2,0,L|189:152,1,100,8|10,0:0|0:0,0:0:0:0:
241,69,59412,2,0,P|278:109|289:158,1,100,10|10,0:0|0:0,0:0:0:0:
291,202,59886,1,0,0:0:0:0:
291,202,60044,6,0,L|399:189,1,100,10|8,0:0|0:0,0:0:0:0:
406,288,60675,2,0,L|298:301,1,100,8|8,0:0|0:0,0:0:0:0:
256,305,61149,1,0,0:0:0:0:
256,305,61307,2,0,P|207:283|180:237,1,100,8|10,0:0|0:0,0:0:0:0:
190,145,61939,2,0,P|137:155|100:187,1,100,10|10,0:0|0:0,0:0:0:0:
54,197,62412,1,0,0:0:0:0:
54,197,62570,6,0,L|52:94,1,100,8|8,0:0|0:0,0:0:0:0:
138,46,63202,2,0,P|186:35|244:56,1,100,10|8,0:0|0:0,0:0:0:0:
279,70,63675,1,0,0:0:0:0:
279,70,63833,2,0,P|326:83|374:72,1,100,8|10,0:0|0:0,0:0:0:0:
474,66,64465,2,0,L|466:122,1,50,10|0,0:0|0:0,0:0:0:0:
469,165,64781,2,0,L|477:221,1,50,10|0,0:0|0:0,0:0:0:0:
479,264,65096,6,0,P|428:254|374:264,1,100,6|0,3:1|0:0,0:0:0:0:
289,303,65728,2,0,L|298:199,1,100,14|0,3:1|0:0,0:0:0:0:
197,201,66360,2,0,L|188:305,1,100,14|0,3:1|0:0,0:0:0:0:
88,298,66991,2,0,L|97:194,1,100,14|10,3:1|3:1,0:0:0:0:
152,115,67623,6,0,P|185:153|197:202,1,100,14|8,0:0|0:0,0:0:0:0:
208,248,68096,1,0,0:0:0:0:
208,248,68254,2,0,L|310:268,1,100,10|8,0:0|0:0,0:0:0:0:
355,277,68728,1,0,0:0:0:0:
355,277,68886,2,0,P|351:228|373:173,1,100,10|0,0:0|0:0,0:0:0:0:
398,140,69360,1,0,0:0:0:0:
398,140,69517,2,0,B|519:137,1,100,10|8,0:0|0:0,0:0:0:0:
488,37,70149,6,0,B|367:40,1,100,14|8,0:0|0:0,0:0:0:0:
305,96,70781,2,0,P|295:145|309:193,1,100,10|8,0:0|0:0,0:0:0:0:
311,292,71412,2,0,L|201:304,1,100,14|8,0:0|0:0,0:0:0:0:
111,291,72044,2,0,P|74:262|55:213,1,100,10|8,0:0|0:0,0:0:0:0:
61,164,72517,1,8,0:0:0:0:
61,164,72675,6,0,L|166:164,1,100,4|0,0:0|0:0,0:0:0:0:
259,171,73307,1,10,0:0:0:0:
288,75,73623,1,10,0:0:0:0:
387,83,73939,2,0,P|442:81|486:51,2,100,14|10|10,0:0|0:0|0:0,0:0:0:0:
288,75,74886,1,10,0:0:0:0:
293,174,75202,6,0,L|293:240,1,50,14|2,0:0|0:0,0:0:0:0:
199,259,75675,2,0,L|195:205,1,50,14|0,0:0|0:0,0:0:0:0:
115,155,76149,1,0,0:0:0:0:
115,155,76307,2,0,P|127:72|179:21,2,150,6|0|0,0:0|0:0|0:0,0:0:0:0:
117,204,77412,1,0,0:0:0:0:
199,259,77728,6,0,B|294:315|400:252,2,200,6|0|2,0:0|0:0|0:0,0:0:0:0:
27,156,79623,1,0,0:0:0:0:
203,62,80254,2,0,B|298:5|393:61,2,200,6|0|2,0:0|0:0|0:0,0:0:0:0:
104,236,82149,2,0,P|106:286|132:340,1,100,2|2,0:0|0:0,0:0:0:0:
226,338,82781,6,0,P|314:290|253:225,1,200,2|0,0:0|0:0,0:0:0:0:
177,51,84044,2,0,P|88:98|149:163,1,200,2|2,0:0|0:0,0:0:0:0:
227,132,84991,1,2,0:0:0:0:
322,101,85307,6,0,P|321:169|302:200,1,100,2|0,0:0|0:0,0:0:0:0:
263,286,85939,2,0,L|163:276,1,100,2|2,0:0|0:0,0:0:0:0:
78,223,86570,2,0,P|63:269|74:323,2,100,2|0|2,0:0|0:0|0:0,0:0:0:0:
135,141,87517,1,2,0:0:0:0:
232,162,87833,6,0,B|290:163|329:189|329:189|370:161|440:160,2,200,2|0|2,0:0|0:0|0:0,0:0:0:0:
33,134,89728,2,0,P|19:85|30:38,1,100,2|2,0:0|0:0,0:0:0:0:
119,83,90360,6,0,P|123:177|41:234,2,200,2|0|2,0:0|0:0|0:0,0:0:0:0:
33,134,91939,1,0,0:0:0:0:
118,83,92254,2,0,P|168:76|217:81,1,100,0|2,0:0|0:0,0:0:0:0:
256,192,92886,12,4,95412,0:0:0:0:
