osu file format v14

[General]
AudioFilename: audio.mp3
AudioLeadIn: 0
PreviewTime: 57039
Countdown: 0
SampleSet: Soft
StackLeniency: 0.4
Mode: 0
LetterboxInBreaks: 0
WidescreenStoryboard: 0

[Editor]
Bookmarks: 14091,14249,14407
DistanceSpacing: 1.5
BeatDivisor: 4
GridSize: 4
TimelineZoom: 2.6

[Metadata]
Title:Re:TrymenT
TitleUnicode:Re:TrymenT
Artist:Hotaru Murasaki
ArtistUnicode:紫咲ほたる
Creator:Shiratoi
Version:Yamicchi's Insane
Source:Re:LieF〜親愛なるあなたへ〜
Tags:eroge visual novel relief 甘利紗陽 saya amari Shin'ainaru Anata e レリーフ DeaR YoU retryment miu yuu game op rask opening nevo yamicchi lince cosmico foxygrandpa ultima fox lilyanna time capsule
BeatmapID:1363671
BeatmapSetID:636072

[Difficulty]
HPDrainRate:6
CircleSize:4
OverallDifficulty:7
ApproachRate:9
SliderMultiplier:1.7
SliderTickRate:1

[Events]
//Background and Video events
0,0,"Yamicchi.jpg",0,0
//Break Periods
//Storyboard Layer 0 (Background)
//Storyboard Layer 1 (Fail)
//Storyboard Layer 2 (Pass)
//Storyboard Layer 3 (Foreground)
//Storyboard Sound Samples

[TimingPoints]
1934,315.789473684211,4,2,2,40,1,0
1934,-133.333333333333,4,2,2,40,0,0
10776,-100,4,2,2,50,0,0
11170,-100,4,2,2,10,0,0
11249,-100,4,2,2,60,0,0
11723,-100,4,2,2,50,0,0
12039,-100,4,2,1,70,0,0
14565,-133.333333333333,4,2,1,70,0,0
14802,-133.333333333333,4,2,1,20,0,0
14881,-133.333333333333,4,2,1,90,0,0
14960,-133.333333333333,4,2,1,20,0,0
15039,-133.333333333333,4,2,1,70,0,0
17328,-133.333333333333,4,2,1,20,0,0
17407,-133.333333333333,4,2,1,70,0,0
17802,-133.333333333333,4,2,1,20,0,0
17881,-133.333333333333,4,2,1,70,0,0
19065,-133.333333333333,4,2,1,20,0,0
19144,-133.333333333333,4,2,1,70,0,0
21355,-200,4,2,2,40,0,0
22144,-133.333333333333,4,2,2,50,0,0
28065,-133.333333333333,4,2,2,20,0,0
28144,-133.333333333333,4,2,2,50,0,0
29012,-133.333333333333,4,2,2,20,0,0
29091,-133.333333333333,4,2,2,50,0,0
29960,-133.333333333333,4,2,2,20,0,0
30039,-133.333333333333,4,2,2,50,0,0
30907,-133.333333333333,4,2,1,20,0,0
30986,-133.333333333333,4,2,1,50,0,0
31302,-133.333333333333,4,2,2,70,0,0
32249,-133.333333333333,4,2,1,50,0,0
32565,-133.333333333333,4,2,2,50,0,0
34697,-133.333333333333,4,2,1,20,0,0
34776,-133.333333333333,4,2,1,50,0,0
35091,-133.333333333333,4,2,2,50,0,0
37223,-133.333333333333,4,2,1,20,0,0
37302,-133.333333333333,4,2,1,50,0,0
37618,-133.333333333333,4,2,2,50,0,0
38881,-133.333333333333,4,2,1,50,0,0
39197,-133.333333333333,4,2,2,50,0,0
39749,-133.333333333333,4,2,1,20,0,0
39828,-133.333333333333,4,2,1,50,0,0
40460,-133.333333333333,4,2,2,50,0,0
41407,-133.333333333333,4,2,2,70,0,0
42355,-100,4,2,1,60,0,0
44802,-100,4,2,1,20,0,0
44881,-100,4,2,1,60,0,0
52460,-100,4,2,1,50,0,0
54986,-100,4,2,1,60,0,0
56091,-166.666666666667,4,2,1,50,0,0
56802,-166.666666666667,4,2,1,20,0,0
56881,-66.6666666666667,4,2,1,70,0,0
57197,-83.3333333333333,4,2,2,50,0,0
57276,-83.3333333333333,4,2,2,20,0,0
57355,-83.3333333333333,4,2,2,50,0,0
57434,-83.3333333333333,4,2,2,20,0,0
57512,-83.3333333333333,4,2,1,80,0,1
57749,-83.3333333333333,4,2,1,20,0,1
57828,-83.3333333333333,4,2,1,80,0,1
60276,-83.3333333333333,4,2,1,20,0,1
60355,-83.3333333333333,4,2,1,80,0,1
62486,-83.3333333333333,4,2,1,20,0,1
62565,-83.3333333333333,4,2,1,80,0,1
64065,-83.3333333333333,4,2,1,20,0,1
64144,-83.3333333333333,4,2,1,80,0,1
65091,-83.3333333333333,4,2,1,90,0,1
65328,-83.3333333333333,4,2,1,20,0,1
65407,-83.3333333333333,4,2,1,90,0,1
65644,-83.3333333333333,4,2,1,20,0,1
65723,-83.3333333333333,4,2,1,90,0,1
65960,-83.3333333333333,4,2,1,20,0,1
66039,-83.3333333333333,4,2,1,90,0,1
66276,-83.3333333333333,4,2,1,20,0,1
66355,-83.3333333333333,4,2,1,90,0,1
66591,-83.3333333333333,4,2,1,20,0,1
66670,-83.3333333333333,4,2,1,90,0,1
66907,-83.3333333333333,4,2,1,20,0,1
66986,-83.3333333333333,4,2,1,90,0,1
67618,-83.3333333333333,4,2,1,80,0,1
71407,-90.9090909090909,4,2,1,80,0,1
71723,-100,4,2,1,80,0,1
72039,-111.111111111111,4,2,1,80,0,1
72670,-83.3333333333333,4,2,1,80,0,1
76302,-83.3333333333333,4,2,1,90,0,1
77723,-125,4,2,1,60,0,0
78039,-125,4,2,2,60,0,0
87828,-166.666666666667,4,2,2,60,0,0
90355,-200,4,2,2,50,0,0
91460,-200,4,2,2,5,0,0
91618,-200,4,2,2,50,0,0
92723,-200,4,2,2,5,0,0
92881,-200,4,2,2,50,0,0
95407,-200,4,2,2,20,0,0

[Colours]
Combo1 : 141,220,155
Combo2 : 184,142,112
Combo3 : 174,201,139
Combo4 : 71,184,181

[HitObjects]
112,136,1934,6,0,P|104:104|104:72,2,63.7500024318696,2|0|0,0:0|0:0|0:0,0:0:0:0:
216,208,2407,2,0,P|272:192|344:192,1,127.500004863739,2|0,0:0|0:0,0:0:0:0:
416,200,2881,1,2,0:0:0:0:
416,200,3197,6,0,P|424:232|424:272,2,63.7500024318696,2|0|0,0:0|0:0|0:0,0:0:0:0:
347,72,3670,2,0,P|323:130|340:191,1,127.500004863739,2|0,0:0|0:0,0:0:0:0:
416,200,4144,1,2,0:0:0:0:
152,288,4460,6,0,P|112:280|88:280,2,63.7500024318696,6|0|0,0:0|0:0|0:0,0:0:0:0:
272,344,4934,2,0,P|264:272|264:208,1,127.500004863739,2|0,0:0|0:0,0:0:0:0:
296,144,5407,1,2,0:0:0:0:
296,144,5723,6,0,B|248:120|200:144|200:144|152:168|96:144,2,191.250007295609,2|2|2,0:0|0:0|0:0,0:0:0:0:
296,144,6986,6,0,P|304:104|304:80,2,63.7500024318696,4|0|0,0:0|0:0|0:0,0:0:0:0:
384,232,7460,2,0,P|424:208|480:272,1,127.500004863739,2|0,0:0|0:0,0:0:0:0:
472,328,7934,1,2,0:0:0:0:
472,328,8249,6,0,P|376:320|344:320,1,127.500004863739,6|0,0:0|0:0,0:0:0:0:
132,356,8881,2,0,P|195:355|259:348,1,127.500004863739,2|2,0:0|0:0,0:0:0:0:
48,320,9512,6,0,P|24:280|48:200,1,127.500004863739,6|0,0:0|0:0,0:0:0:0:
139,143,9986,2,0,P|116:183|35:203,1,127.500004863739,2|0,0:0|0:0,0:0:0:0:
139,143,10460,2,0,P|176:120|208:120,1,63.7500024318696,2|0,0:0|0:0,0:0:0:0:
368,224,10776,6,0,L|192:208,1,170,2|0,0:0|0:0,0:0:0:0:
320,112,11249,2,0,L|496:96,1,170,2|0,0:0|0:0,0:0:0:0:
424,320,11723,2,0,L|316:310,1,85,2|8,0:0|0:0,0:0:0:0:
120,284,12039,5,6,0:0:0:0:
116,268,12355,1,2,0:0:0:0:
112,252,12670,1,2,0:0:0:0:
108,236,12986,1,2,0:0:0:0:
220,80,13302,5,2,0:0:0:0:
216,96,13618,1,2,0:0:0:0:
308,96,13776,1,8,3:0:0:0:
212,112,13933,1,0,0:0:0:0:
304,112,14091,1,2,0:0:0:0:
208,128,14249,1,8,0:0:0:0:
333,232,14565,6,0,L|401:224,1,63.7500024318696,6|0,0:0|0:0,0:0:0:0:
269,304,14881,1,2,0:0:0:0:
269,304,15039,2,0,L|228:249,1,63.7500024318696,0|2,0:0|0:0,0:0:0:0:
364,324,15355,2,0,L|336:386,1,63.7500024318696,0|2,0:0|0:0,0:0:0:0:
333,232,15670,2,0,L|358:173,1,63.7500024318696,8|0,0:0|0:0,0:0:0:0:
500,247,15986,1,8,3:0:0:0:
500,247,16065,1,0,0:0:0:0:
500,247,16144,5,8,0:0:0:0:
269,304,16302,1,8,3:0:0:0:
446,190,16460,1,0,0:0:0:0:
401,343,16618,1,8,3:0:0:0:
346,285,16776,1,8,0:0:0:0:
423,266,16934,1,8,0:0:0:0:
246,380,17091,6,0,P|204:348|200:264,1,127.500004863739,6|2,0:0|0:0,0:0:0:0:
305,123,17565,2,0,P|300:184|253:225,1,127.500004863739,8|0,3:0|0:0,0:0:0:0:
179,200,18039,1,2,0:0:0:0:
244,72,18197,1,2,0:0:0:0:
244,72,18276,1,2,0:0:0:0:
244,72,18355,2,0,L|392:64,1,127.500004863739,2|2,0:0|0:0,0:0:0:0:
508,184,18828,2,0,L|360:176,1,127.500004863739,8|2,3:0|0:0,0:0:0:0:
305,123,19302,2,0,P|288:164|292:200,1,63.7500024318696,8|0,0:0|0:0,0:0:0:0:
361,269,19618,5,2,0:0:0:0:
508,184,19776,1,0,0:0:0:0:
497,337,19934,1,0,0:0:0:0:
380,269,20091,1,0,0:0:0:0:
488,218,20249,1,6,0:0:0:0:
487,320,20407,1,0,0:0:0:0:
420,269,20565,1,0,0:0:0:0:
469,252,20723,1,0,0:0:0:0:
458,270,20881,5,2,0:0:0:0:
458,270,21355,6,0,L|472:248,2,21.25,2|2|2,0:0|0:0|0:0,0:0:0:0:
458,270,22144,5,2,0:0:0:0:
260,236,22460,2,0,L|268:368,2,127.500004863739,0|2|0,0:0|0:0|0:0,0:0:0:0:
300,168,23249,1,0,0:0:0:0:
338,236,23407,2,0,P|374:195|363:120,1,127.500004863739,0|0,0:0|0:0,0:0:0:0:
213,95,24039,2,0,P|174:143|183:204,1,127.500004863739,2|0,0:0|0:0,0:0:0:0:
338,236,24670,5,2,0:0:0:0:
196,336,24986,2,0,P|148:328|60:336,2,127.500004863739,0|2|0,0:0|0:0|0:0,0:0:0:0:
272,352,25776,1,0,0:0:0:0:
349,349,25934,2,0,P|367:290|337:235,1,127.500004863739,0|0,0:0|0:0,0:0:0:0:
276,68,26565,2,0,P|257:127|287:181,1,127.500004863739,2|0,0:0|0:0,0:0:0:0:
472,68,27197,6,0,L|404:71,1,63.7500024318696,2|0,0:0|0:0,0:0:0:0:
336,119,27512,2,0,L|468:111,2,127.500004863739,0|2|0,0:0|0:0|0:0,0:0:0:0:
276,68,28302,2,0,P|220:92|140:84,1,127.500004863739,0|0,0:0|0:0,0:0:0:0:
72,76,28776,2,0,P|120:112|153:185,2,127.500004863739,0|2|0,0:0|0:0|0:0,0:0:0:0:
181,249,29723,6,0,P|188:188|235:123,1,127.500004863739,2|0,0:0|0:0,0:0:0:0:
396,184,30197,2,0,P|340:208|260:200,1,127.500004863739,0|0,0:0|0:0,0:0:0:0:
285,68,30670,2,0,P|303:95|311:125,1,63.7500024318696,0|0,0:0|0:0,0:0:0:0:
181,249,30986,2,0,P|163:275|154:305,1,63.7500024318696,0|0,0:0|0:0,0:0:0:0:
356,308,31302,5,2,0:0:0:0:
448,332,31460,1,0,0:0:0:0:
500,272,31618,1,2,0:0:0:0:
488,220,31776,1,0,0:0:0:0:
464,200,31934,1,2,0:0:0:0:
448,196,32091,1,2,0:0:0:0:
290,242,32249,6,0,P|264:299|280:360,1,127.500004863739,2|0,0:0|0:0,0:0:0:0:
448,196,32881,1,8,0:0:0:0:
360,164,33039,2,0,P|316:168|232:168,1,127.500004863739,0|0,0:0|0:0,0:0:0:0:
128,164,33512,1,0,0:0:0:0:
120,180,33828,1,0,0:0:0:0:
112,196,34144,1,8,0:0:0:0:
104,212,34460,1,0,0:0:0:0:
244,368,34776,6,0,P|304:340|372:352,1,127.500004863739,2|0,0:0|0:0,0:0:0:0:
192,288,35407,1,8,0:0:0:0:
148,373,35565,2,0,L|136:232,1,127.500004863739,0|0,0:0|0:0,0:0:0:0:
192,104,36039,1,2,0:0:0:0:
200,120,36355,1,0,0:0:0:0:
208,136,36671,1,8,0:0:0:0:
216,152,36987,1,0,0:0:0:0:
292,320,37302,6,0,P|340:312|376:308,1,63.7500024318696,2|0,0:0|0:0,0:0:0:0:
490,361,37618,2,0,P|459:357|428:352,1,63.7500024318696,0|0,0:0|0:0,0:0:0:0:
376,231,37934,2,0,P|311:239|241:252,1,127.500004863739,8|0,0:0|0:0,0:0:0:0:
208,320,38407,2,0,P|200:256|140:216,1,127.500004863739,0|8,0:0|0:0,0:0:0:0:
68,244,38881,2,0,P|42:303|74:368,2,127.500004863739,0|8|0,0:0|0:0|0:0,0:0:0:0:
224,132,39828,6,0,P|328:136|364:136,1,127.500004863739,2|0,0:0|0:0,0:0:0:0:
452,64,40302,1,0,0:0:0:0:
452,64,40460,2,0,P|430:165|423:201,1,127.500004863739,8|0,0:0|0:0,0:0:0:0:
414,280,40934,2,0,P|446:272|478:268,1,63.7500024318696,8|0,0:0|0:0,0:0:0:0:
404,370,41249,1,0,0:0:0:0:
248,232,41407,5,2,0:0:0:0:
425,188,41565,1,0,0:0:0:0:
331,316,41723,2,0,L|320:248,2,63.7500024318696,2|0|2,0:0|0:0|0:0,0:0:0:0:
404,370,42197,1,2,0:0:0:0:
240,316,42355,6,0,P|144:328|68:332,1,170,6|2,0:0|0:0,0:0:0:0:
124,160,42828,2,0,P|140:204|148:252,2,85,0|2|0,0:0|0:0|0:0,0:0:0:0:
4,48,43302,1,8,3:0:0:0:
4,48,43460,2,0,L|88:40,1,85,10|0,0:0|0:0,0:0:0:0:
192,100,43776,2,0,L|276:92,2,85,8|8|0,3:0|0:0|0:0,0:0:0:0:
44,168,44249,1,2,0:0:0:0:
108,36,44407,1,0,0:0:0:0:
32,188,44565,2,0,L|116:180,1,85,8|0,0:0|0:0,0:0:0:0:
280,176,44881,6,0,P|208:220|196:320,1,170,6|2,0:0|0:0,0:0:0:0:
321,362,45355,2,0,P|316:321|296:284,2,85,0|2|0,0:0|0:0|0:0,0:0:0:0:
176,312,45828,1,8,3:0:0:0:
296,188,45986,2,0,P|352:180|396:176,1,85,10|0,0:0|0:0,0:0:0:0:
500,272,46302,2,0,P|457:267|415:261,1,85,8|8,3:0|0:0,0:0:0:0:
280,176,46618,5,0,0:0:0:0:
248,256,46776,1,8,0:0:0:0:
308,376,46934,1,2,0:0:0:0:
346,226,47091,1,8,0:0:0:0:
164,184,47249,1,2,0:0:0:0:
299,93,47407,6,0,P|355:135|333:241,1,170,6|0,0:0|0:0,0:0:0:0:
164,184,47881,1,2,0:0:0:0:
164,184,48039,2,0,B|104:152|28:184|28:184|36:200|60:212,1,170,8|2,0:0|0:0,0:0:0:0:
184,264,48512,2,0,P|224:240|244:196,1,85,2|0,0:0|0:0,0:0:0:0:
108,72,48828,1,2,0:0:0:0:
164,184,48986,2,0,P|176:140|184:96,1,85,2|0,0:0|0:0,0:0:0:0:
288,0,49302,5,8,0:0:0:0:
464,40,49460,1,8,0:0:0:0:
428,152,49618,1,8,3:0:0:0:
341,172,49776,1,0,0:0:0:0:
284,104,49934,6,0,P|296:152|316:276,1,170,6|0,0:0|0:0,0:0:0:0:
112,220,50407,1,2,0:0:0:0:
112,220,50565,2,0,P|175:168|256:186,1,170,8|2,0:0|0:0,0:0:0:0:
192,343,51039,2,0,P|193:301|197:259,1,85,2|0,0:0|0:0,0:0:0:0:
341,172,51355,1,2,0:0:0:0:
212,72,51512,2,0,P|152:68|116:68,1,85,8|0,0:0|0:0,0:0:0:0:
112,220,51828,1,8,0:0:0:0:
252,220,51986,1,8,3:0:0:0:
88,316,52144,2,0,P|40:304|0:304,1,85,8|0,0:0|0:0,0:0:0:0:
180,356,52460,6,0,P|264:328|360:336,1,170,6|2,0:0|0:0,0:0:0:0:
507,347,52934,1,0,0:0:0:0:
507,347,53091,2,0,P|511:305|504:264,1,85,2|0,0:0|0:0,0:0:0:0:
372,120,53407,1,2,0:0:0:0:
304,252,53565,1,0,0:0:0:0:
304,252,53644,1,0,0:0:0:0:
304,252,53723,2,0,P|252:244|208:240,1,85,2|0,0:0|0:0,0:0:0:0:
424,192,54039,6,0,P|476:184|520:180,1,85,2|0,0:0|0:0,0:0:0:0:
280,160,54355,2,0,P|272:112|284:72,1,85,2|0,0:0|0:0,0:0:0:0:
460,0,54670,2,0,P|468:48|456:88,1,85,2|0,0:0|0:0,0:0:0:0:
448,100,54907,1,0,0:0:0:0:
448,100,54986,6,0,P|384:88|296:80,1,127.5,6|0,0:0|0:0,0:0:0:0:
281,77,55302,1,8,0:0:0:0:
224,220,55460,1,8,0:0:0:0:
396,188,55618,1,8,0:0:0:0:
200,144,55776,1,8,0:0:0:0:
256,336,55934,1,8,0:0:0:0:
40,344,56091,6,0,P|27:297|136:304,1,203.999993774414,6|0,0:0|0:0,0:0:0:0:
40,344,56881,6,0,B|16:315|36:274|36:274|-1:210|54:147,1,191.250007295609,2|0,1:0|0:0,0:0:0:0:
100,112,57197,6,0,P|116:144|120:168,1,50.9999984436036,2|0,0:0|0:0,0:0:0:0:
135,298,57355,2,0,P|119:266|115:242,1,50.9999984436036,2|0,0:0|0:0,0:0:0:0:
24,88,57512,6,0,P|105:75|144:72,1,101.999996887207,6|0,0:0|0:0,0:0:0:0:
280,116,57828,1,8,0:0:0:0:
192,204,57986,2,0,L|208:-4,1,203.999993774414,0|0,0:0|0:0,0:0:0:0:
388,48,58460,1,8,0:0:0:0:
280,116,58618,2,0,L|296:324,1,203.999993774414,0|0,0:0|0:0,0:0:0:0:
440,360,59091,2,0,P|396:384|344:380,1,101.999996887207,10|2,0:0|0:0,0:0:0:0:
192,332,59407,2,0,P|236:308|288:312,1,101.999996887207,2|2,0:0|0:0,0:0:0:0:
448,348,59723,1,8,0:0:0:0:
352,204,59881,1,0,0:0:0:0:
512,60,60039,6,0,P|436:48|392:44,1,101.999996887207,2|0,0:0|0:0,0:0:0:0:
264,168,60355,1,8,0:0:0:0:
180,76,60512,2,0,P|144:132|196:272,1,203.999993774414,0|0,0:0|0:0,0:0:0:0:
352,204,60986,1,8,0:0:0:0:
448,348,61144,6,0,P|372:336|244:324,1,203.999993774414,0|0,0:0|0:0,0:0:0:0:
104,232,61618,2,0,P|88:288|100:336,1,101.999996887207,10|2,0:0|0:0,0:0:0:0:
84,144,61934,2,0,P|43:102|-4:88,1,101.999996887207,2|2,0:0|0:0,0:0:0:0:
170,170,62249,2,0,P|250:162|280:160,1,101.999996887207,8|0,0:0|0:0,0:0:0:0:
408,232,62565,5,2,0:0:0:0:
408,232,62723,1,0,0:0:0:0:
276,339,62881,1,8,0:0:0:0:
188,196,63039,1,0,0:0:0:0:
188,196,63118,1,0,0:0:0:0:
188,196,63197,2,0,P|268:188|298:186,1,101.999996887207,2|0,0:0|0:0,0:0:0:0:
476,112,63512,5,8,0:0:0:0:
408,232,63670,2,0,L|392:20,1,203.999993774414,0|0,0:0|0:0,0:0:0:0:
204,16,64144,2,0,P|192:76|208:124,1,101.999996887207,10|2,0:0|0:0,0:0:0:0:
268,258,64460,2,0,P|280:198|264:150,1,101.999996887207,0|2,0:0|0:0,0:0:0:0:
112,164,64776,2,0,P|100:224|116:272,1,101.999996887207,10|0,0:0|0:0,0:0:0:0:
256,372,65091,5,6,0:0:0:0:
256,372,65249,1,0,0:0:0:0:
408,272,65407,2,0,L|524:280,1,101.999996887207,8|0,0:0|0:0,0:0:0:0:
252,348,65723,5,6,0:0:0:0:
252,348,65881,1,0,0:0:0:0:
136,260,66039,2,0,L|20:268,1,101.999996887207,8|0,0:0|0:0,0:0:0:0:
248,324,66355,5,6,0:0:0:0:
248,324,66513,1,0,0:0:0:0:
340,292,66671,2,0,L|456:300,1,101.999996887207,8|0,0:0|0:0,0:0:0:0:
240,300,66986,5,8,3:0:0:0:
256,192,67144,1,8,0:0:0:0:
240,300,67302,1,2,0:0:0:0:
456,32,67618,6,0,B|488:72|480:128|480:128|424:156|372:132,1,203.999993774414,6|0,0:0|0:0,0:0:0:0:
264,64,68091,1,2,0:0:0:0:
155,151,68249,2,0,B|113:172|57:144|57:144|49:88|81:48,1,203.999993774414,8|0,0:0|0:0,0:0:0:0:
256,80,68723,1,2,0:0:0:0:
256,80,68881,6,0,B|272:136|272:136|256:288,1,203.999993774414,4|2,0:0|0:0,0:0:0:0:
124,228,69355,1,0,0:0:0:0:
40,372,69512,2,0,P|116:368|152:368,1,101.999996887207,8|0,0:0|0:0,0:0:0:0:
288,352,69828,1,2,0:0:0:0:
220,216,69986,1,8,0:0:0:0:
296,368,70144,6,0,P|372:364|408:364,1,101.999996887207,2|0,0:0|0:0,0:0:0:0:
500,264,70460,2,0,P|425:246|390:240,1,101.999996887207,8|0,0:0|0:0,0:0:0:0:
232,232,70776,2,0,P|212:280|220:336,1,101.999996887207,2|0,2:0|2:0,0:0:0:0:
324,168,71091,2,0,P|344:120|336:64,1,101.999996887207,8|0,2:0|2:0,0:0:0:0:
176,20,71407,6,0,P|128:48|80:56,1,93.5000028533936,2|2,0:0|0:0,0:0:0:0:
2,102,71723,6,0,P|50:130|94:138,1,85,8|2,0:0|0:0,0:0:0:0:
168,180,72039,6,0,P|120:208|80:216,1,76.4999976654053,0|2,0:0|0:0,0:0:0:0:
2,102,72355,1,8,0:0:0:0:
26,374,72670,6,0,P|10:326|26:266,1,101.999996887207,6|2,0:0|0:0,0:0:0:0:
18,82,72986,2,0,P|67:92|111:135,1,101.999996887207,8|2,0:0|0:0,0:0:0:0:
274,221,73302,2,0,P|240:258|180:275,1,101.999996887207,8|2,0:0|0:0,0:0:0:0:
18,186,73618,1,8,0:0:0:0:
184,64,73776,1,2,0:0:0:0:
284,232,73934,6,0,B|296:288|296:288|288:352,1,101.999996887207,12|2,0:0|0:0,0:0:0:0:
432,120,74249,2,0,B|420:64|420:64|428:0,1,101.999996887207,8|2,0:0|0:0,0:0:0:0:
492,232,74565,2,0,P|436:248|380:236,1,101.999996887207,8|2,0:0|0:0,0:0:0:0:
224,128,74881,2,0,P|280:112|336:124,1,101.999996887207,2|2,0:0|0:0,0:0:0:0:
492,232,75197,5,12,0:0:0:0:
278,288,75355,1,2,0:0:0:0:
418,116,75512,1,8,0:0:0:0:
406,338,75670,1,8,0:0:0:0:
286,151,75828,1,0,0:0:0:0:
492,232,75986,1,2,0:0:0:0:
278,288,76144,1,0,0:0:0:0:
213,105,76302,6,0,B|148:60|64:104|64:104|48:128|44:147,1,203.999993774414,12|0,0:0|0:0,0:0:0:0:
8,276,76776,6,0,P|16:308|36:332,3,50.9999984436036,2|0|8|0,0:0|0:0|0:0|0:0,0:0:0:0:
88,376,77091,2,0,P|119:385|150:379,3,50.9999984436036,2|0|2|0,0:0|0:0|0:0|0:0,0:0:0:0:
212,352,77407,1,8,0:0:0:0:
241,327,77485,1,0,0:0:0:0:
276,314,77564,1,2,0:0:0:0:
314,313,77643,1,0,0:0:0:0:
350,326,77723,6,0,P|392:280|392:196,1,136,6|0,0:0|0:0,0:0:0:0:
317,110,78197,2,0,P|336:169|409:211,1,136,2|0,0:0|0:0,0:0:0:0:
428,104,78670,1,0,0:0:0:0:
304,20,78828,2,0,L|228:32,1,68,0|2,0:0|0:0,0:0:0:0:
220,32,79302,1,2,0:0:0:0:
204,36,79618,1,2,0:0:0:0:
188,40,79934,5,0,0:0:0:0:
168,124,80091,1,0,0:0:0:0:
96,172,80249,2,0,L|240:156,1,136,2|0,0:0|0:0,0:0:0:0:
312,280,80723,2,0,L|168:264,1,136,0|0,0:0|0:0,0:0:0:0:
252,156,81197,1,0,0:0:0:0:
320,296,81355,2,0,B|420:284,1,68,0|2,0:0|0:0,0:0:0:0:
408,284,81828,1,0,0:0:0:0:
427,281,82144,1,0,0:0:0:0:
447,279,82460,5,0,0:0:0:0:
488,124,82776,2,0,B|440:96|396:96|372:152|328:152|296:112|304:64|356:40|396:96,1,272,2|0,0:0|0:0,0:0:0:0:
236,188,83723,1,0,0:0:0:0:
236,188,83881,2,0,L|164:184,1,68,0|2,0:0|0:0,0:0:0:0:
148,184,84355,1,0,0:0:0:0:
128,183,84670,1,0,0:0:0:0:
108,182,84986,1,0,0:0:0:0:
28,332,85302,6,0,B|88:368|160:332|160:332|192:356|244:352,1,204,2|0,0:0|0:0,0:0:0:0:
304,336,85934,1,2,0:0:0:0:
420,192,86249,1,0,0:0:0:0:
420,192,86407,1,0,0:0:0:0:
420,192,86565,2,0,B|372:168|328:196|328:196|344:268|404:296|464:268,1,272,0|0,0:0|0:0,0:0:0:0:
472,260,87512,1,0,0:0:0:0:
432,104,87828,6,0,B|368:88|308:112|308:112|216:152|128:104,1,305.999990661621,2|0,0:0|0:0,0:0:0:0:
56,92,88934,2,0,L|64:160,1,50.9999984436036,0|0,0:0|0:0,0:0:0:0:
76,224,89723,1,0,0:0:0:0:
80,244,90039,1,0,0:0:0:0:
84,268,90355,6,0,B|104:268|128:276|128:276|152:260|180:256|180:256|236:292|296:276|320:224|312:176|256:160|232:188,2,340,6|6|6,0:0|0:0|0:0,0:0:0:0:
256,192,93039,12,4,95407,0:0:0:0:
