osu file format v14

[General]
AudioFilename: audio.mp3
AudioLeadIn: 0
PreviewTime: 57039
Countdown: 0
SampleSet: Soft
StackLeniency: 0.3
Mode: 0
LetterboxInBreaks: 0
WidescreenStoryboard: 1

[Editor]
Bookmarks: 22151,32256,42362,47414,52144,65098,67625,68888,70151,71414,72677,77730,87835,97941
DistanceSpacing: 0.7
BeatDivisor: 4
GridSize: 32
TimelineZoom: 1.9

[Metadata]
Title:Re:TrymenT
TitleUnicode:Re:TrymenT
Artist:Hotaru Murasaki
ArtistUnicode:紫咲ほたる
Creator:Shiratoi
Version:Nevo's Extra
Source:Re:LieF〜親愛なるあなたへ〜
Tags:eroge visual novel relief 甘利紗陽 saya amari Shin'ainaru Anata e レリーフ DeaR YoU retryment miu yuu game op rask opening nevo yamicchi lince cosmico foxygrandpa ultima fox lilyanna time capsule
BeatmapID:1349766
BeatmapSetID:636072

[Difficulty]
HPDrainRate:6.5
CircleSize:4
OverallDifficulty:8
ApproachRate:9.2
SliderMultiplier:1.7
SliderTickRate:1

[Events]
//Background and Video events
0,0,"Nevo.jpg",0,0
//Break Periods
//Storyboard Layer 0 (Background)
//Storyboard Layer 1 (Fail)
//Storyboard Layer 2 (Pass)
//Storyboard Layer 3 (Foreground)
//Storyboard Sound Samples

[TimingPoints]
1934,315.789473684211,4,2,2,40,1,0
1934,-142.857142857143,4,2,2,40,0,0
10460,-117.647058823529,4,2,2,40,0,0
10776,-117.647058823529,4,2,2,50,0,0
11170,-117.647058823529,4,2,2,10,0,0
11249,-117.647058823529,4,2,2,60,0,0
11723,-117.647058823529,4,2,2,50,0,0
12039,-100,4,2,1,70,0,0
14802,-100,4,2,1,20,0,0
14881,-100,4,2,1,90,0,0
14960,-100,4,2,1,20,0,0
15039,-100,4,2,1,70,0,0
17328,-100,4,2,1,20,0,0
17407,-100,4,2,1,70,0,0
17802,-100,4,2,1,20,0,0
17881,-100,4,2,1,70,0,0
19065,-100,4,2,1,20,0,0
19144,-100,4,2,1,70,0,0
20881,-133.333333333333,4,2,1,70,0,0
21355,-133.333333333333,4,2,2,40,0,0
22144,-133.333333333333,4,2,2,50,0,0
28065,-133.333333333333,4,2,2,20,0,0
28144,-133.333333333333,4,2,2,50,0,0
29012,-133.333333333333,4,2,2,20,0,0
29091,-133.333333333333,4,2,2,50,0,0
29960,-133.333333333333,4,2,2,20,0,0
30039,-133.333333333333,4,2,2,50,0,0
30907,-133.333333333333,4,2,1,20,0,0
30986,-133.333333333333,4,2,1,50,0,0
31302,-133.333333333333,4,2,2,70,0,0
32249,-133.333333333333,4,2,1,50,0,0
32565,-133.333333333333,4,2,2,50,0,0
34697,-133.333333333333,4,2,1,20,0,0
34776,-133.333333333333,4,2,1,50,0,0
35091,-133.333333333333,4,2,2,50,0,0
37223,-133.333333333333,4,2,1,20,0,0
37302,-133.333333333333,4,2,1,50,0,0
37618,-133.333333333333,4,2,2,50,0,0
38881,-133.333333333333,4,2,1,50,0,0
39197,-133.333333333333,4,2,2,50,0,0
39749,-133.333333333333,4,2,1,20,0,0
39828,-133.333333333333,4,2,1,50,0,0
40460,-133.333333333333,4,2,2,50,0,0
41407,-133.333333333333,4,2,2,70,0,0
42355,-100,4,2,1,60,0,0
44802,-100,4,2,1,20,0,0
44881,-100,4,2,1,60,0,0
52460,-100,4,2,1,50,0,0
54986,-100,4,2,1,60,0,0
56091,-133.333333333333,4,2,1,50,0,0
56802,-133.333333333333,4,2,1,20,0,0
56881,-133.333333333333,4,2,1,70,0,0
57197,-100,4,2,2,50,0,0
57276,-100,4,2,2,20,0,0
57355,-100,4,2,2,50,0,0
57434,-100,4,2,2,20,0,0
57512,-86.9565217391304,4,2,1,80,0,1
57749,-86.9565217391304,4,2,1,20,0,1
57828,-86.9565217391304,4,2,1,80,0,1
60276,-86.9565217391304,4,2,1,20,0,1
60355,-86.9565217391304,4,2,1,80,0,1
62486,-86.9565217391304,4,2,1,20,0,1
62565,-86.9565217391304,4,2,1,80,0,1
64065,-86.9565217391304,4,2,1,20,0,1
64144,-86.9565217391304,4,2,1,80,0,1
65091,-86.9565217391304,4,2,1,90,0,1
65328,-86.9565217391304,4,2,1,20,0,1
65407,-86.9565217391304,4,2,1,90,0,1
65644,-86.9565217391304,4,2,1,20,0,1
65723,-86.9565217391304,4,2,1,90,0,1
65960,-86.9565217391304,4,2,1,20,0,1
66039,-86.9565217391304,4,2,1,90,0,1
66276,-86.9565217391304,4,2,1,20,0,1
66355,-86.9565217391304,4,2,1,90,0,1
66591,-86.9565217391304,4,2,1,20,0,1
66670,-86.9565217391304,4,2,1,90,0,1
66907,-86.9565217391304,4,2,1,20,0,1
66986,-86.9565217391304,4,2,1,90,0,1
67539,-86.9565217391304,4,2,1,5,0,1
67618,-86.9565217391304,4,2,1,80,0,1
76302,-86.9565217391304,4,2,1,90,0,1
77723,-133.333333333333,4,2,1,60,0,0
78039,-133.333333333333,4,2,2,60,0,0
84039,-133.333333333333,4,2,2,60,0,0
87828,-166.666666666667,4,2,2,60,0,0
89091,-166.666666666667,4,2,2,60,0,0
90355,-181.818181818182,4,2,2,50,0,0
92723,-196.078431372549,4,2,2,5,0,0
92881,-196.078431372549,4,2,2,50,0,0
95407,-196.078431372549,4,2,2,20,0,0

[Colours]
Combo1 : 147,240,156
Combo2 : 208,208,208
Combo3 : 158,141,241
Combo4 : 225,142,208

[HitObjects]
358,152,1934,6,0,P|377:222|307:199,2,178.499994552612,2|2|2,0:0|0:0|0:0,0:0:0:0:
228,182,3197,6,0,P|229:208|288:295,1,118.999996368408,2|0,0:0|0:0,0:0:0:0:
228,182,3670,2,0,L|102:175,1,118.999996368408,2|0,0:0|0:0,0:0:0:0:
94,268,4144,2,0,L|163:265,1,59.4999981842042,2|0,0:0|0:0,0:0:0:0:
80,364,4460,5,6,0:0:0:0:
7,304,4618,1,0,0:0:0:0:
20,208,4776,1,0,0:0:0:0:
109,175,4934,2,0,L|227:168,1,118.999996368408,2|0,0:0|0:0,0:0:0:0:
94,268,5407,1,2,0:0:0:0:
34,114,5723,6,0,P|90:81|157:92,1,118.999996368408,2|0,0:0|0:0,0:0:0:0:
212,274,6197,2,0,L|93:267,1,118.999996368408,2|0,0:0|0:0,0:0:0:0:
227,368,6670,2,0,L|309:363,1,59.4999981842042,2|0,0:0|0:0,0:0:0:0:
240,166,6986,6,0,P|207:222|218:289,1,118.999996368408,4|0,0:0|0:0,0:0:0:0:
335,166,7460,2,0,L|328:47,1,118.999996368408,2|0,0:0|0:0,0:0:0:0:
429,161,7934,2,0,L|424:243,1,59.4999981842042,2|0,0:0|0:0,0:0:0:0:
301,240,8249,5,6,0:0:0:0:
335,166,8565,1,0,0:0:0:0:
351,302,8881,1,2,0:0:0:0:
241,244,9197,2,0,L|300:240,1,59.4999981842042,2|0,0:0|0:0,0:0:0:0:
181,320,9512,6,0,P|148:264|159:197,1,118.999996368408,6|0,0:0|0:0,0:0:0:0:
73,93,9986,2,0,B|91:116|91:156|91:156|72:179|70:217,1,118.999996368408,2|0,0:0|0:0,0:0:0:0:
15,345,10460,6,0,P|50:325|102:332,1,72.2500013780594,2|0,0:0|0:0,0:0:0:0:
289,217,10776,6,0,P|219:231|151:211,1,144.500002756119,2|0,0:0|0:0,0:0:0:0:
391,140,11249,2,0,P|376:203|381:290,1,144.500002756119,2|0,0:0|0:0,0:0:0:0:
258,368,11723,2,0,P|261:308|246:234,1,108.375002067089,2|8,0:0|0:0,0:0:0:0:
231,231,12039,6,0,P|189:227|150:210,1,85,6|0,0:0|0:0,0:0:0:0:
98,48,12355,2,0,P|119:84|128:125,1,85,2|0,0:0|0:0,0:0:0:0:
20,262,12670,2,0,P|36:223|65:191,1,85,2|0,0:0|0:0,0:0:0:0:
235,125,12986,2,0,B|303:104|302:140|360:122,1,127.5,2|0,0:0|0:0,0:0:0:0:
392,106,13302,6,0,L|383:213,1,85,2|0,0:0|0:0,0:0:0:0:
274,197,13618,1,2,0:0:0:0:
327,50,13776,1,8,3:0:0:0:
384,190,13934,1,0,0:0:0:0:
235,125,14091,1,2,0:0:0:0:
232,268,14249,2,0,P|287:277|341:245,1,85,8|0,0:0|0:0,0:0:0:0:
153,233,14565,6,0,L|158:322,1,85,6|0,0:0|0:0,0:0:0:0:
79,195,14881,1,2,0:0:0:0:
222,186,15039,2,0,P|235:225|231:267,1,85,0|2,0:0|0:0,0:0:0:0:
149,152,15355,1,0,0:0:0:0:
282,132,15512,1,2,0:0:0:0:
153,233,15670,5,8,0:0:0:0:
80,279,15986,5,8,3:0:0:0:
87,286,16065,1,0,0:0:0:0:
87,286,16144,1,8,0:0:0:0:
79,195,16302,1,8,3:0:0:0:
153,233,16460,1,0,0:0:0:0:
131,113,16618,1,8,3:0:0:0:
222,186,16776,1,8,0:0:0:0:
196,40,16934,1,8,0:0:0:0:
300,167,17091,6,0,P|305:209|261:272,1,85,6|0,0:0|0:0,0:0:0:0:
244,107,17407,1,2,0:0:0:0:
379,154,17565,2,0,L|491:150,1,85,8|0,3:0|0:0,0:0:0:0:
354,232,17881,1,0,0:0:0:0:
326,91,18039,1,2,0:0:0:0:
222,186,18197,1,2,0:0:0:0:
222,186,18276,1,2,0:0:0:0:
222,186,18355,5,2,0:0:0:0:
379,154,18512,1,0,0:0:0:0:
244,107,18670,1,2,0:0:0:0:
354,232,18828,2,0,L|466:228,1,85,8|0,3:0|0:0,0:0:0:0:
300,167,19144,1,2,0:0:0:0:
324,308,19302,2,0,P|348:273|353:231,1,85,8|0,0:0|0:0,0:0:0:0:
218,185,19618,5,2,0:0:0:0:
195,264,19776,1,0,0:0:0:0:
300,167,19934,1,0,0:0:0:0:
139,202,20091,1,0,0:0:0:0:
273,246,20249,1,6,0:0:0:0:
324,92,20407,1,0,0:0:0:0:
218,185,20565,1,0,0:0:0:0:
244,107,20723,1,0,0:0:0:0:
139,202,20881,6,0,B|135:259|135:259|142:274|142:274|139:337,1,127.500004863739,2|0,0:0|0:0,0:0:0:0:
52,350,21355,2,0,L|59:294,2,31.8750012159348,2|2|2,0:0|0:0|0:0,0:0:0:0:
360,220,22144,5,2,0:0:0:0:
473,240,22302,1,0,0:0:0:0:
426,173,22460,2,0,L|428:83,1,63.7500024318696,0|0,0:0|0:0,0:0:0:0:
473,240,22776,2,0,P|415:253|351:204,1,127.500004863739,2|0,0:0|0:0,0:0:0:0:
341,141,23249,1,0,0:0:0:0:
281,196,23407,6,0,L|218:198,1,63.7500024318696
203,118,23723,2,0,L|113:116,1,63.7500024318696,0|0,0:0|0:0,0:0:0:0:
119,280,24039,1,2,0:0:0:0:
136,197,24197,1,0,0:0:0:0:
4,206,24355,1,0,0:0:0:0:
34,284,24512,1,0,0:0:0:0:
66,154,24670,6,0,P|118:118|179:128,1,127.500004863739,2|0,0:0|0:0,0:0:0:0:
136,197,25144,1,0,0:0:0:0:
67,154,25302,2,0,B|52:15,1,127.500004863739,2|0,0:0|0:0,0:0:0:0:
257,105,25776,1,0,0:0:0:0:
257,105,25934,6,0,P|260:136|252:167,1,63.7500024318696
325,205,26249,2,0,P|304:229|277:246,1,63.7500024318696,0|0,0:0|0:0,0:0:0:0:
304,324,26565,2,0,P|272:327|241:320,1,63.7500024318696,2|0,0:0|0:0,0:0:0:0:
193,384,26881,2,0,P|172:359|160:330,1,63.7500024318696,0|0,0:0|0:0,0:0:0:0:
325,205,27197,5,2,0:0:0:0:
241,320,27355,1,0,0:0:0:0:
196,251,27512,2,0,L|185:188,1,63.7500024318696,0|0,0:0|0:0,0:0:0:0:
115,126,27828,2,0,L|105:189,1,63.7500024318696,2|0,0:0|0:0,0:0:0:0:
195,109,28144,1,0,0:0:0:0:
195,109,28302,6,0,P|142:50|87:51,1,127.500004863739
185,188,28776,2,0,L|248:189,1,63.7500024318696,0|0,0:0|0:0,0:0:0:0:
273,113,29092,2,0,L|336:111,1,63.7500024318696,2|0,0:0|0:0,0:0:0:0:
378,238,29407,2,0,P|354:218|338:191,1,63.7500024318696,0|0,0:0|0:0,0:0:0:0:
420,38,29723,6,0,L|415:166,1,127.500004863739,2|0,0:0|0:0,0:0:0:0:
342,317,30197,2,0,L|337:189,1,127.500004863739,0|0,0:0|0:0,0:0:0:0:
186,194,30670,2,0,P|217:196|247:189,1,63.7500024318696,0|0,0:0|0:0,0:0:0:0:
335,107,30986,2,0,P|303:104|273:111,1,63.7500024318696
295,265,31302,5,2,0:0:0:0:
311,185,31460,1,0,0:0:0:0:
186,194,31618,5,2,0:0:0:0:
214,273,31776,1,0,0:0:0:0:
244,136,31934,5,2,0:0:0:0:
166,114,32091,1,2,0:0:0:0:
128,253,32249,5,2,0:0:0:0:
186,194,32407,1,0,0:0:0:0:
108,174,32565,2,0,L|30:166,1,63.7500024318696,0|0,0:0|0:0,0:0:0:0:
166,114,32881,1,8,0:0:0:0:
214,273,33039,1,0,0:0:0:0:
214,273,33354,1,0,0:0:0:0:
214,273,33512,6,0,L|292:265,1,63.7500024318696
320,335,33828,2,0,L|369:274,1,63.7500024318696,0|0,0:0|0:0,0:0:0:0:
440,299,34144,2,0,L|432:221,1,63.7500024318696,8|0,0:0|0:0,0:0:0:0:
364,141,34460,2,0,L|356:218,1,63.7500024318696,0|0,0:0|0:0,0:0:0:0:
444,144,34776,6,0,L|436:66,1,63.7500024318696,2|0,0:0|0:0,0:0:0:0:
300,49,35091,2,0,P|352:64|373:63,1,63.7500024318696,0|0,0:0|0:0,0:0:0:0:
420,8,35407,1,8,0:0:0:0:
234,1,35565,1,0,0:0:0:0:
157,146,35881,1,0,0:0:0:0:
157,146,36039,6,0,L|231:142,1,63.7500024318696,2|0,0:0|0:0,0:0:0:0:
326,214,36355,2,0,L|263:211,1,63.7500024318696,0|0,0:0|0:0,0:0:0:0:
148,277,36670,2,0,L|212:274,1,63.7500024318696,8|0,0:0|0:0,0:0:0:0:
325,340,36986,2,0,L|262:337,1,63.7500024318696,0|0,0:0|0:0,0:0:0:0:
116,353,37302,5,2,0:0:0:0:
87,223,37460,1,0,0:0:0:0:
165,202,37618,2,0,P|167:236|142:280,1,63.7500024318696,0|0,0:0|0:0,0:0:0:0:
105,144,37934,2,0,P|103:110|128:66,1,63.7500024318696,8|0,0:0|0:0,0:0:0:0:
310,128,38249,1,0,0:0:0:0:
310,128,38407,6,0,L|182:122,1,127.500004863739,0|8,0:0|0:0,0:0:0:0:
26,236,38881,2,0,P|70:231|98:214,1,63.7500024318696,0|0,0:0|0:0,0:0:0:0:
113,82,39197,2,0,P|69:87|41:104,1,63.7500024318696,8|0,0:0|0:0,0:0:0:0:
165,202,39512,2,0,L|233:199,1,63.7500024318696,0|0,0:0|0:0,0:0:0:0:
243,358,39828,6,0,P|182:377|121:337,1,127.500004863739,2|0,0:0|0:0,0:0:0:0:
270,282,40302,1,0,0:0:0:0:
323,344,40460,1,8,0:0:0:0:
190,296,40618,2,0,P|196:252|223:216,1,63.7500024318696,0|0,0:0|0:0,0:0:0:0:
335,177,40934,2,0,P|309:194|278:201,1,63.7500024318696,8|0,0:0|0:0,0:0:0:0:
139,108,41249,1,0,0:0:0:0:
207,155,41407,5,2,0:0:0:0:
147,27,41565,1,0,0:0:0:0:
133,189,41723,5,2,0:0:0:0:
212,74,41881,1,0,0:0:0:0:
65,142,42039,5,2,0:0:0:0:
279,120,42197,1,2,0:0:0:0:
176,264,42355,6,0,B|92:291|92:234|-4:276,1,170,6|2,0:0|0:0,0:0:0:0:
180,361,42828,2,0,P|246:325|345:349,1,170,0|0,0:0|0:0,0:0:0:0:
133,189,43302,5,8,3:0:0:0:
57,347,43460,1,10,0:0:0:0:
65,142,43776,5,8,3:0:0:0:
180,361,43934,1,8,0:0:0:0:
234,109,44249,2,0,P|187:115|128:99,1,85,2|0,0:0|0:0,0:0:0:0:
271,33,44565,2,0,P|318:27|377:43,1,85,8|0,0:0|0:0,0:0:0:0:
316,192,44881,6,0,L|314:108,1,85,6|0,0:0|0:0,0:0:0:0:
137,186,45197,2,0,L|134:270,1,85,2|0,0:0|0:0,0:0:0:0:
191,125,45512,2,0,P|149:106|97:114,1,85,2|0,0:0|0:0,0:0:0:0:
63,222,45828,1,8,3:0:0:0:
272,125,45986,5,10,0:0:0:0:
67,140,46302,1,8,3:0:0:0:
191,324,46460,1,8,0:0:0:0:
146,161,46618,1,0,0:0:0:0:
110,312,46776,1,8,0:0:0:0:
268,293,46934,1,2,0:0:0:0:
99,232,47091,1,8,0:0:0:0:
256,374,47249,1,2,0:0:0:0:
203,161,47407,6,0,B|179:206|179:206|193:338,1,170,6|0,0:0|0:0,0:0:0:0:
261,225,47881,1,2,0:0:0:0:
255,97,48039,2,0,P|215:82|144:97,1,85,8|0,0:0|0:0,0:0:0:0:
99,232,48355,1,2,0:0:0:0:
99,232,48512,6,0,P|114:192|99:121,1,85,2|0,0:0|0:0,0:0:0:0:
31,282,48828,1,2,0:0:0:0:
172,266,48986,1,2,0:0:0:0:
31,180,49144,1,0,0:0:0:0:
106,314,49302,1,8,0:0:0:0:
173,84,49460,1,8,0:0:0:0:
99,232,49618,1,8,3:0:0:0:
61,78,49776,1,0,0:0:0:0:
222,255,49934,6,0,P|279:197|373:238,1,170,6|0,0:0|0:0,0:0:0:0:
300,275,50407,1,2,0:0:0:0:
177,168,50565,2,0,L|172:80,1,85,8|0,0:0|0:0,0:0:0:0:
362,132,50881,2,0,L|357:220,1,85,2|2,0:0|0:0,0:0:0:0:
226,339,51197,6,0,L|221:251,1,85,0|2,0:0|0:0,0:0:0:0:
276,92,51512,2,0,L|271:180,1,85,8|0,0:0|0:0,0:0:0:0:
197,79,51828,2,0,P|223:32|281:16,1,85,8|8,0:0|3:0,0:0:0:0:
182,158,52144,2,0,P|135:132|119:74,1,85,8|0,0:0|0:0,0:0:0:0:
276,92,52460,5,6,0:0:0:0:
283,226,52618,1,0,0:0:0:0:
197,79,52776,1,2,0:0:0:0:
327,156,52934,1,0,0:0:0:0:
196,243,53091,1,2,0:0:0:0:
276,92,53249,1,0,0:0:0:0:
362,230,53407,2,0,L|358:334,1,85,2|0,0:0|0:0,0:0:0:0:
358,314,53644,1,0,0:0:0:0:
358,314,53723,5,2,0:0:0:0:
196,243,53881,1,0,0:0:0:0:
276,92,54039,2,0,L|280:195,1,85,2|0,0:0|0:0,0:0:0:0:
106,187,54355,2,0,L|110:84,1,85,2|0,0:0|0:0,0:0:0:0:
196,243,54670,2,0,L|203:346,1,85,2|0,0:0|0:0,0:0:0:0:
362,230,54986,6,0,L|369:127,1,85,6|0,0:0|0:0,0:0:0:0:
106,187,55302,1,8,0:0:0:0:
294,276,55460,1,8,0:0:0:0:
199,56,55618,1,8,0:0:0:0:
196,243,55776,1,8,0:0:0:0:
293,36,55934,1,8,0:0:0:0:
294,276,56091,6,0,P|388:238|325:117,1,255.000009727478,6|0,0:0|0:0,0:0:0:0:
225,203,56881,2,0,B|260:203|260:203|287:195|287:195|345:195,1,95.6250036478044,2|0,1:0|0:0,0:0:0:0:
306,316,57197,6,0,L|288:258,1,42.5,2|0,0:0|0:0,0:0:0:0:
252,82,57355,2,0,L|234:140,1,42.5,2|0,0:0|0:0,0:0:0:0:
186,278,57512,6,0,P|151:241|147:180,1,97.7500018644333,6|0,0:0|0:0,0:0:0:0:
317,198,57828,1,8,0:0:0:0:
143,196,57986,1,0,0:0:0:0:
143,196,58065,1,0,0:0:0:0:
143,196,58144,2,0,L|37:189,1,97.7500018644333,2|0,0:0|0:0,0:0:0:0:
116,377,58460,2,0,L|222:370,1,97.7500018644333,8|0,0:0|0:0,0:0:0:0:
395,254,58776,5,2,0:0:0:0:
227,217,58934,1,0,0:0:0:0:
333,370,59091,2,0,P|326:326|277:279,1,97.7500018644333,10|2,0:0|0:0,0:0:0:0:
85,287,59407,2,0,P|124:306|190:295,1,97.7500018644333,2|2,0:0|0:0,0:0:0:0:
319,195,59723,1,8,0:0:0:0:
217,125,59881,1,0,0:0:0:0:
403,160,60039,6,0,P|411:208|395:254,1,97.7500018644333,2|0,0:0|0:0,0:0:0:0:
133,234,60355,2,0,L|239:230,1,97.7500018644333,8|0,0:0|0:0,0:0:0:0:
167,44,60670,1,2,0:0:0:0:
28,120,60828,1,0,0:0:0:0:
217,125,60986,2,0,P|252:83|260:35,1,97.7500018644333,8|0,0:0|0:0,0:0:0:0:
120,137,61302,6,0,L|134:247,1,97.7500018644333,2|0,0:0|0:0,0:0:0:0:
278,382,61618,2,0,L|292:272,1,97.7500018644333,10|2,0:0|0:0,0:0:0:0:
427,102,61934,2,0,L|441:212,1,97.7500018644333,2|2,0:0|0:0,0:0:0:0:
217,125,62249,2,0,L|231:15,1,97.7500018644333,8|0,0:0|0:0,0:0:0:0:
266,204,62565,6,0,B|167:236|168:176|69:214,1,195.500003728867,2|8,0:0|0:0,0:0:0:0:
135,303,63039,1,0,0:0:0:0:
135,303,63118,1,0,0:0:0:0:
135,303,63197,1,2,0:0:0:0:
217,125,63355,1,0,0:0:0:0:
341,258,63512,2,0,P|394:278|451:257,1,97.7500018644333,8|0,0:0|0:0,0:0:0:0:
266,204,63828,6,0,P|246:257|267:314,1,97.7500018644333,2|0,0:0|0:0,0:0:0:0:
352,162,64144,2,0,L|366:52,1,97.7500018644333,10|2,0:0|0:0,0:0:0:0:
152,54,64460,2,0,L|166:164,1,97.7500018644333,0|2,0:0|0:0,0:0:0:0:
253,300,64776,2,0,L|267:190,1,97.7500018644333,10|0,0:0|0:0,0:0:0:0:
152,54,65091,5,6,0:0:0:0:
166,237,65249,1,0,0:0:0:0:
257,107,65407,2,0,P|206:123|165:181,1,97.7500018644333,8|0,0:0|0:0,0:0:0:0:
378,210,65723,5,6,0:0:0:0:
366,36,65881,1,0,0:0:0:0:
265,203,66039,2,0,L|279:313,1,97.7500018644333,8|0,0:0|0:0,0:0:0:0:
176,155,66355,5,6,0:0:0:0:
342,138,66512,1,0,0:0:0:0:
192,251,66670,2,0,P|141:243|86:193,1,97.7500018644333,8|0,0:0|0:0,0:0:0:0:
265,203,66986,5,8,3:0:0:0:
197,363,67144,1,8,0:0:0:0:
103,217,67302,1,2,0:0:0:0:
103,217,67618,6,0,P|143:244|192:251,1,97.7500018644333,6|0,0:0|0:0,0:0:0:0:
309,57,67934,1,0,0:0:0:0:
176,155,68091,1,2,0:0:0:0:
289,304,68249,2,0,L|299:187,1,97.7500018644333,8|0,0:0|0:0,0:0:0:0:
158,60,68565,1,0,0:0:0:0:
191,251,68723,1,2,0:0:0:0:
373,146,68881,6,0,P|318:113|265:118,1,97.7500018644333,4|0,0:0|0:0,0:0:0:0:
102,222,69197,1,2,0:0:0:0:
297,206,69355,1,0,0:0:0:0:
158,60,69512,1,8,0:0:0:0:
191,251,69670,1,0,0:0:0:0:
252,39,69828,1,2,0:0:0:0:
91,127,69986,1,8,0:0:0:0:
297,206,70144,6,0,L|394:202,1,97.7500018644333,2|0,0:0|0:0,0:0:0:0:
227,346,70460,2,0,L|130:342,1,97.7500018644333,8|0,0:0|0:0,0:0:0:0:
64,146,70776,1,2,2:0:0:0:
191,251,70934,1,0,2:0:0:0:
31,311,71091,2,0,P|4:261|10:210,1,97.7500018644333,8|0,2:0|2:0,0:0:0:0:
150,103,71407,5,2,0:0:0:0:
95,237,71565,1,2,0:0:0:0:
64,146,71723,1,8,0:0:0:0:
218,171,71881,1,2,0:0:0:0:
186,262,72039,2,0,P|137:261|95:237,1,97.7500018644333,0|2,0:0|0:0,0:0:0:0:
195,80,72355,2,0,P|243:80|285:104,1,97.7500018644333,8|0,0:0|0:0,0:0:0:0:
254,364,72670,5,6,0:0:0:0:
300,183,72828,1,2,0:0:0:0:
162,343,72986,5,8,0:0:0:0:
218,171,73144,1,2,0:0:0:0:
68,350,73302,5,8,0:0:0:0:
126,148,73460,1,2,0:0:0:0:
223,269,73618,5,8,0:0:0:0:
207,77,73776,1,2,0:0:0:0:
162,343,73934,5,12,0:0:0:0:
418,273,74091,1,2,0:0:0:0:
130,252,74249,5,8,0:0:0:0:
422,178,74407,1,2,0:0:0:0:
126,148,74565,5,8,0:0:0:0:
421,82,74723,1,2,0:0:0:0:
223,269,74881,6,0,P|168:250|114:260,1,97.7500018644333,2|2,0:0|0:0,0:0:0:0:
342,368,75197,5,12,0:0:0:0:
291,155,75355,1,2,0:0:0:0:
174,349,75512,1,8,0:0:0:0:
411,274,75670,2,0,P|438:234|441:186,1,97.7500018644333,8|0,0:0|0:0,0:0:0:0:
321,67,75986,2,0,P|293:106|291:155,1,97.7500018644333,2|0,0:0|0:0,0:0:0:0:
509,135,76302,6,0,P|452:104|392:118,1,97.7500018644333,12|0,0:0|0:0,0:0:0:0:
240,250,76618,1,0,0:0:0:0:
267,260,76696,1,0,0:0:0:0:
297,265,76775,1,2,0:0:0:0:
326,260,76854,1,0,0:0:0:0:
355,256,76933,1,8,0:0:0:0:
385,261,77012,1,0,0:0:0:0:
411,274,77091,6,0,L|392:339,1,48.8750009322167,2|0,0:0|0:0,0:0:0:0:
341,378,77249,1,2,0:0:0:0:
320,365,77327,1,0,0:0:0:0:
299,357,77406,1,8,0:0:0:0:
276,351,77485,1,0,0:0:0:0:
252,350,77564,1,2,0:0:0:0:
229,352,77643,1,0,0:0:0:0:
203,358,77723,6,0,P|166:308|163:245,1,127.500004863739,6|0,0:0|0:0,0:0:0:0:
237,211,78197,1,2,0:0:0:0:
297,265,78355,2,0,B|349:258|349:258|388:264|388:264|429:259,1,127.500004863739,0|0,0:0|0:0,0:0:0:0:
424,181,78828,6,0,B|388:185|388:185|349:179|349:179|297:186,1,127.500004863739
221,213,79302,2,0,P|215:181|221:150,1,63.7500024318696,2|0,0:0|0:0,0:0:0:0:
149,121,79618,2,0,P|167:95|193:77,1,63.7500024318696,2|0,0:0|0:0,0:0:0:0:
164,7,79934,2,0,P|195:2|226:7,1,63.7500024318696,0|0,0:0|0:0,0:0:0:0:
392,84,80249,6,0,P|331:102|273:79,1,127.500004863739,2|0,0:0|0:0,0:0:0:0:
458,27,80723,2,0,P|476:88|453:146,1,127.500004863739,0|0,0:0|0:0,0:0:0:0:
374,194,81197,1,0,0:0:0:0:
374,194,81355,6,0,B|301:168|300:207|232:183,1,127.500004863739
135,261,81828,2,0,L|224:253,1,63.7500024318696,0|0,0:0|0:0,0:0:0:0:
317,318,82144,2,0,L|228:310,1,63.7500024318696,0|0,0:0|0:0,0:0:0:0:
134,377,82460,2,0,L|223:369,1,63.7500024318696,0|0,0:0|0:0,0:0:0:0:
78,205,82776,6,0,P|54:262|83:323,1,127.500004863739,2|0,0:0|0:0,0:0:0:0:
135,261,83249,2,0,P|158:203|130:143,1,127.500004863739,0|0,0:0|0:0,0:0:0:0:
78,205,83723,1,0,0:0:0:0:
233,232,83881,1,0,0:0:0:0:
233,232,84039,6,0,L|311:224,1,63.7500024318696,2|0,0:0|0:0,0:0:0:0:
339,294,84355,2,0,L|388:233,1,63.7500024318696,0|0,0:0|0:0,0:0:0:0:
459,258,84671,2,0,L|451:180,1,63.7500024318696,0|0,0:0|0:0,0:0:0:0:
383,100,84987,2,0,L|375:177,1,63.7500024318696,0|0,0:0|0:0,0:0:0:0:
457,66,85302,6,0,P|422:28|327:38,1,127.500004863739,2|0,0:0|0:0,0:0:0:0:
277,146,85934,2,0,P|328:148|388:73,1,127.500004863739,2|0,0:0|0:0,0:0:0:0:
245,71,86565,6,0,P|207:105|217:200,1,127.500004863739
323,251,87197,2,0,P|325:199|250:139,1,127.500004863739,0|0,0:0|0:0,0:0:0:0:
187,221,87828,6,0,B|153:269|107:251|107:251|35:232|17:290|29:340|99:340|126:312|107:251|107:251|80:205|109:158,1,407.999987548829,2|0,0:0|0:0,0:0:0:0:
102,170,89407,5,0,0:0:0:0:
94,76,89723,1,0,0:0:0:0:
180,119,90039,1,0,0:0:0:0:
180,119,90355,6,0,P|277:70|170:55,1,280.500008560181,6|0,0:0|0:0,0:0:0:0:
155,209,91618,6,0,P|142:316|91:221,1,280.500008560181,6|0,0:0|0:0,0:0:0:0:
295,275,92881,6,0,B|343:315|405:309|405:309|403:244|337:214|347:155|400:129|469:144|476:210|451:248|403:244|403:244|362:220|333:179|289:179|249:199|249:199|211:220|184:222|149:207,1,693.600004233398,6|4,0:0|0:0,0:0:0:0:
