osu file format v14

[General]
AudioFilename: audio.mp3
AudioLeadIn: 0
PreviewTime: 57039
Countdown: 0
SampleSet: Soft
StackLeniency: 0.3
Mode: 0
LetterboxInBreaks: 0
WidescreenStoryboard: 0

[Editor]
DistanceSpacing: 1.8
BeatDivisor: 4
GridSize: 32
TimelineZoom: 1

[Metadata]
Title:Re:TrymenT
TitleUnicode:Re:TrymenT
Artist:Hotaru Murasaki
ArtistUnicode:紫咲ほたる
Creator:Shiratoi
Version:Hard
Source:Re:LieF〜親愛なるあなたへ〜
Tags:eroge visual novel relief 甘利紗陽 saya amari Shin'ainaru Anata e レリーフ DeaR YoU retryment miu yuu game op rask opening nevo yamicchi lince cosmico foxygrandpa ultima fox lilyanna time capsule
BeatmapID:1353781
BeatmapSetID:636072

[Difficulty]
HPDrainRate:6
CircleSize:4
OverallDifficulty:6
ApproachRate:7
SliderMultiplier:1.4
SliderTickRate:1

[Events]
//Background and Video events
0,0,"BG.jpg",0,0
//Break Periods
//Storyboard Layer 0 (Background)
//Storyboard Layer 1 (Fail)
//Storyboard Layer 2 (Pass)
//Storyboard Layer 3 (Foreground)
//Storyboard Sound Samples

[TimingPoints]
1934,315.789473684211,4,2,2,40,1,0
1934,-125,4,2,2,40,0,0
10776,-125,4,2,2,50,0,0
11170,-125,4,2,2,10,0,0
11249,-125,4,2,2,60,0,0
11723,-125,4,2,2,50,0,0
12039,-111.111111111111,4,2,1,70,0,0
14802,-111.111111111111,4,2,1,20,0,0
14881,-111.111111111111,4,2,1,90,0,0
14960,-111.111111111111,4,2,1,20,0,0
15039,-111.111111111111,4,2,1,70,0,0
17328,-111.111111111111,4,2,1,20,0,0
17407,-111.111111111111,4,2,1,70,0,0
17802,-111.111111111111,4,2,1,20,0,0
17881,-111.111111111111,4,2,1,70,0,0
19065,-111.111111111111,4,2,1,20,0,0
19144,-111.111111111111,4,2,1,70,0,0
21355,-111.111111111111,4,2,2,40,0,0
22144,-125,4,2,2,50,0,0
28065,-125,4,2,2,20,0,0
28144,-125,4,2,2,50,0,0
29012,-125,4,2,2,20,0,0
29091,-125,4,2,2,50,0,0
29960,-125,4,2,2,20,0,0
30039,-125,4,2,2,50,0,0
30907,-125,4,2,1,20,0,0
30986,-125,4,2,1,50,0,0
31302,-125,4,2,2,70,0,0
32249,-125,4,2,1,50,0,0
32565,-125,4,2,2,50,0,0
34697,-125,4,2,1,20,0,0
34776,-125,4,2,1,50,0,0
35091,-125,4,2,2,50,0,0
37223,-125,4,2,1,20,0,0
37302,-125,4,2,1,50,0,0
37618,-125,4,2,2,50,0,0
38881,-125,4,2,1,50,0,0
39197,-125,4,2,2,50,0,0
39749,-125,4,2,1,20,0,0
39828,-125,4,2,1,50,0,0
40460,-125,4,2,2,50,0,0
41407,-125,4,2,2,70,0,0
42355,-117.647058823529,4,2,1,60,0,0
44802,-117.647058823529,4,2,1,20,0,0
44881,-117.647058823529,4,2,1,60,0,0
47407,-111.111111111111,4,2,1,60,0,0
52381,-111.111111111111,4,2,1,60,0,0
52460,-111.111111111111,4,2,1,50,0,0
54986,-111.111111111111,4,2,1,60,0,0
56091,-111.111111111111,4,2,1,50,0,0
56802,-111.111111111111,4,2,1,20,0,0
56881,-111.111111111111,4,2,1,70,0,0
57197,-111.111111111111,4,2,2,50,0,0
57276,-111.111111111111,4,2,2,20,0,0
57355,-111.111111111111,4,2,2,50,0,0
57434,-111.111111111111,4,2,2,20,0,0
57512,-100,4,2,1,80,0,1
57749,-100,4,2,1,20,0,1
57828,-100,4,2,1,80,0,1
60276,-100,4,2,1,20,0,1
60355,-100,4,2,1,80,0,1
62486,-100,4,2,1,20,0,1
62565,-100,4,2,1,80,0,1
64065,-100,4,2,1,20,0,1
64144,-100,4,2,1,80,0,1
65091,-100,4,2,1,90,0,1
65328,-100,4,2,1,20,0,1
65407,-100,4,2,1,90,0,1
65644,-100,4,2,1,20,0,1
65723,-100,4,2,1,90,0,1
65960,-100,4,2,1,20,0,1
66039,-100,4,2,1,90,0,1
66276,-100,4,2,1,20,0,1
66355,-100,4,2,1,90,0,1
66591,-100,4,2,1,20,0,1
66670,-100,4,2,1,90,0,1
66907,-100,4,2,1,20,0,1
66986,-100,4,2,1,90,0,1
67618,-100,4,2,1,80,0,1
71644,-100,4,2,1,80,0,1
71723,-100,4,2,1,80,0,1
72591,-100,4,2,1,80,0,1
72670,-100,4,2,1,80,0,1
76302,-100,4,2,1,90,0,1
77723,-125,4,2,1,60,0,0
78039,-125,4,2,2,60,0,0
82697,-125,4,2,2,60,0,0
82776,-125,4,2,2,60,0,0
90355,-166.666666666667,4,2,2,50,0,0
91460,-166.666666666667,4,2,2,5,0,0
91618,-166.666666666667,4,2,2,50,0,0
92723,-166.666666666667,4,2,2,5,0,0
92881,-166.666666666667,4,2,2,50,0,0
95407,-166.666666666667,4,2,2,20,0,0

[Colours]
Combo1 : 150,220,146
Combo2 : 128,174,208
Combo3 : 187,151,232
Combo4 : 225,142,208

[HitObjects]
200,55,1934,6,0,P|184:93|180:129,2,56,2|0|0,0:0|0:0|0:0,0:0:0:0:
292,33,2407,2,0,L|424:39,1,112,2|0,0:0|0:0,0:0:0:0:
477,99,2881,1,2,0:0:0:0:
413,278,3197,6,0,L|417:200,1,56,2|0,0:0|0:0,0:0:0:0:
336,168,3512,1,0,0:0:0:0:
263,229,3670,2,0,P|219:240|140:221,1,112,2|0,0:0|0:0,0:0:0:0:
87,160,4144,1,2,0:0:0:0:
336,168,4460,6,0,P|352:206|356:242,2,56,6|0|0,0:0|0:0|0:0,0:0:0:0:
268,99,4934,2,0,P|213:87|159:98,1,112,2|0,0:0|0:0,0:0:0:0:
87,160,5407,1,2,0:0:0:0:
144,340,5723,6,0,L|156:205,1,112,2|0,0:0|0:0,0:0:0:0:
253,229,6197,2,0,L|262:340,1,112,2|0,0:0|0:0,0:0:0:0:
144,340,6670,1,2,0:0:0:0:
308,223,6986,6,0,L|243:229,1,56,4|0,0:0|0:0,0:0:0:0:
175,175,7302,1,0,0:0:0:0:
267,135,7460,2,0,P|284:95|272:13,1,112,2|0,0:0|0:0,0:0:0:0:
187,71,7934,1,2,0:0:0:0:
308,223,8249,6,0,L|432:217,2,112,6|0|2,0:0|0:0|0:0,0:0:0:0:
278,27,9197,1,2,0:0:0:0:
308,223,9512,6,0,P|304:263|308:292,2,56,6|0|0,0:0|0:0|0:0,0:0:0:0:
366,134,9986,2,0,L|490:128,1,112,2|0,0:0|0:0,0:0:0:0:
432,37,10460,2,0,L|357:33,1,56,2|0,0:0|0:0,0:0:0:0:
277,28,10776,6,0,P|273:89|248:145,1,112,2|0,0:0|0:0,0:0:0:0:
154,134,11249,2,0,P|133:82|130:26,1,112,2|0,0:0|0:0,0:0:0:0:
54,93,11723,2,0,P|26:96|-1:95,1,56,2|8,0:0|0:0,0:0:0:0:
78,182,12039,6,0,B|73:223|73:223|92:268|92:268|86:307,1,125.999996154785,6|2,0:0|0:0,0:0:0:0:
86,303,12670,1,2,0:0:0:0:
173,253,12828,1,0,0:0:0:0:
225,338,12986,2,0,L|304:331,1,62.9999980773926,2|0,0:0|0:0,0:0:0:0:
377,285,13302,6,0,B|351:208|406:230|378:149,1,125.999996154785,2|2,0:0|0:0,0:0:0:0:
286,128,13776,2,0,P|234:152|161:127,1,125.999996154785,8|2,3:0|0:0,0:0:0:0:
195,43,14249,2,0,P|223:34|257:39,1,62.9999980773926,8|0,0:0|0:0,0:0:0:0:
286,128,14565,6,0,L|281:272,1,125.999996154785,6|2,0:0|0:0,0:0:0:0:
377,285,15039,2,0,L|464:279,1,62.9999980773926,0|2,0:0|0:0,0:0:0:0:
504,180,15355,2,0,L|441:175,1,62.9999980773926,0|2,0:0|0:0,0:0:0:0:
377,285,15670,1,8,0:0:0:0:
286,128,15986,5,8,3:0:0:0:
281,253,16144,2,0,L|200:251,1,62.9999980773926,8|8,0:0|3:0,0:0:0:0:
377,285,16460,2,0,L|458:283,1,62.9999980773926,0|8,0:0|3:0,0:0:0:0:
284,361,16776,2,0,L|203:359,1,62.9999980773926,8|8,0:0|0:0,0:0:0:0:
377,285,17091,6,0,B|366:249|366:249|387:203|387:203|373:154,1,125.999996154785,6|2,0:0|0:0,0:0:0:0:
286,128,17565,2,0,B|195:132|195:132|235:174,1,125.999996154785,8|0,3:0|0:0,0:0:0:0:
297,211,18039,1,2,0:0:0:0:
376,166,18197,1,2,0:0:0:0:
377,152,18276,1,2,0:0:0:0:
377,139,18355,6,0,P|369:85|301:37,1,125.999996154785,2|2,0:0|0:0,0:0:0:0:
222,44,18828,2,0,B|94:49,1,125.999996154785,8|2,3:0|0:0,0:0:0:0:
36,123,19302,2,0,L|31:197,1,62.9999980773926,8|0,0:0|0:0,0:0:0:0:
122,213,19618,6,0,P|163:207|198:206,2,62.9999980773926,2|0|0,0:0|0:0|0:0,0:0:0:0:
56,281,20091,1,0,0:0:0:0:
150,294,20249,2,0,P|191:288|226:287,2,62.9999980773926,6|0|0,0:0|0:0|0:0,0:0:0:0:
94,369,20723,1,0,0:0:0:0:
56,281,20881,5,2,0:0:0:0:
293,358,21355,2,0,L|242:362,2,31.4999990386963,2|2|2,0:0|0:0|0:0,0:0:0:0:
293,358,22144,5,2,0:0:0:0:
466,278,22460,2,0,L|410:283,1,56,0|0,0:0|0:0,0:0:0:0:
397,197,22776,2,0,L|386:85,1,112,2|0,0:0|0:0,0:0:0:0:
319,17,23249,1,0,0:0:0:0:
254,87,23407,6,0,L|245:159,1,56,0|0,0:0|0:0,0:0:0:0:
198,256,23723,2,0,P|250:234|313:253,2,112,0|2|0,0:0|0:0|0:0,0:0:0:0:
198,256,24670,5,2,0:0:0:0:
112,85,24986,2,0,L|117:162,1,56,0|0,0:0|0:0,0:0:0:0:
39,216,25302,2,0,L|31:104,1,112,2|0,0:0|0:0,0:0:0:0:
57,11,25776,1,0,0:0:0:0:
112,85,25934,6,0,L|189:80,1,56,0|0,0:0|0:0,0:0:0:0:
272,62,26249,2,0,P|252:94|271:179,2,112,0|2|0,0:0|0:0|0:0,0:0:0:0:
272,62,27197,5,2,0:0:0:0:
435,132,27512,2,0,P|380:109|316:131,1,112,0|2,0:0|0:0,0:0:0:0:
330,120,28144,1,0,0:0:0:0:
376,203,28302,6,0,L|384:323,1,112,0|0,0:0|0:0,0:0:0:0:
287,317,28776,2,0,L|290:261,1,56,0|0,0:0|0:0,0:0:0:0:
205,215,29091,2,0,L|208:270,1,56,2|0,0:0|0:0,0:0:0:0:
123,317,29407,2,0,L|126:261,1,56,0|0,0:0|0:0,0:0:0:0:
161,149,29723,6,0,P|199:136|272:172,1,112,2|0,0:0|0:0,0:0:0:0:
276,47,30197,2,0,P|238:60|165:24,1,112,0|0,0:0|0:0,0:0:0:0:
82,44,30670,2,0,P|85:88|77:114,1,56,0|0,0:0|0:0,0:0:0:0:
16,168,30986,6,0,P|9:214|20:288,1,112,0|2,0:0|0:0,0:0:0:0:
98,329,31460,1,0,0:0:0:0:
171,268,31618,2,0,L|241:264,1,56,2|0,0:0|0:0,0:0:0:0:
244,359,31934,2,0,L|188:355,1,56,2|2,0:0|0:0,0:0:0:0:
98,329,32249,5,2,0:0:0:0:
306,293,32565,2,0,P|315:265|321:224,1,56,0|0,0:0|0:0,0:0:0:0:
289,147,32881,1,8,0:0:0:0:
379,176,33039,2,0,P|432:183|509:177,1,112,0|0,0:0|0:0,0:0:0:0:
493,84,33512,6,0,P|440:77|363:83,2,112,0|0|8,0:0|0:0|0:0,0:0:0:0:
493,84,34460,1,0,0:0:0:0:
289,147,34776,5,2,0:0:0:0:
289,147,35091,2,0,L|293:90,1,56,0|0,0:0|0:0,0:0:0:0:
231,17,35407,1,8,0:0:0:0:
170,90,35565,2,0,L|54:84,1,112,0|0,0:0|0:0,0:0:0:0:
55,180,36039,6,0,L|166:174,2,112,2|0|8,0:0|0:0|0:0,0:0:0:0:
55,180,36986,1,0,0:0:0:0:
148,358,37302,5,2,0:0:0:0:
280,211,37618,2,0,P|318:220|350:222,1,56,0|0,0:0|0:0,0:0:0:0:
434,166,37934,2,0,P|416:201|418:289,1,112,8|0,0:0|0:0,0:0:0:0:
301,317,38407,6,0,P|302:261|279:210,1,112,0|8,0:0|0:0,0:0:0:0:
188,188,38881,2,0,L|60:198,2,112,0|8|0,0:0|0:0|0:0,0:0:0:0:
188,188,39828,6,0,B|161:154|161:154|150:102|170:66,1,112,2|0,0:0|0:0,0:0:0:0:
235,25,40302,1,0,0:0:0:0:
251,117,40460,1,8,0:0:0:0:
49,110,40776,1,0,0:0:0:0:
76,196,40934,6,0,B|49:246|98:259|60:324,1,112,8|0,0:0|0:0,0:0:0:0:
165,316,41407,2,0,L|231:308,1,56,2|0,0:0|0:0,0:0:0:0:
274,221,41723,2,0,L|208:213,1,56,2|0,0:0|0:0,0:0:0:0:
165,126,42039,2,0,L|231:118,1,56,2|2,0:0|0:0,0:0:0:0:
355,132,42355,6,0,B|346:169|346:169|362:218|362:218|350:268,1,119.000002269745,6|2,0:0|0:0,0:0:0:0:
464,301,42828,2,0,L|448:172,1,119.000002269745,0|0,0:0|0:0,0:0:0:0:
355,132,43302,1,8,3:0:0:0:
254,183,43460,6,0,L|239:301,1,119.000002269745,10|8,0:0|3:0,0:0:0:0:
320,357,43934,2,0,L|398:351,1,59.5000011348725,8|0,0:0|0:0,0:0:0:0:
464,301,44249,1,2,0:0:0:0:
254,183,44565,2,0,P|230:185|150:183,1,89.2500017023087,8|0,0:0|0:0,0:0:0:0:
128,148,44881,6,0,P|143:108|152:21,1,119.000002269745,6|2,0:0|0:0,0:0:0:0:
229,67,45355,2,0,P|234:126|253:182,1,119.000002269745,0|0,0:0|0:0,0:0:0:0:
325,253,45828,1,8,3:0:0:0:
227,270,45986,6,0,B|163:249|172:286|94:258,1,119.000002269745,10|8,0:0|3:0,0:0:0:0:
42,203,46460,2,0,P|47:173|47:144,1,59.5000011348725,8|0,0:0|0:0,0:0:0:0:
120,33,46776,2,0,P|120:62|124:92,1,59.5000011348725,8|2,0:0|0:0,0:0:0:0:
216,131,47091,1,8,0:0:0:0:
306,93,47249,1,2,0:0:0:0:
340,177,47407,5,6,0:0:0:0:
340,177,47723,2,0,P|378:142|388:70,1,125.999996154785,0|8,0:0|0:0,0:0:0:0:
413,263,48355,1,2,0:0:0:0:
316,269,48512,6,0,L|188:262,1,125.999996154785,2|2,0:0|0:0,0:0:0:0:
106,309,48986,1,2,0:0:0:0:
106,309,49302,2,0,L|112:233,1,62.9999980773926,8|8,0:0|0:0,0:0:0:0:
36,176,49618,2,0,L|31:113,1,62.9999980773926,8|0,3:0|0:0,0:0:0:0:
111,50,49934,5,6,0:0:0:0:
111,50,50249,2,0,P|161:69|240:36,1,125.999996154785,0|8,0:0|0:0,0:0:0:0:
430,47,50881,1,2,0:0:0:0:
368,118,51039,6,0,L|371:250,1,125.999996154785,2|2,0:0|0:0,0:0:0:0:
302,309,51512,2,0,L|226:305,1,62.9999980773926,8|0,0:0|0:0,0:0:0:0:
220,214,51828,2,0,L|282:210,1,62.9999980773926,8|8,0:0|3:0,0:0:0:0:
370,243,52144,2,0,P|392:279|385:355,1,94.499997116089,8|0,0:0|0:0,0:0:0:0:
374,373,52460,5,6,0:0:0:0:
220,214,52776,2,0,P|219:169|225:142,1,62.9999980773926,2|0,0:0|0:0,0:0:0:0:
317,96,53091,2,0,P|321:127|319:158,1,62.9999980773926,2|0,0:0|0:0,0:0:0:0:
220,214,53407,2,0,L|147:211,1,62.9999980773926,2|0,0:0|0:0,0:0:0:0:
120,299,53723,6,0,L|251:293,1,125.999996154785,2|2,0:0|0:0,0:0:0:0:
319,354,54197,1,0,0:0:0:0:
393,295,54355,2,0,P|406:250|407:219,1,62.9999980773926,2|0,0:0|0:0,0:0:0:0:
332,176,54670,2,0,P|326:130|329:69,1,94.499997116089,2|0,0:0|0:0,0:0:0:0:
354,42,54986,6,0,B|322:50|322:50|291:40,1,62.9999980773926,6|0,0:0|0:0,0:0:0:0:
184,97,55302,2,0,B|216:89|216:89|247:99,1,62.9999980773926,8|8,0:0|0:0,0:0:0:0:
332,176,55618,2,0,B|300:184|300:184|269:174,1,62.9999980773926,8|8,0:0|0:0,0:0:0:0:
176,198,55934,1,8,0:0:0:0:
184,97,56091,6,0,P|190:63|123:132,1,314.999990386963,6|2,0:0|1:0,0:0:0:0:
119,131,57197,6,0,L|40:127,1,62.9999980773926,2|2,0:0|0:0,0:0:0:0:
176,198,57512,6,0,B|170:248|170:248|190:293|190:293|182:339,1,140,6|8,0:0|0:0,0:0:0:0:
82,259,57986,1,0,0:0:0:0:
176,198,58144,2,0,P|227:192|256:196,1,70,2|0,0:0|0:0,0:0:0:0:
321,256,58460,1,8,0:0:0:0:
389,185,58618,6,0,B|358:97|418:131|389:30,1,140,0|0,0:0|0:0,0:0:0:0:
299,75,59091,2,0,P|248:81|219:77,1,70,10|2,0:0|0:0,0:0:0:0:
176,198,59407,2,0,P|227:192|256:196,1,70,2|2,0:0|0:0,0:0:0:0:
321,256,59723,1,8,0:0:0:0:
273,341,59881,1,0,0:0:0:0:
149,277,60039,6,0,P|102:228|120:142,1,140,2|8,0:0|0:0,0:0:0:0:
136,66,60512,1,0,0:0:0:0:
229,79,60670,2,0,P|264:80|299:74,1,70,2|0,0:0|0:0,0:0:0:0:
384,26,60986,1,8,0:0:0:0:
415,119,61144,6,0,L|421:267,1,140,0|0,0:0|0:0,0:0:0:0:
342,349,61618,2,0,L|261:338,1,70,10|2,0:0|0:0,0:0:0:0:
262,241,61934,2,0,L|343:230,1,70,2|2,0:0|0:0,0:0:0:0:
209,177,62249,2,0,P|187:209|193:286,1,105,8|0,0:0|0:0,0:0:0:0:
199,321,62565,6,0,B|153:306|153:306|50:308,1,140,2|8,0:0|0:0,0:0:0:0:
35,212,63039,1,0,0:0:0:0:
42,204,63118,1,0,0:0:0:0:
49,193,63197,2,0,P|62:159|62:102,1,70,2|0,0:0|0:0,0:0:0:0:
26,35,63512,1,8,0:0:0:0:
123,48,63670,6,0,B|203:18|189:78|267:38,1,140,0|0,0:0|0:0,0:0:0:0:
353,17,64144,2,0,P|341:59|345:98,1,70,10|2,0:0|0:0,0:0:0:0:
437,158,64460,2,0,P|393:152|355:162,1,70,0|2,0:0|0:0,0:0:0:0:
220,145,64776,2,0,P|263:150|301:140,1,70,10|0,0:0|0:0,0:0:0:0:
404,230,65091,6,0,L|406:361,1,105,6|0,0:0|0:0,0:0:0:0:
364,362,65407,2,0,L|285:356,1,70,8|0,0:0|0:0,0:0:0:0:
180,277,65723,2,0,L|311:279,1,105,6|0,0:0|0:0,0:0:0:0:
312,237,66039,2,0,L|306:158,1,70,8|0,0:0|0:0,0:0:0:0:
220,145,66355,6,0,L|222:276,1,105,6|0,0:0|0:0,0:0:0:0:
180,277,66671,2,0,L|101:271,1,70,8|0,0:0|0:0,0:0:0:0:
49,194,66986,1,8,3:0:0:0:
11,284,67144,1,8,0:0:0:0:
73,359,67302,1,2,0:0:0:0:
127,152,67618,6,0,P|88:113|2:119,1,140,6|0,0:0|0:0,0:0:0:0:
49,194,68091,1,2,0:0:0:0:
125,249,68249,2,0,P|178:233|214:155,1,140,8|0,0:0|0:0,0:0:0:0:
182,72,68723,1,2,0:0:0:0:
199,73,68802,1,0,0:0:0:0:
215,75,68881,6,0,B|317:83|317:83|361:45,1,140,4|2,0:0|0:0,0:0:0:0:
435,18,69355,1,0,0:0:0:0:
467,109,69512,2,0,P|483:150|480:192,1,70,8|0,0:0|0:0,0:0:0:0:
390,208,69828,2,0,P|374:249|377:291,1,70,2|8,0:0|0:0,0:0:0:0:
333,364,70144,6,0,L|474:360,2,140,2|8|2,0:0|0:0|2:0,0:0:0:0:
270,288,70934,1,0,2:0:0:0:
211,365,71091,2,0,L|141:366,1,70,8|0,2:0|2:0,0:0:0:0:
118,270,71407,6,0,L|229:273,1,105,2|0,0:0|0:0,0:0:0:0:
270,288,71723,2,0,L|265:196,1,70,8|2,0:0|0:0,0:0:0:0:
197,112,72039,2,0,L|193:181,1,70,0|2,0:0|0:0,0:0:0:0:
118,270,72355,2,0,L|111:141,1,105,8|0,0:0|0:0,0:0:0:0:
88,122,72670,6,0,B|55:132|55:132|13:122,1,70,6|2,0:0|0:0,0:0:0:0:
68,37,72986,2,0,B|101:27|101:27|143:37,1,70,8|2,0:0|0:0,0:0:0:0:
197,112,73302,2,0,B|231:120|231:120|264:110,1,70,8|2,0:0|0:0,0:0:0:0:
312,23,73618,2,0,B|277:14|277:14|244:24,1,70,8|2,0:0|0:0,0:0:0:0:
197,112,73934,6,0,L|200:181,1,70,12|2,0:0|0:0,0:0:0:0:
289,259,74249,2,0,L|292:189,1,70,8|2,0:0|0:0,0:0:0:0:
381,112,74565,2,0,L|384:181,1,70,8|2,0:0|0:0,0:0:0:0:
473,259,74881,2,0,L|476:189,1,70,2|2,0:0|0:0,0:0:0:0:
461,57,75197,5,12,0:0:0:0:
381,112,75355,2,0,P|336:119|301:117,1,70,2|8,0:0|0:0,0:0:0:0:
250,53,75670,2,0,P|202:52|163:59,1,70,8|0,0:0|0:0,0:0:0:0:
138,152,75986,2,0,P|186:153|225:146,1,70,2|0,0:0|0:0,0:0:0:0:
64,51,76302,6,0,B|91:121|40:112|65:192,1,140,12|0,0:0|0:0,0:0:0:0:
104,277,76776,2,0,P|142:280|164:277,3,35,2|0|8|0,0:0|0:0|0:0|0:0,0:0:0:0:
184,263,77091,2,0,P|201:263|218:266,3,35,2|0|2|0,0:0|0:0|0:0|0:0,0:0:0:0:
265,283,77407,2,0,P|303:286|325:283,3,35,8|0|2|0,0:0|0:0|0:0|0:0,0:0:0:0:
338,276,77723,6,0,P|326:224|331:145,1,112,6|0,0:0|0:0,0:0:0:0:
422,158,78197,2,0,P|434:212|432:268,1,112,2|0,0:0|0:0,0:0:0:0:
342,331,78670,2,0,P|337:290|340:250,1,56,0|0,0:0|0:0,0:0:0:0:
243,324,78986,6,0,L|116:319,2,112,2|2|2,0:0|0:0|0:0,0:0:0:0:
422,158,79934,2,0,P|432:113|431:92,1,56,0|0,0:0|0:0,0:0:0:0:
359,41,80249,6,0,L|237:38,1,112,2|0,0:0|0:0,0:0:0:0:
218,129,80723,2,0,L|340:126,1,112,0|0,0:0|0:0,0:0:0:0:
366,218,81197,2,0,L|310:219,1,56,0|0,0:0|0:0,0:0:0:0:
439,259,81512,6,0,P|447:199|410:149,2,112,2|0|0,0:0|0:0|0:0,0:0:0:0:
246,314,82460,2,0,P|299:299|351:309,1,84,0|0,0:0|0:0,0:0:0:0:
372,311,82776,2,0,L|375:378,1,56,2|0,0:0|0:0,0:0:0:0:
248,369,83091,2,0,L|245:313,1,56,0|0,0:0|0:0,0:0:0:0:
91,100,83723,2,0,P|121:102|155:99,1,56,0|0,0:0|0:0,0:0:0:0:
232,24,84039,2,0,L|233:93,1,56,2|0,0:0|0:0,0:0:0:0:
251,179,84355,2,0,P|214:176|181:182,1,56,0|0,0:0|0:0,0:0:0:0:
91,100,84670,1,0,0:0:0:0:
91,100,84986,1,0,0:0:0:0:
91,100,85302,6,0,L|86:161,1,56,2|0,0:0|0:0,0:0:0:0:
142,233,85618,2,0,L|146:288,1,56,0|0,0:0|0:0,0:0:0:0:
75,352,85934,2,0,P|148:323|204:323,1,112,2|0,0:0|0:0,0:0:0:0:
339,214,86565,6,0,P|266:243|210:243,1,112,0|0,0:0|0:0,0:0:0:0:
91,100,87197,1,0,0:0:0:0:
406,170,87828,6,0,B|498:181|518:73|518:73|400:30|363:115,1,336,2|0,0:0|0:0,0:0:0:0:
378,294,89091,5,0,0:0:0:0:
368,104,89407,1,0,0:0:0:0:
416,360,89723,1,0,0:0:0:0:
406,170,90039,1,0,0:0:0:0:
229,248,90355,6,0,P|204:197|298:249,1,293.999991027832,6|0,0:0|0:0,0:0:0:0:
272,312,91618,2,0,P|162:339|229:248,1,293.999991027832,6|0,0:0|0:0,0:0:0:0:
305,243,92881,5,6,0:0:0:0:
256,192,92960,12,4,95407,0:0:0:0:
