osu file format v14

[General]
AudioFilename: audio.mp3
AudioLeadIn: 0
PreviewTime: 57039
Countdown: 0
SampleSet: Soft
StackLeniency: 0.7
Mode: 0
LetterboxInBreaks: 0
WidescreenStoryboard: 0

[Editor]
Bookmarks: 14091,14249,14407
DistanceSpacing: 1.4
BeatDivisor: 4
GridSize: 4
TimelineZoom: 1.650011

[Metadata]
Title:Re:TrymenT
TitleUnicode:Re:TrymenT
Artist:Hotaru Murasaki
ArtistUnicode:紫咲ほたる
Creator:Shiratoi
Version:Foxy Fox's Insane
Source:Re:LieF〜親愛なるあなたへ〜
Tags:eroge visual novel relief 甘利紗陽 saya amari Shin'ainaru Anata e レリーフ DeaR YoU retryment miu yuu game op rask opening nevo yamicchi lince cosmico foxygrandpa ultima fox lilyanna time capsule
BeatmapID:1401190
BeatmapSetID:636072

[Difficulty]
HPDrainRate:5
CircleSize:4.3
OverallDifficulty:8
ApproachRate:9
SliderMultiplier:2
SliderTickRate:1

[Events]
//Background and Video events
0,0,"Foxy Fox.jpg",0,0
//Break Periods
//Storyboard Layer 0 (Background)
//Storyboard Layer 1 (Fail)
//Storyboard Layer 2 (Pass)
//Storyboard Layer 3 (Foreground)
//Storyboard Sound Samples

[TimingPoints]
1934,315.789473684211,4,2,2,40,1,0
1934,-133.333333333333,4,2,2,40,0,0
2407,-166.666666666667,4,2,2,40,0,0
3197,-133.333333333333,4,2,2,40,0,0
3670,-166.666666666667,4,2,2,40,0,0
4460,-133.333333333333,4,2,2,40,0,0
6986,-133.333333333333,4,2,2,40,0,0
7460,-166.666666666667,4,2,2,40,0,0
9512,-133.333333333333,4,2,2,40,0,0
10460,-133.333333333333,4,2,2,40,0,0
10776,-111.111111111111,4,2,2,50,0,0
11170,-111.111111111111,4,2,2,10,0,0
11249,-90.9090909090908,4,2,2,60,0,0
11723,-90.9090909090908,4,2,2,50,0,0
11881,-66.6666666666667,4,2,2,50,0,0
12039,-100,4,2,1,70,0,0
14802,-100,4,2,1,20,0,0
14881,-100,4,2,1,90,0,0
14960,-100,4,2,1,20,0,0
15039,-100,4,2,1,70,0,0
17328,-100,4,2,1,20,0,0
17407,-100,4,2,1,70,0,0
17802,-100,4,2,1,20,0,0
17881,-100,4,2,1,70,0,0
19065,-100,4,2,1,20,0,0
19144,-100,4,2,1,70,0,0
21355,-200,4,2,2,40,0,0
22144,-133.333333333333,4,2,2,50,0,0
28065,-133.333333333333,4,2,2,20,0,0
28144,-133.333333333333,4,2,2,50,0,0
29012,-133.333333333333,4,2,2,20,0,0
29091,-133.333333333333,4,2,2,50,0,0
29960,-133.333333333333,4,2,2,20,0,0
30039,-133.333333333333,4,2,2,50,0,0
30907,-133.333333333333,4,2,1,20,0,0
30986,-133.333333333333,4,2,1,50,0,0
31302,-133.333333333333,4,2,2,70,0,0
32249,-133.333333333333,4,2,1,50,0,0
32565,-133.333333333333,4,2,2,50,0,0
34697,-133.333333333333,4,2,1,20,0,0
34776,-133.333333333333,4,2,1,50,0,0
35091,-133.333333333333,4,2,2,50,0,0
37223,-133.333333333333,4,2,1,20,0,0
37302,-133.333333333333,4,2,1,50,0,0
37618,-133.333333333333,4,2,2,50,0,0
38881,-133.333333333333,4,2,1,50,0,0
39197,-133.333333333333,4,2,2,50,0,0
39749,-133.333333333333,4,2,1,20,0,0
39828,-133.333333333333,4,2,1,50,0,0
40460,-133.333333333333,4,2,2,50,0,0
41407,-133.333333333333,4,2,2,70,0,0
42355,-100,4,2,1,60,0,0
44802,-100,4,2,1,20,0,0
44881,-100,4,2,1,60,0,0
52460,-100,4,2,1,50,0,0
54986,-100,4,2,1,60,0,0
56091,-166.666666666667,4,2,1,50,0,0
56802,-166.666666666667,4,2,1,20,0,0
56881,-66.6666666666667,4,2,1,70,0,0
57197,-83.3333333333333,4,2,2,50,0,0
57276,-83.3333333333333,4,2,2,20,0,0
57355,-83.3333333333333,4,2,2,50,0,0
57434,-83.3333333333333,4,2,2,20,0,0
57512,-100,4,2,1,80,0,1
57749,-100,4,2,1,20,0,1
57828,-100,4,2,1,80,0,1
57986,-166.666666666667,4,2,1,80,0,1
58460,-100,4,2,1,80,0,1
60276,-100,4,2,1,20,0,1
60355,-100,4,2,1,80,0,1
60512,-166.666666666667,4,2,1,80,0,1
60986,-100,4,2,1,80,0,1
62486,-100,4,2,1,20,0,1
62565,-100,4,2,1,80,0,1
64065,-100,4,2,1,20,0,1
64144,-100,4,2,1,80,0,1
65091,-100,4,2,1,90,0,1
65328,-100,4,2,1,20,0,1
65407,-100,4,2,1,90,0,1
65644,-100,4,2,1,20,0,1
65723,-100,4,2,1,90,0,1
65960,-100,4,2,1,20,0,1
66039,-100,4,2,1,90,0,1
66276,-100,4,2,1,20,0,1
66355,-100,4,2,1,90,0,1
66591,-100,4,2,1,20,0,1
66670,-100,4,2,1,90,0,1
66907,-100,4,2,1,20,0,1
66986,-100,4,2,1,90,0,1
67618,-166.666666666667,4,2,1,80,0,1
68249,-100,4,2,1,80,0,1
68881,-166.666666666667,4,2,1,80,0,1
69512,-100,4,2,1,80,0,1
76302,-166.666666666667,4,2,1,90,0,1
76776,-100,4,2,1,90,0,1
77723,-200,4,2,1,60,0,0
78039,-200,4,2,2,60,0,0
87828,-200,4,2,2,60,0,0
90355,-400,4,2,2,50,0,0
91460,-400,4,2,2,5,0,0
91618,-400,4,2,2,50,0,0
92723,-400,4,2,2,5,0,0
92881,-400,4,2,2,50,0,0
95407,-400,4,2,2,20,0,0

[Colours]
Combo1 : 147,240,156
Combo2 : 208,208,208
Combo3 : 158,141,241
Combo4 : 225,142,208

[HitObjects]
171,257,1934,6,0,P|180:213|198:180,1,75.0000028610231,2|0,0:0|0:0,0:0:0:0:
251,242,2249,1,0,0:0:0:0:
99,265,2407,2,0,P|103:215|143:140,1,119.999996337891,2|0,0:0|0:0,0:0:0:0:
134,153,2881,1,2,0:0:0:0:
340,157,3197,6,0,P|331:201|313:234,1,75.0000028610231,2|0,0:0|0:0,0:0:0:0:
260,172,3512,1,0,0:0:0:0:
412,149,3670,2,0,P|407:198|368:274,1,119.999996337891,2|0,0:0|0:0,0:0:0:0:
377,261,4144,1,2,0:0:0:0:
378,262,4460,6,0,P|339:270|302:304,1,75.0000028610231,6|0,0:0|0:0,0:0:0:0:
361,384,4776,1,0,0:0:0:0:
361,384,4934,2,0,P|397:378|463:291,1,150.000005722046,2|0,0:0|0:0,0:0:0:0:
462,293,5407,1,2,0:0:0:0:
311,290,5723,6,0,B|297:216|239:226|239:226|266:155|181:120,1,225.000008583069,2|2,0:0|0:0,0:0:0:0:
200,129,6355,1,0,0:0:0:0:
185,356,6670,1,2,0:0:0:0:
185,356,6986,6,0,B|172:323|172:323|178:271,1,75.0000028610231,4|0,0:0|0:0,0:0:0:0:
253,316,7302,1,0,0:0:0:0:
117,383,7460,2,0,B|95:322|95:322|103:263,1,119.999996337891,2|0,0:0|0:0,0:0:0:0:
102,267,7934,1,2,0:0:0:0:
102,267,8249,5,6,0:0:0:0:
66,255,8565,1,0,0:0:0:0:
66,217,8881,1,2,0:0:0:0:
102,206,9197,1,2,0:0:0:0:
124,236,9512,6,0,P|76:221|56:107,1,150.000005722046,6|0,0:0|0:0,0:0:0:0:
43,133,9986,1,2,0:0:0:0:
203,316,10460,5,2,0:0:0:0:
203,316,10776,6,0,P|244:259|239:132,1,179.999994506836,2|0,0:0|0:0,0:0:0:0:
381,286,11249,6,0,P|335:223|341:83,1,220.000006713867,2|0,0:0|0:0,0:0:0:0:
151,163,11723,6,0,P|163:146|144:155,1,55.0000016784668,2|0,0:0|0:0,0:0:0:0:
104,83,11881,6,0,P|79:110|64:145,1,75.0000028610231,8|8,0:0|0:0,0:0:0:0:
202,239,12039,6,0,P|226:211|247:150,1,100,6|0,0:0|0:0,0:0:0:0:
95,70,12355,2,0,P|70:97|49:158,1,100,2|0,0:0|0:0,0:0:0:0:
216,244,12670,2,0,P|240:216|261:155,1,100,2|0,0:0|0:0,0:0:0:0:
86,57,12986,2,0,P|61:84|40:145,1,100,2|0,0:0|0:0,0:0:0:0:
216,244,13302,6,0,L|331:317,1,100,2|0,0:0|0:0,0:0:0:0:
399,342,13618,1,2,0:0:0:0:
260,157,13776,2,0,L|352:257,1,100,8|0,3:0|0:0,0:0:0:0:
414,351,14091,1,2,0:0:0:0:
371,172,14249,1,8,0:0:0:0:
429,360,14407,1,0,0:0:0:0:
442,166,14565,6,0,L|470:49,1,100,6|0,0:0|0:0,0:0:0:0:
309,52,14881,1,2,0:0:0:0:
454,174,15039,2,0,L|482:57,1,100,0|2,0:0|0:0,0:0:0:0:
294,51,15355,2,0,L|265:167,1,100,0|2,0:0|0:0,0:0:0:0:
466,182,15670,2,0,L|494:65,1,100,8|0,0:0|0:0,0:0:0:0:
236,256,15986,5,8,3:0:0:0:
236,256,16065,1,0,0:0:0:0:
236,256,16144,1,8,0:0:0:0:
270,359,16302,1,8,3:0:0:0:
270,148,16460,1,0,0:0:0:0:
146,318,16618,1,8,3:0:0:0:
346,253,16776,1,8,0:0:0:0:
146,188,16934,1,8,0:0:0:0:
363,176,17091,6,0,P|363:116|336:64,1,100,6|0,0:0|0:0,0:0:0:0:
270,148,17407,1,2,0:0:0:0:
431,217,17565,2,0,P|446:159|433:101,1,100,8|0,3:0|0:0,0:0:0:0:
270,148,17881,1,0,0:0:0:0:
431,217,18039,1,2,0:0:0:0:
347,79,18197,1,2,0:0:0:0:
347,79,18276,1,2,0:0:0:0:
347,79,18355,5,2,0:0:0:0:
270,148,18512,1,0,0:0:0:0:
261,29,18670,1,2,0:0:0:0:
335,209,18828,2,0,P|269:237|214:212,1,100,8|0,3:0|0:0,0:0:0:0:
118,195,19144,1,2,0:0:0:0:
136,66,19302,1,8,0:0:0:0:
261,29,19460,1,0,0:0:0:0:
361,55,19618,5,2,0:0:0:0:
270,148,19776,1,0,0:0:0:0:
292,276,19934,1,0,0:0:0:0:
394,354,20091,1,0,0:0:0:0:
411,255,20249,5,6,0:0:0:0:
326,200,20407,1,0,0:0:0:0:
227,217,20565,1,0,0:0:0:0:
194,254,20723,1,0,0:0:0:0:
188,283,20881,1,2,0:0:0:0:
188,283,21355,5,2,0:0:0:0:
170,267,21434,1,2,0:0:0:0:
165,244,21512,1,2,0:0:0:0:
165,244,22144,5,2,0:0:0:0:
165,244,22460,2,0,P|152:165|65:142,2,150.000005722046,0|2|0,0:0|0:0|0:0,0:0:0:0:
181,94,23249,1,0,0:0:0:0:
181,94,23407,2,0,P|220:139|242:243,1,150.000005722046,0|0,0:0|0:0,0:0:0:0:
371,167,24039,2,0,P|324:226|308:298,1,150.000005722046,2|0,0:0|0:0,0:0:0:0:
309,298,24670,5,2,0:0:0:0:
309,298,24986,2,0,P|230:311|207:398,2,150.000005722046,0|2|0,0:0|0:0|0:0,0:0:0:0:
279,219,25775,1,0,0:0:0:0:
279,219,25933,2,0,P|205:240|153:291,1,150.000005722046,0|0,0:0|0:0,0:0:0:0:
149,83,26565,2,0,P|208:130|280:146,1,150.000005722046,2|0,0:0|0:0,0:0:0:0:
450,101,27197,5,2,0:0:0:0:
450,101,27512,2,0,P|432:154|451:257,1,150.000005722046,0|2,0:0|0:0,0:0:0:0:
445,245,28144,1,0,0:0:0:0:
445,245,28302,6,0,L|263:250,1,150.000005722046,0|0,0:0|0:0,0:0:0:0:
212,195,28776,2,0,P|198:266|240:334,2,150.000005722046,0|2|0,0:0|0:0|0:0,0:0:0:0:
81,165,29723,6,0,P|110:195|224:187,1,150.000005722046,2|0,0:0|0:0,0:0:0:0:
345,184,30197,2,0,L|347:342,1,150.000005722046,0|0,0:0|0:0,0:0:0:0:
430,330,30670,2,0,L|432:182,1,112.500004291535,0|0,0:0|0:0,0:0:0:0:
344,108,30986,2,0,L|344:183,1,75.0000028610231,0|0,0:0|0:0,0:0:0:0:
344,29,31302,5,2,0:0:0:0:
258,16,31460,1,0,0:0:0:0:
134,106,31618,5,2,0:0:0:0:
220,93,31776,1,0,0:0:0:0:
344,183,31934,5,2,0:0:0:0:
258,170,32092,1,2,0:0:0:0:
206,322,32249,5,2,0:0:0:0:
206,322,32565,2,0,P|156:294|137:201,1,150.000005722046,0|8,0:0|0:0,0:0:0:0:
222,232,33039,2,0,L|71:323,1,150.000005722046,0|0,0:0|0:0,0:0:0:0:
24,177,33512,6,0,L|175:86,1,150.000005722046,0|0,0:0|0:0,0:0:0:0:
350,154,34144,2,0,L|199:245,1,150.000005722046,8|0,0:0|0:0,0:0:0:0:
93,309,34776,5,2,0:0:0:0:
297,312,35092,2,0,P|347:284|366:191,1,150.000005722046,0|8,0:0|0:0,0:0:0:0:
282,221,35566,2,0,L|433:312,1,150.000005722046,0|0,0:0|0:0,0:0:0:0:
488,177,36039,6,0,L|337:86,1,150.000005722046,2|0,0:0|0:0,0:0:0:0:
154,143,36671,2,0,L|305:234,1,150.000005722046,8|0,0:0|0:0,0:0:0:0:
282,220,37302,5,2,0:0:0:0:
282,220,37618,2,0,P|212:236|158:314,1,150.000005722046,0|8,0:0|0:0,0:0:0:0:
65,265,38249,1,0,0:0:0:0:
65,265,38407,6,0,P|62:205|-3:128,1,150.000005722046,0|8,0:0|0:0,0:0:0:0:
149,57,38881,2,0,P|152:117|217:194,1,150.000005722046,0|8,0:0|0:0,0:0:0:0:
204,186,39512,1,0,0:0:0:0:
204,186,39828,6,0,P|202:140|280:220,1,300.000011444092,2|8,0:0|0:0,0:0:0:0:
130,205,40776,1,0,0:0:0:0:
130,205,40934,2,0,P|124:130|151:54,1,150.000005722046,8|0,0:0|0:0,0:0:0:0:
383,234,41407,5,2,0:0:0:0:
334,132,41565,1,0,0:0:0:0:
243,134,41723,1,2,0:0:0:0:
199,195,41881,1,0,0:0:0:0:
218,251,42039,1,2,0:0:0:0:
261,262,42197,1,2,0:0:0:0:
295,241,42355,6,0,P|251:270|258:343,1,100,6|0,0:0|0:0,0:0:0:0:
371,254,42670,2,0,P|367:202|301:171,1,100,2|0,0:0|0:0,0:0:0:0:
322,313,42986,2,0,P|368:335|428:293,1,100,2|0,0:0|0:0,0:0:0:0:
295,241,43302,5,8,3:0:0:0:
141,162,43460,1,10,0:0:0:0:
295,241,43618,1,2,0:0:0:0:
233,103,43776,1,8,3:0:0:0:
201,329,43934,1,8,0:0:0:0:
201,329,44249,1,2,0:0:0:0:
216,216,44407,1,0,0:0:0:0:
281,340,44565,2,0,L|295:238,1,100,8|0,0:0|0:0,0:0:0:0:
136,205,44881,6,0,L|122:307,1,100,6|0,0:0|0:0,0:0:0:0:
216,216,45197,1,2,0:0:0:0:
233,103,45355,1,0,0:0:0:0:
294,240,45512,2,0,L|307:140,1,100,2|0,0:0|0:0,0:0:0:0:
149,105,45828,1,8,3:0:0:0:
149,105,45986,2,0,L|135:207,1,100,10|0,0:0|0:0,0:0:0:0:
216,216,46302,1,8,3:0:0:0:
338,110,46460,5,8,0:0:0:0:
359,293,46618,1,0,0:0:0:0:
261,133,46776,5,8,0:0:0:0:
435,270,46934,1,2,0:0:0:0:
216,216,47091,5,8,0:0:0:0:
479,187,47249,1,2,0:0:0:0:
267,303,47407,6,0,B|212:287|186:342|186:342|140:298|80:351,1,200,6|0,0:0|0:0,0:0:0:0:
74,206,47881,1,2,0:0:0:0:
74,206,48039,2,0,L|83:81,1,100,8|0,0:0|0:0,0:0:0:0:
188,186,48355,2,0,L|197:61,1,100,2|2,0:0|0:0,0:0:0:0:
310,66,48670,5,0,0:0:0:0:
310,66,48828,2,0,L|302:166,1,100,2|2,0:0|0:0,0:0:0:0:
302,166,49144,1,0,0:0:0:0:
411,4,49302,5,8,0:0:0:0:
395,192,49460,1,8,0:0:0:0:
310,66,49618,1,8,3:0:0:0:
464,124,49776,1,0,0:0:0:0:
302,166,49934,6,0,L|284:379,1,200,6|0,0:0|0:0,0:0:0:0:
204,305,50407,1,2,0:0:0:0:
204,305,50565,2,0,L|211:205,1,100,8|0,0:0|0:0,0:0:0:0:
384,226,50881,2,0,L|376:325,1,100,2|2,0:0|0:0,0:0:0:0:
185,303,51197,2,0,L|193:204,1,100,0|2,0:0|0:0,0:0:0:0:
402,227,51512,5,8,0:0:0:0:
394,326,51670,1,0,0:0:0:0:
312,270,51828,5,8,0:0:0:0:
492,184,51986,1,8,3:0:0:0:
394,326,52144,5,8,0:0:0:0:
319,170,52301,1,0,0:0:0:0:
485,284,52460,6,0,P|407:241|410:124,1,200,6|2,0:0|0:0,0:0:0:0:
492,184,52934,1,0,0:0:0:0:
406,40,53091,2,0,P|357:50|319:81,1,100,2|0,0:0|0:0,0:0:0:0:
223,212,53407,2,0,P|195:170|190:121,1,100,2|0,0:0|0:0,0:0:0:0:
295,156,53644,1,0,0:0:0:0:
295,156,53723,6,0,P|322:197|327:246,1,100,2|0,0:0|0:0,0:0:0:0:
499,337,54039,2,0,P|471:295|466:246,1,100,2|0,0:0|0:0,0:0:0:0:
303,350,54355,2,0,P|352:346|397:367,1,100,2|0,0:0|0:0,0:0:0:0:
389,173,54670,2,0,P|366:217|326:246,1,100,2|0,0:0|0:0,0:0:0:0:
295,156,54907,1,0,0:0:0:0:
295,156,54986,5,6,0:0:0:0:
295,156,55302,5,8,0:0:0:0:
197,108,55460,1,8,0:0:0:0:
357,84,55618,5,8,0:0:0:0:
135,180,55776,1,8,0:0:0:0:
389,173,55934,5,8,0:0:0:0:
103,91,56092,1,6,0:0:0:0:
256,192,56170,12,2,56881,1:0:0:0:
168,255,57197,5,2,0:0:0:0:
227,82,57355,1,2,0:0:0:0:
406,222,57512,6,0,P|343:232|297:217,1,100,6|0,0:0|0:0,0:0:0:0:
385,88,57828,1,8,0:0:0:0:
445,239,57986,6,0,P|392:274|326:273,1,119.999996337891
245,162,58460,2,0,L|254:58,1,100,8|0,0:0|0:0,0:0:0:0:
93,166,58776,6,0,L|101:265,1,100,2|0,0:0|0:0,0:0:0:0:
284,370,59091,2,0,P|310:312|300:253,1,100,10|2,0:0|0:0,0:0:0:0:
190,135,59407,2,0,P|227:186|283:207,1,100,2|2,0:0|0:0,0:0:0:0:
444,170,59723,2,0,P|380:176|334:214,1,100,8|0,0:0|0:0,0:0:0:0:
180,339,60039,6,0,P|175:260|146:216,1,100,2|0,0:0|0:0,0:0:0:0:
49,313,60355,1,8,0:0:0:0:
202,370,60512,6,0,P|220:320|212:246,1,119.999996337891
102,165,60986,2,0,L|3:175,1,100,8|0,0:0|0:0,0:0:0:0:
194,65,61302,6,0,L|293:75,1,100,2|0,0:0|0:0,0:0:0:0:
475,54,61618,2,0,P|425:111|419:156,1,100,10|2,0:0|0:0,0:0:0:0:
488,301,61934,2,0,P|463:229|427:201,1,100,2|2,0:0|0:0,0:0:0:0:
265,189,62249,2,0,P|339:203|381:186,1,100,8|0,0:0|0:0,0:0:0:0:
279,83,62565,6,0,B|178:54|177:137|51:78,1,200,2|8,0:0|0:0,0:0:0:0:
240,207,63039,2,0,L|236:157,2,50,0|0|2,0:0|0:0|0:0,0:0:0:0:
146,283,63355,1,0,0:0:0:0:
248,332,63512,2,0,P|297:313|361:315,1,100,8|0,0:0|0:0,0:0:0:0:
491,363,63828,6,0,P|467:308|470:238,1,100,2|0,0:0|0:0,0:0:0:0:
510,129,64144,2,0,L|396:147,1,100,10|2,0:0|0:0,0:0:0:0:
236,48,64460,2,0,L|350:66,1,100,0|2,0:0|0:0,0:0:0:0:
497,159,64776,2,0,L|383:177,1,100,10|0,0:0|0:0,0:0:0:0:
236,147,65091,6,0,P|259:200|254:273,1,100,6|0,0:0|0:0,0:0:0:0:
194,351,65407,1,8,0:0:0:0:
119,234,65565,1,0,0:0:0:0:
339,185,65723,6,0,P|342:242|312:309,1,100,6|0,0:0|0:0,0:0:0:0:
229,362,66039,1,8,0:0:0:0:
199,226,66197,1,0,0:0:0:0:
356,307,66355,6,0,L|477:315,1,100,6|0,0:0|0:0,0:0:0:0:
295,189,66670,2,0,L|174:197,1,100,8|0,0:0|0:0,0:0:0:0:
399,93,66986,1,8,3:0:0:0:
396,222,67144,1,8,0:0:0:0:
290,89,67302,1,2,0:0:0:0:
468,347,67618,6,0,P|410:333|341:348,1,119.999996337891,6|0,0:0|0:0,0:0:0:0:
477,213,68091,1,2,0:0:0:0:
396,295,68249,6,0,P|322:305|293:295,1,100,8|0,0:0|0:0,0:0:0:0:
295,158,68565,2,0,P|369:148|398:158,1,100,0|2,0:0|0:0,0:0:0:0:
214,241,68881,6,0,P|208:179|160:117,1,119.999996337891,4|2,0:0|0:0,0:0:0:0:
92,258,69355,1,0,0:0:0:0:
242,268,69512,6,0,P|256:210|246:152,1,100,8|0,0:0|0:0,0:0:0:0:
175,53,69828,1,2,0:0:0:0:
324,107,69986,1,8,0:0:0:0:
174,223,70144,6,0,L|61:230,1,100,2|0,0:0|0:0,0:0:0:0:
270,369,70460,2,0,P|275:302|250:255,1,100,8|0,0:0|0:0,0:0:0:0:
365,149,70776,2,0,P|350:196|358:245,1,100,2|0,2:0|2:0,0:0:0:0:
471,204,71091,2,0,P|486:157|478:108,1,100,8|0,2:0|2:0,0:0:0:0:
349,58,71407,6,0,P|277:67|247:90,1,100,2|2,0:0|0:0,0:0:0:0:
299,246,71723,2,0,P|327:179|322:141,1,100,8|2,0:0|0:0,0:0:0:0:
163,108,72039,2,0,P|206:165|241:180,1,100,0|2,0:0|0:0,0:0:0:0:
349,58,72355,1,8,0:0:0:0:
78,123,72670,6,0,L|68:236,1,100,6|2,0:0|0:0,0:0:0:0:
245,315,72986,2,0,L|236:215,1,100,8|2,0:0|0:0,0:0:0:0:
382,122,73302,5,8,0:0:0:0:
361,277,73460,1,2,0:0:0:0:
268,136,73618,5,8,0:0:0:0:
485,170,73776,1,2,0:0:0:0:
360,303,73934,6,0,P|303:286|231:301,1,100,12|2,0:0|0:0,0:0:0:0:
62,215,74249,2,0,P|111:217|158:201,1,100,8|2,0:0|0:0,0:0:0:0:
221,47,74565,2,0,L|273:145,1,100,8|2,0:0|0:0,0:0:0:0:
360,303,74881,1,2,0:0:0:0:
450,185,75039,1,2,0:0:0:0:
480,181,75118,1,0,0:0:0:0:
511,176,75197,5,12,0:0:0:0:
341,287,75355,2,0,P|283:276|216:294,1,100,2|8,0:0|0:0,0:0:0:0:
87,364,75670,2,0,P|145:375|212:357,1,100,8|0,0:0|0:0,0:0:0:0:
209,202,75986,1,2,0:0:0:0:
142,296,76144,1,0,0:0:0:0:
279,383,76302,6,0,P|266:332|280:257,1,119.999996337891,12|0,0:0|0:0,0:0:0:0:
384,221,76776,2,0,L|449:227,3,50,2|0|8|0,0:0|0:0|0:0|0:0,0:0:0:0:
241,162,77091,2,0,L|176:168,3,50,2|0|2|0,0:0|0:0|0:0|0:0,0:0:0:0:
339,86,77407,1,8,0:0:0:0:
373,87,77486,1,0,0:0:0:0:
407,88,77565,1,2,0:0:0:0:
441,90,77644,1,0,0:0:0:0:
473,92,77723,6,0,L|481:152,2,50,6|0|0,0:0|0:0|0:0,0:0:0:0:
387,163,78197,2,0,L|380:269,1,100,2|0,0:0|0:0,0:0:0:0:
279,164,78670,2,0,L|271:114,1,50,0|0,0:0|0:0,0:0:0:0:
174,142,78986,1,2,0:0:0:0:
307,252,79302,5,2,0:0:0:0:
353,97,79618,1,2,0:0:0:0:
174,142,79934,1,0,0:0:0:0:
373,193,80249,6,0,L|423:189,2,50,2|0|0,0:0|0:0|0:0,0:0:0:0:
319,281,80723,2,0,P|277:266|206:274,1,100,0|0,0:0|0:0,0:0:0:0:
206,185,81197,2,0,P|166:205|151:221,1,50,0|0,0:0|0:0,0:0:0:0:
167,322,81512,1,2,0:0:0:0:
298,186,81828,5,0,0:0:0:0:
92,159,82144,1,0,0:0:0:0:
167,322,82460,1,0,0:0:0:0:
236,128,82776,6,0,L|223:62,2,50,2|0|0,0:0|0:0|0:0,0:0:0:0:
341,137,83249,2,0,P|329:178|336:241,1,100,0|0,0:0|0:0,0:0:0:0:
425,235,83723,2,0,P|416:193|420:167,1,50,0|0,0:0|0:0,0:0:0:0:
503,198,84039,1,2,0:0:0:0:
376,305,84355,5,0,0:0:0:0:
341,137,84670,1,0,0:0:0:0:
503,198,84986,1,0,0:0:0:0:
306,270,85302,6,0,L|252:266,2,50,2|0|0,0:0|0:0|0:0,0:0:0:0:
252,167,85776,1,0,0:0:0:0:
252,167,85934,2,0,L|144:180,1,100,2|0,0:0|0:0,0:0:0:0:
47,137,86407,1,0,0:0:0:0:
47,137,86565,2,0,P|67:186|71:246,1,100,0|0,0:0|0:0,0:0:0:0:
26,343,87197,1,0,0:0:0:0:
156,281,87828,6,0,B|251:244|256:330|371:282,1,200,2|0,0:0|0:0,0:0:0:0:
350,289,88776,2,0,L|339:219,1,50,0|0,0:0|0:0,0:0:0:0:
440,172,89091,5,0,0:0:0:0:
437,317,89407,1,0,0:0:0:0:
299,172,89723,1,0,0:0:0:0:
504,238,90039,1,0,0:0:0:0:
362,334,90355,6,0,P|291:320|221:357,1,150,6|0,0:0|0:0,0:0:0:0:
165,285,91618,6,0,P|236:271|306:308,1,150,6|0,0:0|0:0,0:0:0:0:
362,235,92881,6,0,B|376:200|430:192|430:192|331:198|330:135|333:130|333:125|318:52|212:45|175:125|255:173|275:134,1,400,6|4,0:0|0:0,0:0:0:0:
