osu file format v14

[General]
AudioFilename: audio.mp3
AudioLeadIn: 0
PreviewTime: 57039
Countdown: 0
SampleSet: Soft
StackLeniency: 0.6
Mode: 0
LetterboxInBreaks: 0
WidescreenStoryboard: 0

[Editor]
DistanceSpacing: 1
BeatDivisor: 4
GridSize: 4
TimelineZoom: 1

[Metadata]
Title:Re:TrymenT
TitleUnicode:Re:TrymenT
Artist:Hotaru Murasaki
ArtistUnicode:紫咲ほたる
Creator:Shiratoi
Version:Easy
Source:Re:LieF〜親愛なるあなたへ〜
Tags:eroge visual novel relief 甘利紗陽 saya amari Shin'ainaru Anata e レリーフ DeaR YoU retryment miu yuu game op rask opening nevo yamicchi lince cosmico foxygrandpa ultima fox lilyanna time capsule
BeatmapID:1369609
BeatmapSetID:636072

[Difficulty]
HPDrainRate:3
CircleSize:3
OverallDifficulty:3
ApproachRate:3
SliderMultiplier:0.9
SliderTickRate:1

[Events]
//Background and Video events
0,0,"BG.jpg",0,0
//Break Periods
//Storyboard Layer 0 (Background)
//Storyboard Layer 1 (Fail)
//Storyboard Layer 2 (Pass)
//Storyboard Layer 3 (Foreground)
//Storyboard Sound Samples

[TimingPoints]
1934,315.789473684211,4,2,2,40,1,0
10776,-100,4,2,2,50,0,0
11170,-100,4,2,2,10,0,0
11249,-100,4,2,2,60,0,0
11723,-100,4,2,2,50,0,0
12039,-100,4,2,1,70,0,0
14802,-100,4,2,1,20,0,0
14881,-100,4,2,1,90,0,0
14960,-100,4,2,1,20,0,0
15039,-100,4,2,1,70,0,0
17328,-100,4,2,1,20,0,0
17407,-100,4,2,1,70,0,0
17802,-100,4,2,1,20,0,0
17881,-100,4,2,1,70,0,0
19065,-100,4,2,1,20,0,0
19144,-100,4,2,1,70,0,0
21355,-100,4,2,2,40,0,0
22144,-100,4,2,2,50,0,0
28065,-100,4,2,2,20,0,0
28144,-100,4,2,2,50,0,0
29012,-100,4,2,2,20,0,0
29091,-100,4,2,2,50,0,0
29960,-100,4,2,2,20,0,0
30039,-100,4,2,2,50,0,0
30907,-100,4,2,1,20,0,0
30986,-100,4,2,1,50,0,0
31302,-100,4,2,2,70,0,0
32249,-100,4,2,1,50,0,0
32565,-100,4,2,2,50,0,0
34697,-100,4,2,1,20,0,0
34776,-100,4,2,1,50,0,0
35091,-100,4,2,2,50,0,0
37223,-100,4,2,1,20,0,0
37302,-100,4,2,1,50,0,0
37618,-100,4,2,2,50,0,0
38881,-100,4,2,1,50,0,0
39197,-100,4,2,2,50,0,0
39749,-100,4,2,1,20,0,0
39828,-100,4,2,1,50,0,0
40460,-100,4,2,2,50,0,0
41407,-100,4,2,2,70,0,0
42355,-100,4,2,1,60,0,0
44802,-100,4,2,1,20,0,0
44881,-100,4,2,1,60,0,0
52460,-100,4,2,1,50,0,0
54986,-100,4,2,1,60,0,0
56091,-100,4,2,1,50,0,0
56249,-100,4,2,1,50,0,0
56802,-100,4,2,1,20,0,0
56881,-100,4,2,1,70,0,0
57197,-100,4,2,2,50,0,0
57276,-100,4,2,2,20,0,0
57355,-100,4,2,2,50,0,0
57434,-100,4,2,2,20,0,0
57512,-100,4,2,1,80,0,1
57749,-100,4,2,1,20,0,1
57828,-100,4,2,1,80,0,1
60276,-100,4,2,1,20,0,1
60355,-100,4,2,1,80,0,1
62486,-100,4,2,1,20,0,1
62565,-100,4,2,1,80,0,1
64065,-100,4,2,1,20,0,1
64144,-100,4,2,1,80,0,1
65091,-100,4,2,1,90,0,1
65328,-100,4,2,1,20,0,1
65407,-100,4,2,1,90,0,1
65644,-100,4,2,1,20,0,1
65723,-100,4,2,1,90,0,1
65960,-100,4,2,1,20,0,1
66039,-100,4,2,1,90,0,1
66276,-100,4,2,1,20,0,1
66355,-100,4,2,1,90,0,1
66591,-100,4,2,1,20,0,1
66670,-100,4,2,1,90,0,1
66907,-100,4,2,1,20,0,1
66986,-100,4,2,1,90,0,1
67618,-100,4,2,1,80,0,1
76302,-100,4,2,1,90,0,1
77723,-100,4,2,1,60,0,0
78039,-100,4,2,2,60,0,0
90355,-100,4,2,2,50,0,0
91460,-100,4,2,2,5,0,0
91618,-100,4,2,2,50,0,0
92723,-100,4,2,2,5,0,0
92881,-100,4,2,2,50,0,0
95407,-100,4,2,2,20,0,0

[Colours]
Combo1 : 150,220,146
Combo2 : 128,174,208
Combo3 : 187,151,232
Combo4 : 225,142,208

[HitObjects]
366,155,1934,6,0,B|348:82|385:92|360:8,2,135,2|2|2,0:0|0:0|0:0,0:0:0:0:
434,213,3197,2,0,P|378:243|306:223,1,135,2|2,0:0|0:0,0:0:0:0:
216,130,4144,1,2,0:0:0:0:
224,219,4460,6,0,L|227:364,2,135,6|2|2,0:0|0:0|0:0,0:0:0:0:
140,185,5723,2,0,P|122:134|163:55,1,135,2|2,0:0|0:0,0:0:0:0:
281,72,6670,1,2,0:0:0:0:
338,141,6986,6,0,P|265:158|209:122,2,135,4|2|2,0:0|0:0|0:0,0:0:0:0:
369,56,8249,2,0,P|417:37|471:48,2,90,6|0|2,0:0|0:0|0:0,0:0:0:0:
428,122,9197,1,2,0:0:0:0:
398,206,9512,6,0,L|404:357,2,135,6|2|2,0:0|0:0|0:0,0:0:0:0:
338,141,10776,1,2,0:0:0:0:
261,252,11249,1,2,0:0:0:0:
215,130,11723,1,2,0:0:0:0:
178,212,12039,6,0,P|171:273|187:311,1,90,6|2,0:0|0:0,0:0:0:0:
255,347,12670,2,0,P|313:327|340:297,1,90,2|2,0:0|0:0,0:0:0:0:
349,219,13302,2,0,P|327:169|354:87,2,135,2|8|8,0:0|3:0|0:0,0:0:0:0:
412,154,14565,5,6,0:0:0:0:
394,19,15039,1,0,0:0:0:0:
303,17,15355,2,0,L|194:23,1,90,0|8,0:0|0:0,0:0:0:0:
135,68,15986,2,0,P|75:44|107:141,1,225,8|8,3:0|0:0,0:0:0:0:
190,143,17091,6,0,L|194:277,1,135,6|8,0:0|3:0,0:0:0:0:
93,368,18039,1,2,0:0:0:0:
95,277,18355,2,0,L|99:142,1,135,2|8,0:0|3:0,0:0:0:0:
210,64,19302,1,8,0:0:0:0:
284,114,19618,6,0,B|313:142|357:140|357:140|400:92|468:120,2,180,2|6|2,0:0|0:0|0:0,0:0:0:0:
425,192,22144,6,0,P|467:254|426:355,1,180,2|2,0:0|0:0,0:0:0:0:
256,361,23407,1,0,0:0:0:0:
289,277,23723,2,0,L|390:269,2,90,0|2|0,0:0|0:0|0:0,0:0:0:0:
198,279,24670,6,0,L|6:263,1,180,2|2,0:0|0:0,0:0:0:0:
161,154,25934,1,0,0:0:0:0:
238,109,26249,2,0,P|250:152|240:196,2,90,0|2|0,0:0|0:0|0:0,0:0:0:0:
161,61,27197,6,0,P|199:29|323:79,2,180,2|2|0,0:0|0:0|0:0,0:0:0:0:
83,107,28776,1,0,0:0:0:0:
152,164,29091,2,0,L|157:253,1,90,2|0,0:0|0:0,0:0:0:0:
245,244,29723,6,0,L|236:109,1,135,2|0,0:0|0:0,0:0:0:0:
328,207,30670,1,0,0:0:0:0:
323,295,30986,2,0,P|401:257|407:171,2,180,0|2|2,0:0|0:0|0:0,0:0:0:0:
335,115,32881,6,0,P|366:91|433:88,1,90,8|0,0:0|0:0,0:0:0:0:
485,139,33512,2,0,P|501:230|481:328,2,180,0|8|2,0:0|0:0|0:0,0:0:0:0:
498,50,35091,1,0,0:0:0:0:
415,83,35407,2,0,P|371:88|335:115,1,90,8|0,0:0|0:0,0:0:0:0:
245,128,36039,6,0,B|157:104|162:171|64:148,2,180,2|8|2,0:0|0:0|0:0,0:0:0:0:
304,195,37618,1,0,0:0:0:0:
215,209,37934,2,0,L|217:348,2,135,8|0|0,0:0|0:0|0:0,0:0:0:0:
245,128,39197,1,8,0:0:0:0:
363,263,39828,6,0,P|390:207|335:110,2,180,2|8|0,0:0|0:0|0:0,0:0:0:0:
304,195,41407,1,2,0:0:0:0:
245,128,41723,2,0,P|246:88|276:37,1,90,2|2,0:0|0:0,0:0:0:0:
181,21,42355,6,0,L|84:26,1,90,6|2,0:0|0:0,0:0:0:0:
47,104,42986,2,0,P|26:158|57:242,2,135,2|10|8,0:0|0:0|0:0,0:0:0:0:
114,163,44249,2,0,L|203:158,1,90,2|8,0:0|0:0,0:0:0:0:
283,201,44881,6,0,P|276:242|291:303,1,90,6|2,0:0|0:0,0:0:0:0:
361,241,45512,2,0,L|496:236,2,135,2|10|8,0:0|0:0|0:0,0:0:0:0:
366,150,46776,2,0,L|364:46,1,90,8|8,0:0|0:0,0:0:0:0:
441,14,47407,5,6,0:0:0:0:
278,91,48039,2,0,P|216:87|142:88,2,135,8|2|2,0:0|0:0|0:0,0:0:0:0:
364,60,49302,2,0,L|366:150,1,90,8|8,0:0|3:0,0:0:0:0:
361,241,49934,5,6,0:0:0:0:
456,88,50565,2,0,P|454:155|459:222,2,135,8|2|8,0:0|0:0|0:0,0:0:0:0:
364,60,51828,2,0,P|316:62|260:59,1,90,8|8,0:0|0:0,0:0:0:0:
245,145,52460,6,0,L|261:343,2,180,6|2|2,0:0|0:0|0:0,0:0:0:0:
189,74,54039,1,2,0:0:0:0:
155,157,54355,2,0,L|65:154,1,90,2|2,0:0|0:0,0:0:0:0:
256,192,54986,12,6,56091,0:0:0:0:
188,136,57512,6,0,P|240:130|290:130,1,90,6|8,0:0|0:0,0:0:0:0:
310,213,58144,2,0,P|362:219|412:219,1,90,2|8,0:0|0:0,0:0:0:0:
438,137,58776,2,0,P|466:162|440:303,1,180,2|2,0:0|0:0,0:0:0:0:
367,313,59723,1,8,0:0:0:0:
277,299,60039,6,0,P|225:293|175:293,1,90,2|8,0:0|0:0,0:0:0:0:
138,368,60670,2,0,P|86:374|36:374,1,90,2|8,0:0|0:0,0:0:0:0:
27,286,61302,2,0,L|34:102,1,180,2|2,0:0|0:0,0:0:0:0:
83,31,62249,1,8,0:0:0:0:
120,112,62565,6,0,B|206:79|206:155|299:97,1,180,2|2,0:0|0:0,0:0:0:0:
350,31,63512,1,8,0:0:0:0:
379,116,63828,2,0,P|397:152|393:211,1,90,2|10,0:0|0:0,0:0:0:0:
306,195,64460,2,0,P|288:231|292:290,1,90,0|10,0:0|0:0,0:0:0:0:
261,365,65091,6,0,L|449:356,2,180,6|6|6,0:0|0:0|0:0,0:0:0:0:
171,354,66670,1,8,0:0:0:0:
200,268,66986,2,0,L|196:164,1,90,8|2,3:0|0:0,0:0:0:0:
158,96,67618,6,0,L|354:93,1,180,6|8,0:0|0:0,0:0:0:0:
427,97,68565,1,0,0:0:0:0:
376,175,68881,2,0,L|196:177,1,180,4|8,0:0|0:0,0:0:0:0:
106,173,69828,1,2,0:0:0:0:
151,250,70144,6,0,P|160:297|154:342,2,90,2|8|2,0:0|0:0|2:0,0:0:0:0:
196,176,71091,1,8,2:0:0:0:
158,96,71407,2,0,P|149:49|155:4,2,90,2|8|0,0:0|0:0|0:0,0:0:0:0:
248,99,72355,1,8,0:0:0:0:
318,43,72670,6,0,B|418:17|397:86|505:30,2,180,6|8|12,0:0|0:0|0:0,0:0:0:0:
360,122,74249,1,8,0:0:0:0:
341,210,74565,2,0,L|348:318,1,90,8|2,0:0|0:0,0:0:0:0:
258,276,75197,6,0,L|248:132,1,135,12|8,0:0|0:0,0:0:0:0:
187,75,75986,1,2,0:0:0:0:
134,148,76302,2,0,L|125:282,1,135,12|2,0:0|0:0,0:0:0:0:
194,339,77091,1,2,0:0:0:0:
258,276,77407,1,8,0:0:0:0:
284,362,77723,5,6,0:0:0:0:
64,78,78986,2,0,P|115:68|156:76,1,90,2|2,0:0|0:0,0:0:0:0:
237,102,79618,2,0,P|288:112|329:104,1,90,2|0,0:0|0:0,0:0:0:0:
394,48,80249,5,2,0:0:0:0:
99,255,81512,2,0,L|110:149,1,90,2|0,0:0|0:0,0:0:0:0:
195,189,82144,2,0,L|203:278,1,90,0|0,0:0|0:0,0:0:0:0:
139,342,82776,6,0,P|190:367|273:335,1,135,2|0,0:0|0:0,0:0:0:0:
333,132,84039,2,0,B|301:153|301:153|290:231|333:295,1,180,2|0,0:0|0:0,0:0:0:0:
406,334,84986,1,0,0:0:0:0:
410,244,85302,6,0,L|499:236,2,90,2|0|2,0:0|0:0|0:0,0:0:0:0:
262,346,86565,1,0,0:0:0:0:
205,174,87197,1,0,0:0:0:0:
139,342,87828,5,2,0:0:0:0:
352,52,89091,2,0,L|453:59,2,90,0|0|0,0:0|0:0|0:0,0:0:0:0:
269,88,90039,1,0,0:0:0:0:
320,162,90355,6,0,P|387:240|308:376,1,270,6|0,0:0|0:0,0:0:0:0:
227,372,91618,2,0,P|154:267|224:161,1,270,6|0,0:0|0:0,0:0:0:0:
320,162,92881,5,6,0:0:0:0:
256,192,93197,12,4,95407,0:0:0:0:
