osu file format v14

[General]
AudioFilename: audio.mp3
AudioLeadIn: 0
PreviewTime: 57039
Countdown: 0
SampleSet: Soft
StackLeniency: 0.4
Mode: 0
LetterboxInBreaks: 0
WidescreenStoryboard: 0

[Editor]
Bookmarks: 84355
DistanceSpacing: 0.8
BeatDivisor: 4
GridSize: 8
TimelineZoom: 2.3

[Metadata]
Title:Re:TrymenT
TitleUnicode:Re:TrymenT
Artist:Hotaru Murasaki
ArtistUnicode:紫咲ほたる
Creator:Shiratoi
Version:Resonance
Source:Re:LieF〜親愛なるあなたへ〜
Tags:eroge visual novel relief 甘利紗陽 saya amari Shin'ainaru Anata e レリーフ DeaR YoU retryment miu yuu game op rask opening nevo yamicchi lince cosmico foxygrandpa ultima fox lilyanna time capsule
BeatmapID:1349765
BeatmapSetID:636072

[Difficulty]
HPDrainRate:7
CircleSize:4
OverallDifficulty:8.3
ApproachRate:9.2
SliderMultiplier:1.8
SliderTickRate:1

[Events]
//Background and Video events
0,0,"Extra.jpg",0,0
//Break Periods
//Storyboard Layer 0 (Background)
//Storyboard Layer 1 (Fail)
//Storyboard Layer 2 (Pass)
//Storyboard Layer 3 (Foreground)
//Storyboard Sound Samples

[TimingPoints]
1934,315.789473684211,4,2,2,40,1,0
1934,-125,4,2,2,40,0,0
4144,-166.666666666667,4,2,2,40,0,0
5407,-166.666666666667,4,2,2,40,0,0
5723,-142.857142857143,4,2,2,40,0,0
7934,-166.666666666667,4,2,2,40,0,0
8249,-142.857142857143,4,2,2,40,0,0
9197,-166.666666666667,4,2,2,40,0,0
10776,-142.857142857143,4,2,2,50,0,0
11170,-142.857142857143,4,2,2,10,0,0
11249,-166.666666666667,4,2,2,60,0,0
11723,-166.666666666667,4,2,2,50,0,0
12039,-111.111111111111,4,2,1,70,0,0
14802,-111.111111111111,4,2,1,20,0,0
14881,-111.111111111111,4,2,1,90,0,0
14960,-111.111111111111,4,2,1,20,0,0
15039,-111.111111111111,4,2,1,70,0,0
17328,-111.111111111111,4,2,1,20,0,0
17407,-111.111111111111,4,2,1,70,0,0
17802,-111.111111111111,4,2,1,20,0,0
17881,-111.111111111111,4,2,1,70,0,0
19065,-111.111111111111,4,2,1,20,0,0
19144,-111.111111111111,4,2,1,70,0,0
21355,-111.111111111111,4,2,2,40,0,0
22144,-125,4,2,2,50,0,0
28065,-125,4,2,2,20,0,0
28144,-125,4,2,2,50,0,0
29012,-125,4,2,2,20,0,0
29091,-125,4,2,2,50,0,0
29960,-125,4,2,2,20,0,0
30039,-125,4,2,2,50,0,0
30907,-125,4,2,1,20,0,0
30986,-125,4,2,1,50,0,0
31302,-125,4,2,2,70,0,0
32249,-117.647058823529,4,2,1,50,0,0
32565,-117.647058823529,4,2,2,50,0,0
34697,-117.647058823529,4,2,1,20,0,0
34776,-117.647058823529,4,2,1,50,0,0
35091,-117.647058823529,4,2,2,50,0,0
37223,-117.647058823529,4,2,1,20,0,0
37302,-117.647058823529,4,2,1,50,0,0
37618,-117.647058823529,4,2,2,50,0,0
38881,-117.647058823529,4,2,1,50,0,0
39197,-117.647058823529,4,2,2,50,0,0
39749,-117.647058823529,4,2,1,20,0,0
39828,-117.647058823529,4,2,1,50,0,0
40460,-117.647058823529,4,2,2,50,0,0
41407,-117.647058823529,4,2,2,70,0,0
42355,-111.111111111111,4,2,1,60,0,0
44565,-142.857142857143,4,2,1,60,0,0
44802,-142.857142857143,4,2,1,20,0,0
44881,-111.111111111111,4,2,1,60,0,0
52460,-105.263157894737,4,2,1,50,0,0
54986,-105.263157894737,4,2,1,60,0,0
56091,-200,4,2,1,50,0,0
56802,-200,4,2,1,20,0,0
56881,-83.3333333333333,4,2,1,70,0,0
57197,-166.666666666667,4,2,2,50,0,0
57276,-166.666666666667,4,2,2,20,0,0
57355,-166.666666666667,4,2,2,50,0,0
57434,-166.666666666667,4,2,2,20,0,0
57512,-100,4,2,1,80,0,1
57749,-100,4,2,1,20,0,1
57828,-100,4,2,1,80,0,1
60276,-100,4,2,1,20,0,1
60355,-100,4,2,1,80,0,1
62486,-100,4,2,1,20,0,1
62565,-100,4,2,1,80,0,1
64065,-100,4,2,1,20,0,1
64144,-100,4,2,1,80,0,1
65091,-90.9090909090909,4,2,1,90,0,1
65328,-90.9090909090909,4,2,1,20,0,1
65407,-90.9090909090909,4,2,1,90,0,1
65644,-90.9090909090909,4,2,1,20,0,1
65723,-90.9090909090909,4,2,1,90,0,1
65960,-90.9090909090909,4,2,1,20,0,1
66039,-90.9090909090909,4,2,1,90,0,1
66276,-90.9090909090909,4,2,1,20,0,1
66355,-90.9090909090909,4,2,1,90,0,1
66591,-90.9090909090909,4,2,1,20,0,1
66670,-90.9090909090909,4,2,1,90,0,1
66907,-90.9090909090909,4,2,1,20,0,1
66986,-90.9090909090909,4,2,1,90,0,1
67618,-100,4,2,1,80,0,1
76302,-100,4,2,1,90,0,1
77723,-125,4,2,1,60,0,0
78039,-125,4,2,2,60,0,0
90355,-142.857142857143,4,2,2,50,0,0
91460,-142.857142857143,4,2,2,5,0,0
91618,-166.666666666667,4,2,2,50,0,0
92723,-166.666666666667,4,2,2,5,0,0
92881,-200,4,2,2,50,0,0
95407,-200,4,2,2,20,0,0

[Colours]
Combo1 : 220,167,167
Combo2 : 231,164,97
Combo3 : 132,198,170
Combo4 : 159,159,208

[HitObjects]
79,169,1934,6,0,P|67:128|79:77,1,72,2|0,0:0|0:0,0:0:0:0:
147,35,2249,1,0,0:0:0:0:
222,182,2407,2,0,L|72:168,1,144,2|0,0:0|0:0,0:0:0:0:
212,251,2881,2,0,P|224:210|212:159,1,72,2|0,0:0|0:0,0:0:0:0:
127,289,3197,5,2,0:0:0:0:
205,339,3355,1,0,0:0:0:0:
289,300,3512,1,0,0:0:0:0:
309,208,3670,1,2,0:0:0:0:
309,208,4144,6,0,P|347:223|369:242,1,53.9999983520508,2|0,0:0|0:0,0:0:0:0:
445,286,4460,5,6,0:0:0:0:
443,192,4618,1,0,0:0:0:0:
441,98,4776,1,0,0:0:0:0:
437,4,4934,1,2,0:0:0:0:
437,4,5407,6,0,L|360:13,1,53.9999983520508,2|0,0:0|0:0,0:0:0:0:
297,53,5723,1,2,0:0:0:0:
365,114,6197,1,2,0:0:0:0:
282,139,6670,1,2,0:0:0:0:
100,220,6986,5,4,0:0:0:0:
178,270,7144,1,0,0:0:0:0:
262,231,7301,1,0,0:0:0:0:
282,139,7460,1,2,0:0:0:0:
100,220,7934,6,0,L|98:291,1,53.9999983520508,2|0,0:0|0:0,0:0:0:0:
178,270,8249,2,0,L|181:144,2,125.999996154785,6|0|2,0:0|0:0|0:0,0:0:0:0:
180,144,9197,6,0,P|221:141|251:124,1,53.9999983520508,2|0,0:0|0:0,0:0:0:0:
310,77,9512,1,6,0:0:0:0:
314,171,9670,1,0,0:0:0:0:
316,265,9828,1,0,0:0:0:0:
318,359,9986,1,2,0:0:0:0:
318,359,10460,6,0,L|394:354,1,53.9999983520508,2|0,0:0|0:0,0:0:0:0:
450,256,10776,6,0,P|414:196|479:172,1,157.499995193482,2|0,0:0|0:0,0:0:0:0:
450,256,11249,6,0,L|315:264,1,134.999995880127,2|0,0:0|0:0,0:0:0:0:
239,217,11723,1,2,0:0:0:0:
166,328,11881,1,8,0:0:0:0:
155,351,11960,1,8,0:0:0:0:
143,373,12039,6,0,B|142:239|142:239|168:258,1,161.999995056153,6|2,0:0|0:0,0:0:0:0:
59,329,12512,1,0,0:0:0:0:
173,169,12670,2,0,B|244:221,1,80.9999975280763,2|0,0:0|0:0,0:0:0:0:
27,225,12986,2,0,B|92:177,1,80.9999975280763,2|0,0:0|0:0,0:0:0:0:
171,29,13302,6,0,P|206:86|160:176,1,161.999995056153,2|2,0:0|0:0,0:0:0:0:
42,98,13776,2,0,L|149:100,1,80.9999975280763,8|0,3:0|3:0,3:0:0:0:
328,144,14091,1,2,0:0:0:0:
171,29,14249,2,0,L|278:31,1,80.9999975280763,8|0,0:0|0:0,0:0:0:0:
281,218,14565,6,0,P|346:230|409:181,1,121.499996292114,6|0,0:0|0:0,0:0:0:0:
413,176,14881,2,0,L|410:229,1,40.4999987640381,2|0,0:0|0:0,0:0:0:0:
487,299,15039,2,0,L|491:218,1,80.9999975280763,0|2,0:0|0:0,0:0:0:0:
281,218,15355,2,0,L|285:298,1,80.9999975280763,0|2,0:0|0:0,0:0:0:0:
247,45,15670,5,8,0:0:0:0:
328,144,15986,5,8,3:0:0:0:
308,139,16064,1,0,0:0:0:0:
288,135,16143,1,8,0:0:0:0:
191,225,16302,1,8,3:0:0:0:
247,45,16460,1,0,0:0:0:0:
281,218,16618,1,8,3:0:0:0:
164,17,16776,1,8,0:0:0:0:
328,144,16934,1,8,0:0:0:0:
99,70,17091,6,0,L|110:206,1,121.499996292114,6|0,0:0|0:0,0:0:0:0:
191,225,17407,1,2,0:0:0:0:
28,125,17565,2,0,L|39:261,1,121.499996292114,8|0,3:0|0:0,0:0:0:0:
120,280,17881,1,0,0:0:0:0:
235,131,18039,1,2,0:0:0:0:
247,302,18197,1,2,0:0:0:0:
228,318,18276,1,2,0:0:0:0:
210,335,18355,6,0,B|344:336|344:336|325:310,1,161.999995056153,2|2,0:0|0:0,0:0:0:0:
403,172,18828,2,0,P|385:226|416:286,1,121.499996292114,8|0,3:0|0:0,0:0:0:0:
465,222,19144,1,2,0:0:0:0:
324,145,19302,1,8,0:0:0:0:
411,281,19460,1,0,0:0:0:0:
385,87,19618,6,0,P|333:62|295:67,1,80.9999975280763,2|0,0:0|0:0,0:0:0:0:
237,232,19934,1,0,0:0:0:0:
324,145,20091,1,0,0:0:0:0:
169,190,20249,2,0,P|156:246|169:282,1,80.9999975280763,6|0,0:0|0:0,0:0:0:0:
234,114,20565,1,0,0:0:0:0:
69,164,20723,1,0,0:0:0:0:
237,232,20881,5,2,0:0:0:0:
237,232,21355,1,2,0:0:0:0:
257,231,21433,1,2,0:0:0:0:
277,231,21512,1,2,0:0:0:0:
277,231,22144,5,2,0:0:0:0:
277,231,22460,2,0,L|286:310,1,72
343,178,22776,2,0,P|289:148|206:185,1,144,2|0,0:0|0:0,0:0:0:0:
277,231,23249,1,0,0:0:0:0:
277,67,23407,5,0,0:0:0:0:
277,67,23723,2,0,P|318:70|366:64,1,72,0|0,0:0|0:0,0:0:0:0:
430,10,24039,2,0,P|427:51|433:99,1,72,2|0,0:0|0:0,0:0:0:0:
375,217,24355,2,0,P|378:175|372:128,1,72,0|0,0:0|0:0,0:0:0:0:
277,67,24670,5,2,0:0:0:0:
277,67,24986,2,0,P|318:70|366:64,1,72,0|0,0:0|0:0,0:0:0:0:
218,5,25302,2,0,P|194:56|237:141,1,144,2|0,0:0|0:0,0:0:0:0:
277,67,25776,1,0,0:0:0:0:
113,75,25934,5,0,0:0:0:0:
113,75,26249,2,0,L|104:166,1,72,0|0,0:0|0:0,0:0:0:0:
232,204,26565,2,0,L|224:132,1,72,2|0,0:0|0:0,0:0:0:0:
74,237,26881,2,0,L|145:229,1,72,0|0,0:0|0:0,0:0:0:0:
277,67,27197,5,2,0:0:0:0:
74,237,27512,2,0,P|69:282|74:327,1,72,0|0,0:0|0:0,0:0:0:0:
231,311,27828,2,0,P|236:249|226:180,1,108,2|0,0:0|0:0,0:0:0:0:
213,176,28144,1,0,0:0:0:0:
328,221,28302,6,0,L|475:215,1,144,0|0,0:0|0:0,0:0:0:0:
338,315,28776,2,0,L|213:309,1,108
201,333,29091,2,0,L|116:341,1,72,2|0,0:0|0:0,0:0:0:0:
2,230,29407,2,0,L|87:238,1,72,0|0,0:0|0:0,0:0:0:0:
146,62,29723,6,0,P|115:97|135:180,1,108,2|0,0:0|0:0,0:0:0:0:
137,185,30039,1,0,0:0:0:0:
289,55,30197,2,0,L|137:62,1,144
251,152,30670,2,0,L|387:158,1,108
393,124,30986,2,0,L|483:117,1,72
344,234,31302,5,2,0:0:0:0:
281,282,31460,1,0,0:0:0:0:
410,290,31618,5,2,0:0:0:0:
350,314,31776,1,0,0:0:0:0:
454,361,31934,5,2,0:0:0:0:
406,366,32092,1,2,0:0:0:0:
423,199,32249,5,2,0:0:0:0:
393,124,32565,5,0,0:0:0:0:
344,234,32723,1,0,0:0:0:0:
289,55,32881,1,8,0:0:0:0:
423,199,33039,2,0,P|463:164|448:68,1,153.000002918243
318,140,33512,6,0,L|393:123,1,76.5000014591217
214,38,33828,2,0,L|289:55,1,76.5000014591217
145,153,34144,2,0,L|220:136,1,76.5000014591217,8|0,0:0|0:0,0:0:0:0:
114,42,34460,2,0,L|146:157,1,114.750002188683
106,234,34776,5,2,0:0:0:0:
190,39,35091,2,0,L|99:42,1,76.5000014591217
143,151,35407,1,8,0:0:0:0:
185,284,35565,2,0,P|191:209|144:152,1,153.000002918243,0|0,0:0|0:0,0:0:0:0:
32,211,36039,6,0,L|110:235,1,76.5000014591217,2|0,0:0|0:0,0:0:0:0:
258,261,36355,2,0,L|180:285,1,76.5000014591217
40,299,36670,2,0,L|118:323,1,76.5000014591217,8|0,0:0|0:0,0:0:0:0:
261,375,36986,2,0,L|257:256,1,114.750002188683
332,219,37302,5,2,0:0:0:0:
332,219,37618,1,0,0:0:0:0:
401,353,37776,1,0,0:0:0:0:
409,215,37934,2,0,L|313:221,1,76.5000014591217,8|0,0:0|0:0,0:0:0:0:
227,170,38249,1,0,0:0:0:0:
398,67,38407,6,0,B|380:151|438:121|405:230,1,153.000002918243,0|8,0:0|0:0,0:0:0:0:
313,93,38881,2,0,P|319:45|338:-2,1,76.5000014591217
481,101,39197,2,0,P|492:137|495:175,1,76.5000014591217,8|0,0:0|0:0,0:0:0:0:
313,93,39512,2,0,L|182:86,1,114.750002188683
227,170,39828,6,0,P|251:237|195:295,2,153.000002918243,2|0|8,0:0|0:0|0:0,0:0:0:0:
227,170,40776,1,0,0:0:0:0:
202,293,40934,2,0,L|354:301,1,153.000002918243,8|0,0:0|0:0,0:0:0:0:
130,366,41407,5,2,0:0:0:0:
121,286,41565,1,0,0:0:0:0:
202,293,41723,5,2,0:0:0:0:
178,233,41881,1,0,0:0:0:0:
256,208,42039,5,2,0:0:0:0:
227,170,42197,1,2,0:0:0:0:
42,261,42355,6,0,P|57:338|130:366,1,161.999995056153,6|2,0:0|0:0,0:0:0:0:
89,185,42828,2,0,P|48:172|-2:181,1,80.9999975280763,0|2,0:0|0:0,0:0:0:0:
121,284,43144,1,0,0:0:0:0:
126,103,43302,1,8,3:0:0:0:
202,293,43460,6,0,L|110:283,1,80.9999975280763,10|0,0:0|0:0,0:0:0:0:
280,130,43776,1,8,3:0:0:0:
315,303,43934,1,8,0:0:0:0:
189,185,44091,1,0,0:0:0:0:
360,210,44249,2,0,L|452:200,1,80.9999975280763,2|0,0:0|0:0,0:0:0:0:
363,116,44565,6,0,P|342:74|301:51,1,94.499997116089,8|0,0:0|0:0,0:0:0:0:
280,130,44881,6,0,P|373:84|364:6,1,161.999995056153,6|2,0:0|0:0,0:0:0:0:
222,71,45355,2,0,P|200:109|205:169,1,80.9999975280763,0|2,0:0|0:0,0:0:0:0:
289,286,45670,1,0,0:0:0:0:
280,130,45828,1,8,3:0:0:0:
141,312,45986,6,0,B|183:332|183:332|294:283,1,161.999995056153,10|8,0:0|3:0,0:0:0:0:
137,231,46460,2,0,L|141:336,1,80.9999975280763,8|0,0:0|0:0,0:0:0:0:
55,168,46776,1,8,0:0:0:0:
229,222,46934,1,2,0:0:0:0:
66,61,47091,1,8,0:0:0:0:
137,231,47249,1,2,0:0:0:0:
153,11,47407,5,6,0:0:0:0:
153,11,47723,1,0,0:0:0:0:
228,113,47881,1,2,0:0:0:0:
365,22,48039,2,0,L|276:21,1,80.9999975280763,8|0,0:0|0:0,0:0:0:0:
386,163,48355,1,2,0:0:0:0:
445,22,48512,6,0,L|356:21,1,80.9999975280763,2|0,0:0|0:0,0:0:0:0:
228,113,48828,2,0,L|317:112,1,80.9999975280763,2|2,0:0|0:0,0:0:0:0:
153,11,49144,1,0,0:0:0:0:
316,212,49302,1,8,0:0:0:0:
250,13,49460,1,8,0:0:0:0:
218,214,49618,1,8,3:0:0:0:
308,112,49776,1,0,0:0:0:0:
153,11,49934,5,6,0:0:0:0:
153,11,50249,1,0,0:0:0:0:
48,78,50407,1,2,0:0:0:0:
142,186,50565,2,0,L|146:91,1,80.9999975280763,8|0,0:0|0:0,0:0:0:0:
15,203,50881,1,2,0:0:0:0:
163,297,51039,1,2,0:0:0:0:
220,201,51197,6,0,P|154:186|122:187,1,80.9999975280763,0|2,0:0|0:0,0:0:0:0:
281,296,51512,1,8,0:0:0:0:
287,128,51670,1,0,0:0:0:0:
225,367,51828,1,8,0:0:0:0:
220,201,51986,1,8,3:0:0:0:
311,378,52144,2,0,L|396:373,1,80.9999975280763,8|0,0:0|0:0,0:0:0:0:
163,297,52460,5,6,0:0:0:0:
372,127,52776,2,0,P|308:129|277:126,1,85.4999977169037,2|0,0:0|0:0,0:0:0:0:
130,42,53091,2,0,P|194:40|225:43,1,85.4999977169037,2|0,0:0|0:0,0:0:0:0:
372,127,53407,1,2,0:0:0:0:
222,199,53565,1,0,0:0:0:0:
209,210,53644,1,0,0:0:0:0:
197,222,53723,6,0,P|195:158|198:127,1,85.4999977169037,2|0,0:0|0:0,0:0:0:0:
371,41,54039,2,0,P|373:105|370:136,1,85.4999977169037,2|0,0:0|0:0,0:0:0:0:
197,222,54355,1,2,0:0:0:0:
130,43,54512,1,0,0:0:0:0:
82,183,54670,1,2,0:0:0:0:
99,182,54748,1,0,0:0:0:0:
116,182,54827,1,0,0:0:0:0:
34,91,54986,5,6,0:0:0:0:
100,275,55144,1,0,0:0:0:0:
130,43,55302,1,8,0:0:0:0:
6,221,55460,1,8,0:0:0:0:
197,222,55618,1,8,0:0:0:0:
34,91,55776,1,8,0:0:0:0:
17,312,55934,1,8,0:0:0:0:
279,247,56091,6,0,P|237:150|136:162,1,202.5,6|0,0:0|0:0,0:0:0:0:
197,222,56881,6,0,P|236:158|200:76,1,161.999995056153,2|0,1:0|0:0,0:0:0:0:
130,43,57197,6,0,L|103:41,1,26.9999991760254,2|0,0:0|0:0,0:0:0:0:
34,91,57355,2,0,L|-15:93,1,26.9999991760254,2|0,0:0|0:0,0:0:0:0:
45,220,57512,6,0,B|51:177|51:177|29:126|29:126|37:60,1,135,6|0,0:0|0:0,0:0:0:0:
130,43,57828,1,8,0:0:0:0:
150,207,57986,1,0,0:0:0:0:
174,214,58065,1,0,0:0:0:0:
197,222,58144,2,0,B|246:232|246:232|301:204,1,90,2|0,0:0|0:0,0:0:0:0:
207,81,58460,1,8,0:0:0:0:
202,311,58618,1,0,0:0:0:0:
128,126,58776,5,2,0:0:0:0:
284,306,58934,1,0,0:0:0:0:
296,75,59091,2,0,L|190:81,1,90,10|2,0:0|0:0,0:0:0:0:
374,192,59407,2,0,L|463:197,1,90,2|2,0:0|0:0,0:0:0:0:
284,306,59723,1,8,0:0:0:0:
296,75,59881,1,0,0:0:0:0:
380,285,60039,6,0,P|440:258|463:196,1,135,2|0,0:0|0:0,0:0:0:0:
430,112,60355,1,8,0:0:0:0:
264,176,60512,1,0,0:0:0:0:
261,202,60591,1,0,0:0:0:0:
260,225,60670,2,0,B|259:271|259:271|299:326,1,90,2|0,0:0|0:0,0:0:0:0:
296,75,60986,1,8,0:0:0:0:
133,79,61144,1,0,0:0:0:0:
345,153,61302,5,2,0:0:0:0:
249,7,61460,1,0,0:0:0:0:
171,231,61618,2,0,L|286:224,1,90,10|2,0:0|0:0,0:0:0:0:
133,79,61934,2,0,L|18:71,1,90,2|2,0:0|0:0,0:0:0:0:
94,266,62249,2,0,P|132:309|217:305,1,135,8|0,0:0|0:0,0:0:0:0:
171,231,62565,6,0,B|142:262|95:267|95:267|61:228|78:170,1,180,2|8,0:0|0:0,0:0:0:0:
256,240,63039,1,0,0:0:0:0:
270,257,63118,1,0,0:0:0:0:
283,274,63197,2,0,L|277:377,1,90,2|0,0:0|0:0,0:0:0:0:
171,231,63512,1,8,0:0:0:0:
328,187,63670,1,0,0:0:0:0:
94,266,63828,6,0,P|90:208|147:149,1,135,2|0,0:0|0:0,0:0:0:0:
125,65,64144,2,0,P|141:115|130:170,1,90,10|2,0:0|0:0,0:0:0:0:
41,335,64460,2,0,P|65:288|111:257,1,90,0|2,0:0|0:0,0:0:0:0:
257,219,64776,2,0,P|207:234|151:223,1,90,10|0,0:0|0:0,0:0:0:0:
334,39,65091,6,0,L|327:217,1,148.50000453186,6|0,0:0|0:0,0:0:0:0:
399,155,65407,2,0,P|341:113|257:155,1,148.50000453186,8|0,0:0|0:0,0:0:0:0:
322,335,65723,6,0,L|329:157,1,148.50000453186,6|0,0:0|0:0,0:0:0:0:
257,219,66039,2,0,P|314:260|398:218,1,148.50000453186,8|0,0:0|0:0,0:0:0:0:
272,134,66355,6,0,L|94:127,1,148.50000453186,6|0,0:0|0:0,0:0:0:0:
156,199,66671,2,0,P|197:142|155:58,1,148.50000453186,8|0,0:0|0:0,0:0:0:0:
92,44,66986,1,8,3:0:0:0:
260,46,67144,1,8,0:0:0:0:
156,199,67302,1,2,0:0:0:0:
156,199,67618,6,0,B|102:173|31:204|31:204|83:227,1,180,6|0,0:0|0:0,0:0:0:0:
232,265,68091,1,2,0:0:0:0:
77,224,68249,2,0,P|78:174|186:121,1,180,8|0,0:0|0:0,0:0:0:0:
232,265,68723,2,0,L|228:326,1,45,2|0,0:0|0:0,0:0:0:0:
144,378,68881,6,0,L|155:198,1,180,4|2,0:0|0:0,0:0:0:0:
321,271,69355,1,0,0:0:0:0:
144,378,69512,2,0,L|45:363,1,90,8|0,0:0|0:0,0:0:0:0:
154,198,69828,1,2,0:0:0:0:
240,362,69986,1,8,0:0:0:0:
323,166,70144,6,0,P|317:116|317:58,1,90,2|0,0:0|0:0,0:0:0:0:
430,232,70460,2,0,P|428:276|423:321,1,90,8|0,0:0|0:0,0:0:0:0:
414,114,70776,2,0,P|464:107|522:107,1,90,2|0,2:0|2:0,2:0:0:0:
321,271,71091,2,0,P|276:269|231:264,1,90,8|0,2:0|2:0,2:0:0:0:
161,108,71407,5,2,0:0:0:0:
154,198,71565,1,2,0:0:0:0:
247,71,71723,5,8,0:0:0:0:
240,161,71881,1,2,0:0:0:0:
333,34,72039,5,0,0:0:0:0:
326,124,72197,1,2,0:0:0:0:
161,108,72355,5,8,0:0:0:0:
138,107,72433,1,0,0:0:0:0:
116,106,72512,1,0,0:0:0:0:
93,105,72591,1,0,0:0:0:0:
71,104,72670,5,6,0:0:0:0:
89,274,72828,1,2,0:0:0:0:
131,17,72986,1,8,0:0:0:0:
237,252,73144,1,2,0:0:0:0:
71,104,73302,1,8,0:0:0:0:
184,335,73460,1,2,0:0:0:0:
161,108,73618,1,8,0:0:0:0:
103,364,73776,1,2,0:0:0:0:
240,161,73934,5,12,0:0:0:0:
8,195,74091,1,2,0:0:0:0:
270,338,74249,1,8,0:0:0:0:
247,71,74407,1,2,0:0:0:0:
89,274,74565,1,8,0:0:0:0:
131,17,74723,1,2,0:0:0:0:
237,252,74881,2,0,L|345:245,1,90,2|2,0:0|0:0,0:0:0:0:
459,55,75197,5,12,0:0:0:0:
442,320,75355,1,2,0:0:0:0:
333,19,75512,1,8,0:0:0:0:
353,325,75670,2,0,L|443:320,1,90,8|0,0:0|0:0,0:0:0:0:
320,129,75987,1,2,0:0:0:0:
453,185,76144,1,0,0:0:0:0:
198,158,76302,6,0,B|149:140|149:140|79:160|79:160|10:137,1,180,12|0,0:0|0:0,0:0:0:0:
79,29,76776,2,0,L|86:99,1,45,2|0,0:0|0:0,0:0:0:0:
26,142,76934,2,0,L|21:186,1,45,8|0,0:0|0:0,0:0:0:0:
98,238,77091,2,0,L|105:308,1,45,2|0,0:0|0:0,0:0:0:0:
30,333,77249,2,0,L|23:403,1,45,2|0,0:0|0:0,0:0:0:0:
180,342,77407,1,8,0:0:0:0:
212,311,77485,1,0,0:0:0:0:
255,299,77564,1,2,0:0:0:0:
299,307,77643,1,0,0:0:0:0:
334,334,77722,5,6,0:0:0:0:
414,144,78039,1,0,0:0:0:0:
337,191,78197,2,0,P|329:240|338:352,1,144,2|0,0:0|0:0,0:0:0:0:
482,270,78670,2,0,P|484:228|478:186,1,72
337,191,78986,6,0,L|172:198,2,144,2|2|2,0:0|0:0|0:0,0:0:0:0:
337,191,79934,1,0,0:0:0:0:
262,99,80091,1,0,0:0:0:0:
193,197,80249,5,2,0:0:0:0:
309,22,80565,1,0,0:0:0:0:
262,99,80723,2,0,P|213:107|101:98,1,144
121,195,81197,2,0,P|163:193|205:199,1,72
40,296,81512,6,0,L|36:140,2,144,2|0|0,0:0|0:0|0:0,0:0:0:0:
40,296,82460,1,0,0:0:0:0:
119,123,82776,6,0,L|121:195,1,72,2|0,0:0|0:0,0:0:0:0:
141,280,83091,1,0,0:0:0:0:
200,353,83249,1,0,0:0:0:0:
200,353,83723,5,0,0:0:0:0:
231,257,83881,1,0,0:0:0:0:
355,327,84039,6,0,L|261:324,1,72,2|0,0:0|0:0,0:0:0:0:
363,233,84355,2,0,L|457:230,1,72
501,164,84670,1,0,0:0:0:0:
501,145,84986,1,0,0:0:0:0:
501,123,85302,5,2,0:0:0:0:
407,125,85460,1,0,0:0:0:0:
313,127,85618,1,0,0:0:0:0:
219,131,85776,1,0,0:0:0:0:
264,48,85934,5,2,0:0:0:0:
264,48,86565,1,0,0:0:0:0:
266,208,87197,1,0,0:0:0:0:
266,208,87828,6,0,P|234:306|326:195,1,432,2|0,0:0|0:0,0:0:0:0:
313,277,89091,5,0,0:0:0:0:
266,208,89407,1,0,0:0:0:0:
309,132,89723,1,0,0:0:0:0:
353,204,90039,1,0,0:0:0:0:
140,237,90355,6,0,B|187:170|266:206|266:206|211:154|241:84|241:84|154:150|83:100,1,440.999986541748,6|0,0:0|0:0,0:0:0:0:
140,237,91618,6,0,B|155:161|90:104|90:104|-7:216|136:242|23:325,1,377.999988464356,6|0,0:0|0:0,0:0:0:0:
139,318,92881,5,6,0:0:0:0:
256,192,92960,12,4,95407,0:0:0:0:
