osu file format v14

[General]
AudioFilename: audio.mp3
AudioLeadIn: 0
PreviewTime: 57039
Countdown: 0
SampleSet: Soft
StackLeniency: 0.4
Mode: 0
LetterboxInBreaks: 0
WidescreenStoryboard: 1

[Editor]
Bookmarks: 84355
DistanceSpacing: 0.9
BeatDivisor: 4
GridSize: 8
TimelineZoom: 2.3

[Metadata]
Title:Re:TrymenT
TitleUnicode:Re:TrymenT
Artist:Hotaru Murasaki
ArtistUnicode:紫咲ほたる
Creator:Shiratoi
Version:Lilyanna's Normal
Source:Re:LieF〜親愛なるあなたへ〜
Tags:eroge visual novel relief 甘利紗陽 saya amari Shin'ainaru Anata e レリーフ DeaR YoU retryment miu yuu game op rask opening nevo yamicchi lince cosmico foxygrandpa ultima fox lilyanna time capsule
BeatmapID:1387898
BeatmapSetID:636072

[Difficulty]
HPDrainRate:4
CircleSize:3.5
OverallDifficulty:4
ApproachRate:4.5
SliderMultiplier:1.2
SliderTickRate:1

[Events]
//Background and Video events
0,0,"Lilyanna.jpg",0,0
//Break Periods
//Storyboard Layer 0 (Background)
//Storyboard Layer 1 (Fail)
//Storyboard Layer 2 (Pass)
//Storyboard Layer 3 (Foreground)
//Storyboard Sound Samples

[TimingPoints]
1934,315.789473684211,4,2,2,40,1,0
10776,-100,4,2,2,50,0,0
11170,-100,4,2,2,10,0,0
11249,-100,4,2,2,60,0,0
11723,-100,4,2,2,50,0,0
12039,-100,4,2,1,70,0,0
14802,-100,4,2,1,20,0,0
14881,-100,4,2,1,90,0,0
14960,-100,4,2,1,20,0,0
15039,-100,4,2,1,70,0,0
17328,-100,4,2,1,20,0,0
17407,-100,4,2,1,70,0,0
17802,-100,4,2,1,20,0,0
17881,-100,4,2,1,70,0,0
19065,-100,4,2,1,20,0,0
19144,-100,4,2,1,70,0,0
21355,-100,4,2,2,40,0,0
22144,-100,4,2,2,50,0,0
28065,-100,4,2,2,20,0,0
28144,-100,4,2,2,50,0,0
29012,-100,4,2,2,20,0,0
29091,-100,4,2,2,50,0,0
29960,-100,4,2,2,20,0,0
30039,-100,4,2,2,50,0,0
30907,-100,4,2,1,20,0,0
30986,-100,4,2,1,50,0,0
31302,-100,4,2,2,70,0,0
32249,-100,4,2,1,50,0,0
32565,-100,4,2,2,50,0,0
34697,-100,4,2,1,20,0,0
34776,-100,4,2,1,50,0,0
35091,-100,4,2,2,50,0,0
37223,-100,4,2,1,20,0,0
37302,-100,4,2,1,50,0,0
37618,-100,4,2,2,50,0,0
38881,-100,4,2,1,50,0,0
39197,-100,4,2,2,50,0,0
39749,-100,4,2,1,20,0,0
39828,-100,4,2,1,50,0,0
40460,-100,4,2,2,50,0,0
41407,-100,4,2,2,70,0,0
42355,-100,4,2,1,60,0,0
44802,-100,4,2,1,20,0,0
44881,-100,4,2,1,60,0,0
52460,-100,4,2,1,50,0,0
54986,-100,4,2,1,60,0,0
56091,-100,4,2,1,50,0,0
56802,-100,4,2,1,20,0,0
56881,-100,4,2,1,70,0,0
57197,-100,4,2,2,50,0,0
57276,-100,4,2,2,20,0,0
57355,-100,4,2,2,50,0,0
57434,-100,4,2,2,20,0,0
57512,-100,4,2,1,80,0,1
57749,-100,4,2,1,20,0,1
57828,-100,4,2,1,80,0,1
60276,-100,4,2,1,20,0,1
60355,-100,4,2,1,80,0,1
62486,-100,4,2,1,20,0,1
62565,-100,4,2,1,80,0,1
64065,-100,4,2,1,20,0,1
64144,-100,4,2,1,80,0,1
65091,-100,4,2,1,90,0,1
65328,-100,4,2,1,20,0,1
65407,-100,4,2,1,90,0,1
65644,-100,4,2,1,20,0,1
65723,-100,4,2,1,90,0,1
65960,-100,4,2,1,20,0,1
66039,-100,4,2,1,90,0,1
66276,-100,4,2,1,20,0,1
66355,-100,4,2,1,90,0,1
66591,-100,4,2,1,20,0,1
66670,-100,4,2,1,90,0,1
66907,-100,4,2,1,20,0,1
66986,-100,4,2,1,90,0,1
67618,-100,4,2,1,80,0,1
76302,-100,4,2,1,90,0,1
77723,-100,4,2,1,60,0,0
78039,-100,4,2,2,60,0,0
90355,-100,4,2,2,50,0,0
91460,-100,4,2,2,5,0,0
91618,-100,4,2,2,50,0,0
92723,-100,4,2,2,5,0,0
92881,-100,4,2,2,50,0,0
95407,-100,4,2,2,20,0,0

[Colours]
Combo1 : 150,220,146
Combo2 : 128,174,208
Combo3 : 187,151,232
Combo4 : 225,142,208

[HitObjects]
395,51,1934,6,0,P|425:109|376:224,2,180,2|2|2,0:0|0:0|0:0,0:0:0:0:
322,130,3197,2,0,B|228:115|227:150|139:129,1,180,2|2,0:0|0:0,0:0:0:0:
190,285,4144,1,2,0:0:0:0:
105,217,4460,6,0,P|83:280|143:384,2,180,6|2|2,0:0|0:0|0:0,0:0:0:0:
178,138,5723,2,0,P|111:109|11:162,1,180,2|2,0:0|0:0,0:0:0:0:
115,20,6670,1,2,0:0:0:0:
213,63,6986,6,0,B|306:51|306:88|397:66,2,180,4|2|2,0:0|0:0|0:0,0:0:0:0:
254,162,8249,2,0,P|264:208|253:298,1,120,6|0,0:0|0:0,0:0:0:0:
168,340,8881,2,0,P|161:280|172:221,1,120,2|2,0:0|0:0,0:0:0:0:
96,145,9512,6,0,P|36:91|108:46,2,180,6|2|2,0:0|0:0|0:0,0:0:0:0:
197,181,10776,2,0,P|257:235|185:280,2,180,2|2|2,0:0|0:0|0:0,0:0:0:0:
264,96,12039,6,0,P|316:101|394:98,1,120,6|2,0:0|0:0,0:0:0:0:
484,138,12670,2,0,P|489:190|486:268,1,120,2|2,0:0|0:0,0:0:0:0:
396,317,13302,2,0,P|344:312|266:315,1,120,2|2,0:0|0:0,0:0:0:0:
222,306,13776,2,0,P|242:250|215:120,1,180,8|8,3:0|0:0,0:0:0:0:
151,52,14565,6,0,P|99:57|21:54,1,120,6|2,0:0|0:0,0:0:0:0:
15,107,15039,2,0,P|26:169|10:238,1,120,0|0,0:0|0:0,0:0:0:0:
33,331,15670,1,8,0:0:0:0:
134,293,15986,2,0,P|199:285|274:298,1,120,8|8,3:0|3:0,0:0:0:0:
297,322,16460,2,0,P|332:327|368:324,1,60,0|8,0:0|3:0,0:0:0:0:
376,275,16776,2,0,P|411:270|447:273,1,60,8|8,0:0|0:0,0:0:0:0:
472,231,17091,6,0,P|464:189|490:35,2,180,6|8|2,0:0|3:0|0:0,0:0:0:0:
376,275,18355,2,0,B|312:275|312:275|266:288|266:288|183:288,2,180,2|8|8,0:0|3:0|0:0,0:0:0:0:
256,192,19618,12,2,20881,0:0:0:0:
387,60,22144,5,2,0:0:0:0:
413,164,22460,2,0,L|412:243,1,60,0|0,0:0|0:0,0:0:0:0:
365,252,22776,2,0,P|313:227|241:227,1,120,2|0,0:0|0:0,0:0:0:0:
197,228,23249,1,0,0:0:0:0:
197,228,23407,2,0,P|200:159|196:105,1,120,0|0,0:0|0:0,0:0:0:0:
88,97,24039,2,0,P|84:156|87:216,1,120,2|0,0:0|0:0,0:0:0:0:
123,318,24670,5,2,0:0:0:0:
229,334,24986,2,0,L|303:335,1,60,0|0,0:0|0:0,0:0:0:0:
327,295,25302,2,0,P|323:229|354:166,1,120,2|0,0:0|0:0,0:0:0:0:
366,131,25776,1,0,0:0:0:0:
366,131,25934,2,0,P|298:140|224:130,1,120,0|0,0:0|0:0,0:0:0:0:
180,50,26565,2,0,P|120:45|61:54,1,120,2|0,0:0|0:0,0:0:0:0:
29,157,27197,5,2,0:0:0:0:
106,232,27512,2,0,P|114:281|112:306,1,60,0|0,0:0|0:0,0:0:0:0:
114,345,27828,2,0,P|167:335|234:342,1,120,2|0,0:0|0:0,0:0:0:0:
286,349,28302,1,0,0:0:0:0:
286,349,28460,2,0,P|339:352|422:333,1,120,0|0,0:0|0:0,0:0:0:0:
469,253,29091,2,0,B|477:196|452:196|465:132,1,120,2|0,0:0|0:0,0:0:0:0:
388,57,29723,6,0,P|335:54|252:73,1,120,2|0,0:0|0:0,0:0:0:0:
218,86,30197,2,0,P|182:97|34:60,1,180,0|0,0:0|0:0,0:0:0:0:
24,174,30986,2,0,P|36:245|15:308,1,120,0|2,0:0|0:0,0:0:0:0:
63,327,31460,2,0,B|119:322|119:322|187:337|187:337|252:328,1,180,0|2,0:0|0:0,0:0:0:0:
344,300,32249,5,2,0:0:0:0:
411,215,32565,2,0,L|410:136,1,60,0|0,0:0|0:0,0:0:0:0:
363,127,32881,2,0,P|311:152|239:152,1,120,8|0,0:0|0:0,0:0:0:0:
196,144,33354,1,0,0:0:0:0:
196,144,33512,2,0,P|199:75|195:21,1,120,0|0,0:0|0:0,0:0:0:0:
99,75,34144,2,0,P|95:134|98:194,1,120,8|0,0:0|0:0,0:0:0:0:
113,301,34775,5,2,0:0:0:0:
215,336,35091,2,0,L|289:337,1,60,0|0,0:0|0:0,0:0:0:0:
321,308,35407,2,0,P|317:242|348:179,1,120,8|0,0:0|0:0,0:0:0:0:
344,139,35881,1,0,0:0:0:0:
344,139,36039,2,0,L|202:138,1,120,2|0,0:0|0:0,0:0:0:0:
174,42,36670,2,0,L|55:46,1,120,8|0,0:0|0:0,0:0:0:0:
33,152,37302,5,2,0:0:0:0:
109,227,37618,2,0,L|115:301,1,60,0|0,0:0|0:0,0:0:0:0:
111,341,37933,2,0,P|164:331|231:338,1,120,8|0,0:0|0:0,0:0:0:0:
283,332,38407,1,0,0:0:0:0:
283,332,38565,2,0,P|274:279|284:195,1,120,0|0,0:0|0:0,0:0:0:0:
378,259,39197,2,0,P|383:199|374:140,1,120,8|0,0:0|0:0,0:0:0:0:
269,118,39828,6,0,L|133:134,1,120,2|0,0:0|0:0,0:0:0:0:
106,98,40302,2,0,P|126:146|116:228,1,120,0|0,0:0|0:0,0:0:0:0:
76,242,40776,1,0,0:0:0:0:
76,242,40934,2,0,B|132:237|132:237|200:252|200:252|265:243,1,180,8|2,0:0|0:0,0:0:0:0:
359,222,41723,2,0,L|358:145,1,60,2|0,0:0|0:0,0:0:0:0:
411,153,42039,2,0,L|410:76,1,60,2|2,0:0|0:0,0:0:0:0:
373,52,42355,6,0,B|301:64|301:64|194:60,2,180,6|0|8,0:0|0:0|3:0,0:0:0:0:
410,93,43460,2,0,L|416:224,1,120,10|8,0:0|3:0,0:0:0:0:
416,264,43934,1,8,0:0:0:0:
240,305,44565,2,0,L|157:302,1,60,8|0,0:0|0:0,0:0:0:0:
131,278,44881,6,0,B|119:206|119:206|123:99,2,180,6|0|8,0:0|0:0|3:0,0:0:0:0:
180,302,45986,1,10,0:0:0:0:
284,273,46302,2,0,L|343:275,1,60,8|8,3:0|0:0,0:0:0:0:
374,170,46776,2,0,L|314:172,1,60,8|2,0:0|0:0,0:0:0:0:
270,141,47092,2,0,L|210:143,1,60,8|2,0:0|0:0,0:0:0:0:
156,147,47407,5,6,0:0:0:0:
70,212,47723,2,0,P|82:282|62:342,1,120,0|8,0:0|0:0,0:0:0:0:
177,337,48355,2,0,B|293:310|292:360|419:343,1,240,2|2,0:0|0:0,0:0:0:0:
419,235,49302,2,0,L|417:175,1,60,8|8,0:0|0:0,0:0:0:0:
448,131,49618,2,0,L|446:71,1,60,8|0,3:0|0:0,0:0:0:0:
427,20,49934,5,6,0:0:0:0:
321,41,50249,2,0,L|188:48,1,120,0|8,0:0|0:0,0:0:0:0:
101,90,50881,2,0,P|130:166|30:286,1,240,2|8,0:0|0:0,0:0:0:0:
140,329,51828,2,0,L|200:331,1,60,8|8,0:0|3:0,0:0:0:0:
244,300,52144,2,0,L|304:302,1,60,8|0,0:0|0:0,0:0:0:0:
357,294,52460,5,6,0:0:0:0:
440,225,52776,2,0,L|445:96,1,120,2|2,0:0|0:0,0:0:0:0:
345,61,53407,2,0,B|288:69|288:69|172:56|172:56|83:69,1,240,2|2,0:0|0:0,0:0:0:0:
141,168,54355,2,0,P|171:216|164:298,1,120,2|2,0:0|0:0,0:0:0:0:
67,249,54986,5,6,0:0:0:0:
256,192,55144,12,6,56091,0:0:0:0:
469,62,57197,6,0,L|460:147,1,60,2|2,0:0|0:0,0:0:0:0:
412,141,57512,2,0,P|359:134|274:152,1,120,6|8,0:0|0:0,0:0:0:0:
244,166,57986,2,0,P|140:189|53:152,1,180,0|8,0:0|0:0,0:0:0:0:
43,119,58618,2,0,B|61:213|20:212|43:312,1,180,0|10,0:0|0:0,0:0:0:0:
141,333,59407,1,2,0:0:0:0:
238,286,59723,6,0,L|305:282,1,60,8|0,0:0|0:0,0:0:0:0:
345,256,60039,2,0,P|336:198|353:128,1,120,2|8,0:0|0:0,0:0:0:0:
372,90,60512,2,0,B|314:85|314:85|241:92|241:92|175:82,1,180,0|8,0:0|0:0,0:0:0:0:
160,41,61144,2,0,P|139:123|159:225,1,180,0|10,0:0|0:0,0:0:0:0:
237,286,61934,1,2,0:0:0:0:
130,300,62249,2,0,L|71:299,1,60,8|0,0:0|0:0,0:0:0:0:
37,255,62565,6,0,P|53:194|33:117,2,120,2|8|2,0:0|0:0|0:0,0:0:0:0:
2,357,63512,1,8,0:0:0:0:
110,353,63828,2,0,L|237:350,1,120,2|10,0:0|0:0,0:0:0:0:
286,257,64460,2,0,L|413:254,1,120,0|10,0:0|0:0,0:0:0:0:
432,149,65091,6,0,L|312:151,1,120,6|8,0:0|0:0,0:0:0:0:
243,68,65723,2,0,L|123:70,1,120,6|8,0:0|0:0,0:0:0:0:
68,164,66355,2,0,P|111:232|32:354,1,240,6|8,0:0|3:0,0:0:0:0:
3,249,67302,1,2,0:0:0:0:
68,164,67618,6,0,B|130:151|130:181|207:163,1,120,6|0,0:0|0:0,0:0:0:0:
233,138,68091,1,2,0:0:0:0:
233,138,68249,2,0,P|243:85|226:2,1,120,8|0,0:0|0:0,0:0:0:0:
341,20,68881,2,0,P|331:78|341:137,1,120,4|2,0:0|0:0,0:0:0:0:
374,180,69354,1,0,0:0:0:0:
374,180,69512,2,0,B|430:194|430:164|492:177,1,120,8|2,0:0|0:0,0:0:0:0:
490,285,70144,6,0,B|428:272|428:302|371:287,1,120,2|8,0:0|0:0,0:0:0:0:
263,281,70776,2,0,P|173:278|131:289,1,120,2|8,2:0|2:0,0:0:0:0:
72,201,71407,2,0,P|75:111|64:69,1,120,2|8,0:0|0:0,0:0:0:0:
172,51,72039,2,0,L|295:49,1,120,0|8,0:0|0:0,0:0:0:0:
400,52,72670,5,6,0:0:0:0:
395,159,72986,2,0,P|385:220|398:297,1,120,8|8,0:0|0:0,0:0:0:0:
304,340,73618,2,0,L|232:346,1,60,8|2,0:0|0:0,0:0:0:0:
205,307,73934,2,0,L|203:187,1,120,12|8,0:0|0:0,0:0:0:0:
105,233,74565,2,0,L|106:113,1,120,8|2,0:0|0:0,0:0:0:0:
44,23,75197,5,12,0:0:0:0:
97,19,75355,2,0,B|155:4|155:34|217:17,1,120,0|8,0:0|0:0,0:0:0:0:
243,121,75986,1,0,0:0:0:0:
329,55,76302,2,0,P|412:32|506:74,1,180,12|2,0:0|0:0,0:0:0:0:
415,143,77091,2,0,P|400:205|427:276,1,120,2|8,0:0|0:0,0:0:0:0:
507,200,77723,5,4,0:0:0:0:
72,328,78986,2,0,P|78:276|59:185,1,120,2|2,0:0|0:0,0:0:0:0:
165,162,79618,2,0,P|159:214|178:305,1,120,2|0,0:0|0:0,0:0:0:0:
248,354,80249,5,2,0:0:0:0:
467,31,81512,2,0,B|480:99|480:99|464:155,1,120,2|0,0:0|0:0,0:0:0:0:
357,156,82144,2,0,B|343:204|343:204|356:272,1,120,0|0,0:0|0:0,0:0:0:0:
391,322,82618,1,0,0:0:0:0:
391,322,82776,6,0,P|285:300|145:319,1,240,2|0,0:0|0:0,0:0:0:0:
63,259,83723,2,0,L|58:181,1,60,0|0,0:0|0:0,0:0:0:0:
65,145,84039,2,0,B|126:168|205:143,1,120,2|0,0:0|0:0,0:0:0:0:
247,62,84670,2,0,B|308:39|387:64,1,120,0|0,0:0|0:0,0:0:0:0:
438,137,85302,6,0,L|447:284,1,120,2|0,0:0|0:0,0:0:0:0:
347,303,85934,2,0,L|339:183,1,120,2|0,0:0|0:0,0:0:0:0:
344,129,86407,2,0,P|225:171|92:141,1,240
75,115,87197,1,0,0:0:0:0:
57,221,87512,2,0,L|52:298,1,60,0|0,0:0|0:0,0:0:0:0:
94,315,87828,6,0,P|226:289|337:330,1,240,2|0,0:0|0:0,0:0:0:0:
415,264,88776,2,0,L|420:187,1,60
416,150,89091,2,0,B|345:157|345:157|292:150,1,120
269,45,89723,2,0,B|220:38|220:38|149:45,1,120
55,97,90355,6,0,B|72:136|103:158|103:158|67:178|20:244|20:244|63:314|167:289,1,360,6|0,0:0|0:0,0:0:0:0:
246,222,91618,2,0,B|263:177|301:160|301:160|312:80|365:35|365:35|395:96|381:177,1,360,6|0,0:0|0:0,0:0:0:0:
256,192,92881,12,4,95407,0:0:0:0:
