osu file format v14

[General]
AudioFilename: audio.mp3
AudioLeadIn: 0
PreviewTime: 56888
Countdown: 0
SampleSet: Soft
StackLeniency: 0.7
Mode: 0
LetterboxInBreaks: 0
WidescreenStoryboard: 1

[Editor]
Bookmarks: 42362
DistanceSpacing: 1
BeatDivisor: 4
GridSize: 4
TimelineZoom: 2.2

[Metadata]
Title:Re:TrymenT
TitleUnicode:Re:TrymenT
Artist:Hotaru Murasaki
ArtistUnicode:紫咲ほたる
Creator:Revia
Version:Habi's Normal
Source:Re:LieF〜親愛なるあなたへ〜
Tags:rask relief retryment opening op short eroge visual novel 甘利紗陽 Cellina ProEzreal Beomsan Dailycare Enon HabiHolic Len
BeatmapID:1420728
BeatmapSetID:651062

[Difficulty]
HPDrainRate:3
CircleSize:3
OverallDifficulty:4
ApproachRate:5
SliderMultiplier:1.1
SliderTickRate:1

[Events]
//Background and Video events
0,0,"Re.png",0,0
//Break Periods
//Storyboard Layer 0 (Background)
//Storyboard Layer 1 (Fail)
//Storyboard Layer 2 (Pass)
//Storyboard Layer 3 (Foreground)
//Storyboard Sound Samples

[TimingPoints]
1941,315.789473684211,4,2,1,40,1,0
12046,-100,4,2,1,75,0,0
14809,-100,4,2,1,5,0,0
14888,-100,4,2,1,75,0,0
22151,-100,4,2,1,40,0,0
29019,-100,4,2,1,5,0,0
29098,-100,4,2,1,40,0,0
39125,-100,4,2,1,5,0,0
39204,-100,4,2,1,40,0,0
42362,-100,4,2,1,50,0,0
48283,-100,4,2,1,5,0,0
48362,-100,4,2,1,60,0,0
56888,-100,4,2,1,40,0,0
57204,-100,4,2,1,60,0,0
57519,-100,4,2,1,75,0,1
70388,-100,4,2,1,5,0,1
70467,-100,4,2,1,75,0,1
71019,-100,4,2,1,5,0,1
71098,-100,4,2,1,75,0,1
76230,-100,4,2,1,5,0,1
76309,-100,4,2,1,75,0,1
77730,-100,4,2,1,40,0,0
81756,-100,4,2,1,5,0,0
81835,-100,4,2,1,40,0,0
87756,-100,4,2,1,5,0,0
87835,-100,4,2,1,40,0,0

[Colours]
Combo1 : 71,172,254
Combo2 : 220,147,255
Combo3 : 253,130,130
Combo4 : 179,255,102

[HitObjects]
183,144,1941,6,0,P|130:84|50:87,2,165,2|2|2,0:0|0:0|0:0,0:0:0:0:
228,243,3204,2,0,P|283:186|280:105,2,165,2|2|2,0:0|0:0|0:0,0:0:0:0:
132,300,4467,6,0,L|76:284,2,55,2|0|0,0:0|0:0|0:0,0:0:0:0:
176,340,4941,2,0,L|344:324,1,165,2|2,0:0|0:0,0:0:0:0:
427,260,5730,2,0,P|443:208|430:155,1,110,2|0,0:0|0:0,0:0:0:0:
384,124,6204,2,0,L|272:132,1,110,2|0,0:0|0:0,0:0:0:0:
228,100,6677,1,2,0:0:0:0:
128,144,6993,6,0,P|122:63|177:5,2,165,2|2|2,0:0|0:0|0:0,0:0:0:0:
200,228,8256,1,2,0:0:0:0:
300,184,8572,1,0,0:0:0:0:
376,264,8888,1,0,0:0:0:0:
320,360,9204,1,2,0:0:0:0:
212,340,9519,6,0,L|92:332,1,110,2|0,0:0|0:0,0:0:0:0:
51,356,9993,2,0,P|68:304|51:252,1,110,2|0,0:0|0:0,0:0:0:0:
16,212,10467,1,2,0:0:0:0:
84,128,10783,2,0,L|200:140,1,110,2|0,0:0|0:0,0:0:0:0:
232,180,11256,2,0,P|203:104|231:28,1,165,2|0,0:0|0:0,0:0:0:0:
312,104,12046,6,0,L|436:96,1,110,4|0,0:0|3:0,0:0:0:0:
488,184,12677,2,0,P|476:237|491:289,1,110,0|0,0:0|3:0,0:0:0:0:
396,348,13309,2,0,L|284:336,1,110,2|0,3:2|3:0,0:0:0:0:
244,372,13783,2,0,P|256:318|241:266,1,110,2|8,0:0|3:0,0:0:0:0:
208,224,14256,1,2,3:2:0:0:
116,160,14572,6,0,P|103:106|118:54,1,110,4|2,0:0|3:2,0:0:0:0:
156,20,15046,1,2,0:0:0:0:
240,92,15362,2,0,L|356:80,1,110,2|2,0:0|0:0,0:0:0:0:
436,148,15993,2,0,L|496:136,2,55,0|0|0,0:0|3:2|3:0,0:0:0:0:
395,187,16467,2,0,P|415:238|400:290,1,110,4|0,3:0|3:0,0:0:0:0:
308,348,17098,6,0,L|192:340,1,110,6|0,0:0|3:0,0:0:0:0:
143,364,17572,2,0,P|172:288|141:213,1,165,2|0,0:0|3:0,0:0:0:0:
44,164,18362,2,0,P|15:88|46:13,2,165,2|2|2,0:0|0:0|0:0,0:0:0:0:
124,88,19625,6,0,L|248:100,1,110,6|0,0:0|0:0,0:0:0:0:
332,151,20256,2,0,P|348:100|333:47,2,110,6|0|4,0:0|0:0|0:0,0:0:0:0:
44,320,22151,6,0,P|24:268|40:216,1,110,4|2,0:0|0:0,0:0:0:0:
120,164,22783,2,0,L|292:176,1,165,0|0,0:0|0:0,0:0:0:0:
316,220,23414,2,0,P|304:168|320:112,1,110,2|0,0:0|0:0,0:0:0:0:
428,120,24046,2,0,P|442:172|430:225,1,110,2|0,0:0|0:0,0:0:0:0:
364,312,24677,6,0,L|252:300,1,110,2|2,0:0|0:0,0:0:0:0:
204,204,25309,2,0,B|144:204|104:252|104:252|52:228,1,165,2|0,0:0|0:0,0:0:0:0:
7,204,25941,2,0,P|23:152|10:99,1,110,0|2,0:0|0:0,0:0:0:0:
100,40,26572,2,0,L|212:40,1,110,0|2,0:0|0:0,0:0:0:0:
299,103,27204,6,0,P|316:155|297:206,1,110,0|0,3:0|0:0,0:0:0:0:
212,276,27835,2,0,P|189:260|162:255,2,55,2|0|0,0:0|0:0|0:0,0:0:0:0:
251,323,28309,2,0,L|371:311,1,110,0|0,0:0|0:0,0:0:0:0:
408,336,28783,1,2,0:0:0:0:
480,252,29098,1,0,0:0:0:0:
404,172,29414,1,2,0:0:0:0:
476,88,29730,6,0,P|427:64|372:69,1,110,0|0,0:0|0:0,0:0:0:0:
328,100,30204,2,0,P|273:105|224:81,1,110,2|0,0:0|0:0,0:0:0:0:
192,36,30677,1,2,0:0:0:0:
104,100,30993,6,0,L|116:216,1,110,0|2,0:0|0:0,0:0:0:0:
96,252,31467,1,0,0:0:0:0:
96,252,31625,2,0,P|71:240|43:239,2,55,0|2|0,1:0|0:0|0:0,0:0:0:0:
172,332,32256,6,0,L|288:320,1,110,4|2,0:0|0:0,0:0:0:0:
380,268,32888,1,0,0:0:0:0:
380,268,33046,2,0,P|360:217|372:164,1,110,2|0,0:0|0:0,0:0:0:0:
408,124,33519,5,0,0:0:0:0:
316,68,33835,1,2,0:0:0:0:
248,152,34151,2,0,L|136:140,1,110,0|2,0:0|0:0,0:0:0:0:
55,64,34783,6,0,P|32:113|35:167,1,110,0|2,0:0|0:0,0:0:0:0:
112,248,35414,1,0,0:0:0:0:
160,272,35572,2,0,L|272:260,1,110,2|2,0:0|0:0,0:0:0:0:
324,280,36046,2,0,P|307:228|321:175,2,110,0|2|0,0:0|0:0|0:0,0:0:0:0:
408,344,36993,1,2,0:0:0:0:
500,284,37309,6,0,P|516:232|502:179,1,110,0|0,3:0|0:0,0:0:0:0:
420,104,37941,2,0,L|304:116,1,110,2|0,0:0|0:0,0:0:0:0:
272,152,38414,2,0,L|156:136,1,110,0|0,0:0|0:0,0:0:0:0:
124,100,38888,1,2,0:0:0:0:
48,180,39204,1,2,0:0:0:0:
116,264,39519,1,2,0:0:0:0:
36,340,39835,6,0,P|139:368|220:300,1,220,2|2,0:0|0:0,0:0:0:0:
228,192,40783,2,0,L|216:136,1,55,0|0,0:0|0:0,0:0:0:0:
200,83,41098,2,0,P|146:92|96:71,2,110,0|2|2,0:0|0:0|0:0,0:0:0:0:
296,28,42046,1,2,0:0:0:0:
380,100,42362,6,0,L|368:216,1,110,4|0,0:0|3:0,0:0:0:0:
360,268,42835,2,0,P|313:240|259:246,1,110,0|0,0:0|0:0,0:0:0:0:
208,272,43309,1,0,3:0:0:0:
100,292,43625,2,0,L|88:228,1,55,0|8,0:0|3:0,0:0:0:0:
36,224,43941,2,0,L|24:160,1,55,4|0,3:0|0:0,0:0:0:0:
15,115,44256,2,0,P|70:120|120:98,1,110,0|2,3:0|3:0,0:0:0:0:
216,44,44888,6,0,L|240:212,2,165,4|0|0,0:0|0:0|0:0,0:0:0:0:
323,16,46151,2,0,P|351:14|376:25,1,55,0|8,0:0|3:0,0:0:0:0:
404,76,46467,2,0,P|429:86|456:85,1,55,0|0,3:0|0:0,0:0:0:0:
504,40,46783,2,0,L|496:152,1,110,8|12,0:0|3:0,0:0:0:0:
412,236,47414,6,0,B|340:188|340:188|264:204,1,165,4|0,0:0|3:0,0:0:0:0:
208,212,48046,2,0,L|188:100,1,110,8|0,0:0|3:0,0:0:0:0:
180,48,48519,2,0,P|229:71|283:68,1,110,0|8,3:0|0:0,0:0:0:0:
324,28,48993,1,0,0:0:0:0:
420,84,49309,2,0,L|412:196,1,110,8|0,0:0|3:0,0:0:0:0:
464,292,49941,6,0,P|384:305|320:257,1,165,4|0,0:0|0:0,0:0:0:0:
291,207,50572,2,0,P|246:179|192:183,1,110,8|0,0:0|3:0,0:0:0:0:
144,208,51046,2,0,L|156:96,1,110,0|0,3:0|3:0,0:0:0:0:
128,52,51519,1,8,0:0:0:0:
40,120,51835,2,0,L|36:180,2,55,8|0|8,0:0|3:0|0:0,0:0:0:0:
128,52,52467,6,0,L|240:60,1,110,4|0,3:2|3:0,0:0:0:0:
348,68,53098,2,0,L|460:76,1,110,0|0,3:0|3:0,0:0:0:0:
448,184,53730,2,0,L|338:176,1,110,0|0,3:0|3:0,0:0:0:0:
240,227,54362,2,0,P|227:280|247:331,1,110,0|0,3:0|3:0,0:0:0:0:
352,364,54993,6,0,L|120:340,1,220,4|0,3:2|3:0,0:0:0:0:
52,276,55941,2,0,L|60:216,2,55,8|0|0,0:0|0:0|0:0,0:0:0:0:
447,83,57519,6,0,P|477:158|449:234,2,165,4|0|8,0:0|3:0|0:0,0:0:0:0:
404,52,58625,2,0,L|280:68,1,110,0|0,3:0|3:0,0:0:0:0:
256,28,59098,1,8,0:0:0:0:
147,72,59414,2,0,P|131:123|146:176,1,110,0|8,3:0|0:0,0:0:0:0:
212,264,60046,6,0,L|44:220,2,165,0|0|8,3:0|0:0|0:0,0:0:0:0:
228,316,61151,2,0,L|344:304,1,110,0|0,3:0|3:0,0:0:0:0:
372,272,61625,1,8,0:0:0:0:
416,172,61941,1,0,3:0:0:0:
340,92,62256,1,8,0:0:0:0:
264,12,62572,6,0,P|236:56|236:116,1,110,0|8,3:0|0:0,0:0:0:0:
192,216,63204,2,0,L|84:237,1,110,0|8,3:0|0:0,0:0:0:0:
40,272,63677,2,0,P|60:216|56:164,1,110,0|0,0:0|0:0,0:0:0:0:
16,128,64151,1,8,0:0:0:0:
108,64,64467,1,0,3:0:0:0:
172,156,64783,1,8,0:0:0:0:
264,92,65098,6,0,P|318:83|364:110,1,110,4|8,0:0|0:0,0:0:0:0:
424,204,65730,2,0,L|408:324,1,110,4|8,0:0|0:0,0:0:0:0:
312,364,66362,2,0,P|251:311|172:324,1,165,4|0,0:0|0:0,0:0:0:0:
120,344,66993,2,0,L|100:232,1,110,8|8,3:0|0:0,0:0:0:0:
23,156,67625,6,0,P|69:126|123:129,1,110,4|8,0:0|0:0,0:0:0:0:
168,160,68098,1,0,3:0:0:0:
168,160,68256,2,0,P|221:163|267:133,1,110,0|8,3:0|0:0,0:0:0:0:
368,92,68888,6,0,L|388:200,1,110,4|8,0:0|0:0,0:0:0:0:
400,252,69362,1,0,3:0:0:0:
400,252,69519,2,0,P|347:239|302:267,1,110,0|8,3:0|0:0,0:0:0:0:
212,332,70151,6,0,L|96:320,1,110,4|8,0:0|0:0,0:0:0:0:
27,240,70783,2,0,P|51:190|55:135,1,110,0|8,3:0|0:0,0:0:0:0:
20,32,71414,1,4,0:0:0:0:
128,56,71730,1,8,0:0:0:0:
236,80,72046,2,0,L|352:68,1,110,0|8,3:0|0:0,0:0:0:0:
439,135,72677,6,0,P|459:186|445:238,1,110,8|8,0:0|0:0,0:0:0:0:
348,292,73309,2,0,L|224:280,1,110,8|8,0:0|0:0,0:0:0:0:
187,276,73783,2,0,P|203:223|193:170,1,110,0|0,3:0|3:0,0:0:0:0:
156,128,74256,1,8,0:0:0:0:
56,80,74572,1,8,0:0:0:0:
40,188,74888,1,0,3:0:0:0:
256,192,75204,12,4,77730,0:0:0:0:
44,164,78993,6,0,P|24:113|40:56,2,110,2|0|2,0:0|0:0|0:0,0:0:0:0:
128,236,79941,1,0,0:0:0:0:
216,164,80256,2,0,L|328:164,1,110,2|0,0:0|0:0,0:0:0:0:
380,131,80730,2,0,P|357:209|390:283,1,165,0|2,0:0|0:0,0:0:0:0:
304,356,81519,6,0,L|196:336,1,110,0|2,0:0|0:0,0:0:0:0:
87,304,82151,2,0,P|114:256|114:201,1,110,0|2,0:0|0:0,0:0:0:0:
180,112,82783,6,0,B|248:116|284:168|284:168|324:140,1,165,2|2,0:0|0:0,0:0:0:0:
360,108,83414,1,0,0:0:0:0:
460,164,83730,1,2,0:0:0:0:
460,164,83888,2,0,L|448:276,1,110,0|0,0:0|0:0,0:0:0:0:
476,320,84362,1,2,0:0:0:0:
376,360,84677,1,0,0:0:0:0:
296,284,84993,1,2,0:0:0:0:
196,331,85309,6,0,P|116:337|62:278,1,165,2|0,0:0|0:0,0:0:0:0:
32,244,85941,2,0,P|44:188|32:136,1,110,2|0,0:0|0:0,0:0:0:0:
108,48,86572,2,0,L|280:72,1,165,2|0,0:0|0:0,0:0:0:0:
320,44,87204,1,2,0:0:0:0:
404,108,87519,1,0,0:0:0:0:
492,172,87835,6,0,P|387:167|335:258,1,220,0|0,0:0|0:0,0:0:0:0:
256,332,88783,2,0,L|192:324,1,55,0|0,0:0|0:0,0:0:0:0:
148,352,89098,2,0,P|160:296|148:244,1,110,2|0,0:0|0:0,0:0:0:0:
56,184,89730,2,0,P|43:130|55:77,1,110,2|0,0:0|0:0,0:0:0:0:
147,16,90362,6,0,P|286:66|227:201,1,330,2|0,0:0|0:0,0:0:0:0:
304,280,91625,2,0,B|400:208|400:76|400:76|448:104|440:164,1,330,2|0,0:0|0:0,0:0:0:0:
480,260,92888,1,2,0:0:0:0:
256,192,92967,12,0,95414,0:0:0:0:
