osu file format v14

[General]
AudioFilename: audio.mp3
AudioLeadIn: 0
PreviewTime: 56888
Countdown: 0
SampleSet: Soft
StackLeniency: 0.2
Mode: 0
LetterboxInBreaks: 0
WidescreenStoryboard: 1

[Editor]
Bookmarks: 42362
DistanceSpacing: 1.4
BeatDivisor: 4
GridSize: 4
TimelineZoom: 2.2

[Metadata]
Title:Re:TrymenT
TitleUnicode:Re:TrymenT
Artist:Hotaru Murasaki
ArtistUnicode:紫咲ほたる
Creator:Revia
Version:Ezreal's Extra
Source:Re:LieF〜親愛なるあなたへ〜
Tags:rask relief retryment opening op short eroge visual novel 甘利紗陽 Cellina ProEzreal Beomsan Dailycare Enon HabiHolic Len
BeatmapID:1454987
BeatmapSetID:651062

[Difficulty]
HPDrainRate:6
CircleSize:4.2
OverallDifficulty:9
ApproachRate:9.4
SliderMultiplier:2
SliderTickRate:2

[Events]
//Background and Video events
0,0,"Re.png",0,0
//Break Periods
//Storyboard Layer 0 (Background)
//Storyboard Layer 1 (Fail)
//Storyboard Layer 2 (Pass)
//Storyboard Layer 3 (Foreground)
//Storyboard Sound Samples

[TimingPoints]
1941,315.789473684211,4,2,1,30,1,0
1941,-166.666666666667,4,2,1,30,0,0
10783,-125,4,2,1,40,0,0
12046,-100,4,2,1,50,0,0
20888,-166.666666666667,4,2,1,30,0,0
22151,-142.857142857143,4,2,1,50,0,0
31625,-142.857142857143,4,2,1,20,0,0
31941,-142.857142857143,4,2,1,50,0,0
42362,-125,4,2,1,50,0,0
52467,-111.111111111111,4,2,1,50,0,0
56098,-200,4,2,1,50,0,0
56809,-200,4,2,1,5,0,0
56888,-100,4,2,1,50,0,0
57125,-100,4,2,1,5,0,0
57204,-100,4,2,1,50,0,0
57519,-83.3333333333333,4,2,2,70,0,1
72598,-83.3333333333333,4,2,1,70,0,0
72677,-83.3333333333333,4,2,1,80,0,1
77730,-200,4,2,2,40,0,0
79309,-200,4,2,2,30,0,0
79625,-200,4,2,2,20,0,0
79941,-200,4,2,2,40,0,0
81835,-200,4,2,2,30,0,0
82151,-200,4,2,2,20,0,0
82467,-200,4,2,2,40,0,0
84362,-200,4,2,2,30,0,0
84677,-200,4,2,2,20,0,0
84993,-200,4,2,2,10,0,0
85309,-200,4,2,2,40,0,0
94151,-200,4,2,2,30,0,0
95414,-200,4,2,2,20,0,0

[Colours]
Combo1 : 253,153,205
Combo2 : 217,217,217
Combo3 : 127,127,127
Combo4 : 252,255,121
Combo5 : 100,255,40
Combo6 : 53,225,255

[HitObjects]
59,62,1941,6,0,P|118:74|198:58,1,119.999996337891,2|0,0:0|0:0,0:0:0:0:
256,40,2414,2,0,P|315:28|395:44,1,119.999996337891,2|0,0:0|0:0,0:0:0:0:
453,63,2888,1,2,0:0:0:0:
254,123,3204,5,2,0:1:0:0:
254,123,3362,1,0,0:0:0:0:
353,185,3677,1,0,0:1:0:0:
453,63,4151,1,2,0:1:0:0:
430,229,4467,69,2,0:0:0:0:
442,145,4625,1,0,0:0:0:0:
373,96,4783,1,0,0:0:0:0:
385,12,4941,1,2,0:0:0:0:
385,12,5256,1,0,0:0:0:0:
373,96,5414,1,2,0:0:0:0:
493,327,5730,6,0,P|441:299|380:323,1,119.999996337891,2|0,0:1|0:0,0:0:0:0:
430,229,6204,1,0,0:1:0:0:
322,350,6362,2,0,P|270:378|209:354,1,119.999996337891,0|2,0:1|0:1,0:0:0:0:
48,192,6993,70,0,P|58:250|57:333,1,119.999996337891,2|0,0:0|0:0,0:0:0:0:
136,192,7467,2,0,P|146:134|145:51,1,119.999996337891,2|0,0:0|0:0,0:0:0:0:
224,192,7941,1,2,0:0:0:0:
312,192,8256,5,2,0:1:0:0:
224,192,8572,1,0,0:1:0:0:
48,192,8888,1,0,0:1:0:0:
136,192,9204,1,2,0:1:0:0:
343,87,9519,70,0,P|307:134|315:198,1,119.999996337891,2|0,0:0|0:0,0:0:0:0:
468,237,9993,2,0,P|445:182|385:157,1,119.999996337891,2|0,0:0|0:0,0:0:0:0:
277,268,10467,1,2,0:0:0:0:
208,23,10783,22,0,P|167:94|194:178,1,160,2|0,0:1|0:0,0:0:0:0:
389,359,11256,2,0,P|347:288|260:269,1,160,2|0,0:1|0:0,0:0:0:0:
0,330,11730,1,2,0:1:0:0:
38,337,11808,1,0,0:0:0:0:
78,330,11887,1,2,0:0:0:0:
111,309,11966,1,0,0:0:0:0:
134,279,12046,6,0,P|207:252|286:273,1,150,4|0,0:0|0:0,0:0:0:0:
275,266,12362,2,0,L|264:374,1,100,0|0,3:0|0:0,0:0:0:0:
393,204,12677,1,0,3:0:0:0:
407,344,12835,1,0,0:0:0:0:
357,115,12993,2,0,L|474:124,1,100,0|0,3:0|0:0,0:0:0:0:
287,29,13309,6,0,P|222:77|95:44,1,200,2|0,3:0|3:0,0:0:0:0:
20,217,13783,2,0,P|95:187|209:252,1,200,2|0,0:0|0:0,0:0:0:0:
297,153,14256,1,2,3:0:0:0:
99,317,14414,1,2,0:0:0:0:
99,317,14493,1,2,0:0:0:0:
99,317,14572,6,0,P|154:363|258:342,1,150,4|0,0:0|0:0,0:0:0:0:
228,360,14888,1,0,3:0:0:0:
396,267,15046,2,0,L|399:374,1,100,2|0,0:1|3:0,0:0:0:0:
296,252,15362,2,0,L|296:152,1,100,2|0,0:1|3:0,0:0:0:0:
440,34,15677,2,0,P|390:63|279:44,1,150,2|0,0:1|0:0,0:0:0:0:
207,27,15993,37,2,0:0:0:0:
214,40,16072,1,2,0:0:0:0:
216,55,16151,1,2,3:0:0:0:
46,105,16309,1,0,0:0:0:0:
234,145,16467,1,2,3:0:0:0:
214,231,16625,1,0,0:0:0:0:
26,197,16783,1,2,3:0:0:0:
46,283,16941,1,0,0:0:0:0:
132,82,17098,6,0,L|128:292,1,200,2|0,3:1|3:0,0:0:0:0:
356,348,17572,2,0,L|352:138,1,200,2|0,0:1|0:0,0:0:0:0:
260,249,18046,1,0,3:0:0:0:
438,127,18204,1,2,0:0:0:0:
438,127,18283,1,2,0:0:0:0:
438,127,18362,6,0,P|387:66|269:108,1,200,2|0,3:1|3:0,0:0:0:0:
102,283,18835,2,0,P|191:314|261:246,1,200,2|0,0:1|0:0,0:0:0:0:
28,74,19309,2,0,L|14:188,1,100,2|0,3:1|0:0,0:0:0:0:
215,37,19625,5,6,0:0:0:0:
135,108,19783,1,0,0:0:0:0:
157,214,19941,1,0,0:0:0:0:
260,247,20098,1,0,0:0:0:0:
249,168,20256,5,6,2:0:0:0:
323,194,20414,1,0,2:0:0:0:
338,274,20572,1,0,2:0:0:0:
274,328,20729,1,0,2:0:0:0:
260,247,20888,6,0,P|205:299|288:315,1,179.999994506836,2|2,0:0|0:0,0:0:0:0:
274,328,21441,1,2,0:0:0:0:
274,328,21519,1,2,0:0:0:0:
489,17,22151,69,6,3:0:0:0:
489,17,22467,1,0,0:0:0:0:
342,71,22783,2,0,P|412:59|468:114,1,139.999995727539,2|0,0:0|0:0,0:0:0:0:
462,99,23256,1,0,0:0:0:0:
485,180,23414,2,0,P|471:249|472:328,1,139.999995727539,2|0,0:0|0:0,0:0:0:0:
470,318,24046,2,0,P|447:251|407:183,1,139.999995727539,2|0,0:0|0:0,0:0:0:0:
323,359,24677,5,2,0:0:0:0:
323,359,24993,1,0,0:0:0:0:
470,318,25309,2,0,P|413:320|350:259,1,139.999995727539,2|0,0:0|0:0,0:0:0:0:
354,267,25783,1,0,0:0:0:0:
379,187,25941,2,0,P|382:112|370:39,1,139.999995727539,2|0,0:0|0:0,0:0:0:0:
372,48,26572,2,0,P|397:84|424:111,2,69.9999978637696,2|0|0,0:0|0:0|0:0,0:0:0:0:
19,31,27204,69,2,3:0:0:0:
155,61,27362,1,0,3:0:0:0:
26,43,27519,1,0,3:0:0:0:
144,69,27677,1,0,3:0:0:0:
18,129,27835,2,0,P|25:198|22:274,1,139.999995727539,2|0,0:0|0:0,0:0:0:0:
103,354,28309,2,0,P|106:284|119:215,1,139.999995727539,2|0,0:0|0:0,0:0:0:0:
119,215,28783,1,2,0:0:0:0:
102,76,29098,2,0,P|115:144|118:214,1,139.999995727539,2|0,0:0|0:0,0:0:0:0:
187,354,29730,6,0,P|205:305|295:320,1,139.999995727539,2|0,0:0|0:0,0:0:0:0:
376,228,30204,2,0,P|373:300|355:385,1,139.999995727539,2|0,0:0|0:0,0:0:0:0:
294,218,30677,1,2,0:0:0:0:
294,218,30993,69,0,0:0:0:0:
344,150,31151,1,2,0:0:0:0:
478,223,31309,5,0,0:0:0:0:
428,155,31467,1,2,0:0:0:0:
294,218,31625,1,8,0:0:0:0:
244,286,31783,1,8,0:0:0:0:
160,291,31940,1,2,0:0:0:0:
110,223,32098,1,0,0:0:0:0:
5,380,32256,69,2,3:0:0:0:
206,363,32414,1,0,3:0:0:0:
16,370,32572,2,0,P|27:298|23:227,1,139.999995727539,0|2,0:0|0:0,0:0:0:0:
126,84,33046,2,0,P|110:152|109:222,1,139.999995727539
52,32,33519,5,2,0:0:0:0:
127,84,33835,1,0,0:0:0:0:
217,83,34151,1,2,0:0:0:0:
286,24,34467,1,0,0:0:0:0:
231,172,34783,69,2,0:0:0:0:
286,24,35098,1,0,0:0:0:0:
396,137,35414,1,2,0:0:0:0:
396,137,35572,2,0,P|382:207|388:282,1,139.999995727539
477,92,36046,5,2,0:0:0:0:
396,137,36362,1,0,0:0:0:0:
309,111,36677,1,2,0:0:0:0:
286,24,36993,1,0,0:0:0:0:
503,284,37309,69,2,3:0:0:0:
327,344,37467,1,0,3:0:0:0:
493,296,37625,2,0,P|424:289|350:252,1,139.999995727539,0|2,0:0|0:0,0:0:0:0:
325,126,38256,1,0,0:0:0:0:
325,126,38414,2,0,P|353:189|358:271,1,139.999995727539,2|0,0:0|0:0,0:0:0:0:
327,344,38888,2,0,L|175:353,2,139.999995727539,0|2|0,0:0|0:0|0:0,0:0:0:0:
485,177,39835,6,0,P|417:155|346:187,1,139.999995727539,2|0,0:0|0:0,0:0:0:0:
291,291,40467,2,0,P|344:243|351:165,1,139.999995727539,2|0,0:0|0:0,0:0:0:0:
338,95,40941,2,0,P|293:42|226:29,1,139.999995727539,2|0,0:0|0:0,0:0:0:0:
53,22,41414,69,2,0:0:0:0:
102,229,41572,1,0,0:0:0:0:
62,31,41730,5,2,0:0:0:0:
134,71,41888,1,0,0:0:0:0:
154,151,42046,1,2,0:0:0:0:
106,217,42204,1,0,0:0:0:0:
2,372,42362,6,0,P|56:325|142:356,1,160,4|0,0:0|3:0,0:0:0:0:
134,348,42835,1,2,0:0:0:0:
227,305,42993,2,0,L|220:390,1,80,0|2,3:0|0:0,0:0:0:0:
143,257,43309,1,0,3:0:0:0:
336,344,43467,38,8,P|394:336|348:373,1,160,8|8,0:3|0:3,0:3:0:0:
326,340,43941,1,0,3:0:0:0:
488,250,44256,2,0,P|445:255|407:247,1,80,0|2,3:0|0:0,0:0:0:0:
447,52,44572,2,0,P|463:130|445:193,1,120,0|0,3:0|0:0,0:0:0:0:
409,247,44888,38,0,P|382:199|290:218,1,160,4|0,0:0|3:0,0:0:0:0:
291,216,45362,1,2,0:0:0:0:
152,141,45519,2,0,P|198:141|242:170,1,80,0|2,3:0|0:0,0:0:0:0:
177,218,45835,1,0,3:0:0:0:
65,45,45993,38,0,P|25:61|84:65,1,160,8|8,0:3|0:3,0:0:0:0:
313,49,46467,37,2,0:0:0:0:
146,23,46625,1,0,0:0:0:0:
134,44,46783,5,10,0:0:0:0:
339,131,46941,1,8,0:0:0:0:
355,160,47098,5,10,0:3:0:0:
82,211,47256,1,8,0:3:0:0:
374,268,47414,6,0,P|439:241|511:301,1,160,4|0,0:0|3:0,0:0:0:0:
506,288,47888,1,2,0:0:0:0:
461,373,48046,2,0,L|373:380,1,80,8|2,0:0|0:0,0:0:0:0:
206,252,48362,1,0,3:0:0:0:
252,186,48519,2,0,P|283:233|232:329,1,160,2|8,0:0|0:0,0:0:0:0:
133,217,48993,1,0,3:0:0:0:
206,252,49151,1,2,0:0:0:0:
7,128,49309,37,8,0:0:0:0:
28,327,49467,1,8,0:0:0:0:
96,147,49625,1,8,0:3:0:0:
114,294,49783,1,8,0:3:0:0:
177,99,49941,6,0,P|254:117|316:62,1,160,4|0,0:0|3:0,0:0:0:0:
312,69,50414,1,2,0:0:0:0:
472,65,50572,2,0,P|431:44|381:48,1,80,8|2,0:0|0:0,0:0:0:0:
502,148,50888,1,0,0:0:0:0:
426,291,51046,2,0,L|418:129,1,160,2|2,0:0|0:0,0:0:0:0:
232,58,51519,5,8,0:0:0:0:
418,131,51677,1,2,0:0:0:0:
242,140,51835,5,8,0:0:0:0:
409,141,51993,1,10,0:0:0:0:
280,213,52151,37,8,0:3:0:0:
399,152,52309,1,10,0:3:0:0:
500,335,52467,6,0,P|426:288|333:336,1,179.999994506836,4|0,0:0|3:0,0:0:0:0:
345,318,52941,1,2,0:0:0:0:
240,243,53098,2,0,P|260:288|256:342,1,89.9999972534181,0|2,3:0|0:0,0:0:0:0:
125,257,53414,2,0,P|130:208|160:163,1,89.9999972534181,0|2,3:0|0:0,0:0:0:0:
213,119,53651,1,2,0:0:0:0:
213,119,53730,6,0,P|173:97|129:93,1,89.9999972534181,0|0,3:0|0:0,0:0:0:0:
39,277,54046,2,0,P|83:276|124:257,1,89.9999972534181,0|0,3:0|0:0,0:0:0:0:
1,39,54362,2,0,L|9:150,1,89.9999972534181,0|0,3:0|0:0,0:0:0:0:
211,243,54677,1,0,3:0:0:0:
341,57,54835,1,2,0:0:0:0:
341,57,54914,1,2,0:0:0:0:
341,57,54993,6,0,P|407:47|462:87,1,134.999995880127,4|0,0:0|0:0,0:0:0:0:
471,113,55309,1,8,0:0:0:0:
211,243,55467,1,8,0:0:0:0:
476,234,55625,1,8,0:0:0:0:
209,117,55783,1,8,0:0:0:0:
341,57,55941,1,8,0:0:0:0:
330,314,56098,38,0,B|346:285|348:268|348:268|360:334|398:351|398:351|438:346|458:298,1,225,8|0,0:0|0:0,0:0:0:0:
453,307,56888,38,0,P|398:274|324:331,1,150,4|0,0:0|0:0,0:0:0:0:
239,357,57204,38,0,P|234:326|240:284,1,50,2|0,0:0|0:0,0:0:0:0:
267,212,57362,2,0,P|272:181|266:139,1,50,2|0,0:0|0:0,0:0:0:0:
171,23,57519,6,0,P|214:75|331:49,1,179.999994506836,4|0,0:0|0:0,0:0:0:0:
369,14,57835,1,8,0:0:0:0:
267,212,57993,1,2,0:0:0:0:
267,212,58072,1,2,0:0:0:0:
267,212,58151,2,0,P|326:182|419:226,1,119.999996337891,2|0,0:0|0:0,0:0:0:0:
239,357,58467,2,0,P|172:353|114:268,1,119.999996337891,8|0,0:0|0:0,0:0:0:0:
175,39,58783,6,0,L|188:196,1,119.999996337891,2|0,3:0|0:0,0:0:0:0:
90,254,59098,2,0,B|74:271|34:252|34:252|54:214|82:217,1,119.999996337891,2|0,0:3|0:0,0:0:0:0:
265,328,59414,2,0,B|287:333|291:377|291:377|248:379|236:353,1,119.999996337891,2|0,0:3|0:0,0:0:0:0:
247,144,59730,1,10,0:3:0:0:
415,271,59888,1,2,0:0:0:0:
415,271,59967,1,2,0:0:0:0:
415,271,60046,70,0,B|435:285|449:320|449:320|484:254|437:169,1,179.999994506836,2|0,3:0|0:0,0:0:0:0:
415,145,60362,1,8,0:0:0:0:
374,345,60519,1,0,0:0:0:0:
302,149,60677,2,0,P|362:164|431:130,1,119.999996337891,0|0,3:0|0:0,0:0:0:0:
219,16,60993,2,0,P|159:33|116:96,1,119.999996337891,8|0,0:0|0:0,0:0:0:0:
206,319,61309,6,0,L|211:190,1,119.999996337891,2|0,3:0|0:0,0:0:0:0:
65,186,61625,2,0,B|16:224|16:224|84:230,1,119.999996337891,2|0,0:3|0:0,0:0:0:0:
302,149,61941,2,0,B|293:89|293:89|251:146,1,119.999996337891,2|0,0:3|0:0,0:0:0:0:
285,340,62256,1,2,0:3:0:0:
421,123,62414,1,2,0:0:0:0:
421,123,62493,1,2,0:0:0:0:
421,123,62572,70,0,P|468:194|429:294,1,179.999994506836,2|0,3:0|0:0,0:0:0:0:
377,307,62888,1,8,0:0:0:0:
192,148,63046,1,2,0:0:0:0:
192,148,63125,1,2,0:0:0:0:
192,148,63204,2,0,P|255:169|307:144,1,119.999996337891,2|0,0:0|0:0,0:0:0:0:
94,45,63519,1,8,0:0:0:0:
130,241,63677,1,0,0:0:0:0:
301,148,63835,6,0,B|338:138|353:119|353:119|345:144|350:180,1,119.999996337891,2|0,3:0|0:0,0:0:0:0:
130,241,64151,2,0,B|103:213|78:209|78:209|104:204|133:182,1,119.999996337891,2|0,0:3|0:0,0:0:0:0:
307,327,64467,2,0,B|296:363|305:387|305:387|288:367|254:353,1,119.999996337891,2|0,0:3|0:0,0:0:0:0:
301,148,64783,1,2,0:3:0:0:
162,335,64941,1,0,0:0:0:0:
237,95,65098,70,0,P|316:66|386:155,1,179.999994506836,4|0,0:0|0:0,0:0:0:0:
367,198,65414,2,0,P|310:229|257:218,1,119.999996337891,0|0,3:0|0:0,0:0:0:0:
92,40,65730,6,0,L|108:238,1,179.999994506836,4|0,0:0|0:0,0:0:0:0:
34,172,66046,2,0,P|88:135|158:153,1,119.999996337891,0|0,3:0|0:0,0:0:0:0:
141,346,66362,70,0,B|111:352|89:332|89:332|119:299|164:292|204:317,1,179.999994506836,4|0,0:0|0:0,0:0:0:0:
267,355,66677,2,0,P|335:369|396:340,1,119.999996337891,0|0,3:0|0:0,0:0:0:0:
407,190,66993,5,0,3:0:0:0:
477,347,67151,1,0,3:0:0:0:
491,107,67309,2,0,L|289:95,1,179.999994506836,8|0,0:0|0:0,0:0:0:0:
241,30,67625,70,0,P|275:100|196:183,1,179.999994506836,4|0,0:0|0:0,0:0:0:0:
149,187,67941,2,0,L|26:177,1,119.999996337891,8|0,0:0|0:0,0:0:0:0:
97,81,68256,1,0,3:0:0:0:
158,275,68414,1,2,0:0:0:0:
362,263,68572,2,0,L|239:253,1,119.999996337891,8|2,0:0|0:0,0:0:0:0:
0,331,68888,6,0,P|69:274|154:324,1,179.999994506836,4|0,0:0|0:0,0:0:0:0:
191,361,69204,2,0,P|248:380|325:353,1,119.999996337891,8|0,0:0|0:0,0:0:0:0:
425,199,69519,1,0,3:0:0:0:
458,366,69677,1,2,0:0:0:0:
359,133,69835,2,0,P|431:105|505:142,1,119.999996337891,8|2,0:0|0:0,0:0:0:0:
350,325,70151,70,0,L|145:308,1,179.999994506836,4|0,0:0|0:0,0:0:0:0:
101,256,70467,2,0,P|165:223|236:251,1,119.999996337891,8|0,0:0|0:0,0:0:0:0:
220,132,70783,1,0,3:0:0:0:
170,310,70941,1,2,0:0:0:0:
151,79,71098,2,0,P|215:46|286:74,1,119.999996337891,8|2,0:0|0:0,0:0:0:0:
480,164,71414,6,0,P|413:131|344:171,1,119.999996337891,4|0,0:0|0:0,0:0:0:0:
246,360,71730,2,0,P|320:355|360:285,1,119.999996337891,8|0,0:0|0:0,0:0:0:0:
118,234,72046,1,8,0:3:0:0:
109,266,72125,1,8,0:3:0:0:
109,299,72204,1,8,0:3:0:0:
284,115,72362,1,8,0:3:0:0:
275,82,72441,1,8,0:3:0:0:
259,54,72520,1,8,0:3:0:0:
68,130,72677,53,4,0:0:0:0:
237,206,72835,1,2,0:0:0:0:
17,201,72993,5,8,0:0:0:0:
228,193,73151,1,2,0:0:0:0:
1,288,73309,5,8,0:0:0:0:
220,180,73467,1,2,0:0:0:0:
17,371,73625,5,8,0:0:0:0:
211,168,73783,1,2,0:0:0:0:
90,60,73941,37,8,0:0:0:0:
118,277,74099,1,2,0:0:0:0:
203,40,74256,5,8,0:0:0:0:
212,283,74414,1,2,0:0:0:0:
308,26,74572,5,8,0:0:0:0:
299,292,74730,1,2,0:0:0:0:
416,23,74888,5,8,0:0:0:0:
389,304,75046,1,2,0:0:0:0:
130,151,75204,38,0,P|236:101|330:144,1,179.999994506836,4|0,0:0|0:0,0:0:0:0:
351,169,75519,5,8,0:0:0:0:
109,304,75677,1,2,0:0:0:0:
389,304,75835,5,8,0:0:0:0:
130,151,75993,1,2,0:0:0:0:
365,92,76151,5,8,0:0:0:0:
248,349,76309,2,0,P|171:371|134:231,1,239.999992675781,2|0,0:0|0:0,0:0:0:0:
395,142,76783,1,8,0:0:0:0:
450,376,76941,1,2,0:0:0:0:
325,61,77099,37,2,0:0:0:0:
377,86,77176,1,0,0:0:0:0:
395,142,77256,1,2,0:0:0:0:
365,192,77334,1,0,0:0:0:0:
308,207,77414,5,2,0:1:0:0:
291,231,77492,1,0,0:0:0:0:
285,261,77571,1,2,0:1:0:0:
289,290,77650,1,0,0:0:0:0:
304,316,77730,5,6,0:0:0:0:
381,348,77888,1,0,0:0:0:0:
455,309,78046,1,0,0:1:0:0:
460,225,78204,1,2,0:1:0:0:
460,225,78519,1,0,0:0:0:0:
455,309,78677,1,2,0:1:0:0:
381,348,78835,1,0,0:0:0:0:
388,181,78993,5,2,0:0:0:0:
460,225,79309,1,2,0:0:0:0:
455,309,79625,1,2,0:0:0:0:
381,348,79941,37,2,0:0:0:0:
460,225,80098,1,0,0:0:0:0:
386,100,80256,5,2,0:1:0:0:
320,152,80414,1,0,0:0:0:0:
241,121,80572,1,0,0:0:0:0:
230,37,80730,1,2,0:1:0:0:
230,37,81046,1,0,0:0:0:0:
241,121,81204,1,2,0:1:0:0:
320,152,81362,1,0,0:0:0:0:
163,92,81519,5,2,0:0:0:0:
230,37,81835,1,2,0:0:0:0:
241,121,82151,1,2,0:0:0:0:
177,178,82467,5,2,0:0:0:0:
230,37,82624,1,0,0:0:0:0:
81,62,82783,37,2,0:1:0:0:
163,92,82941,1,0,0:0:0:0:
177,178,83098,1,0,0:0:0:0:
114,234,83256,1,2,0:1:0:0:
114,234,83572,1,0,0:0:0:0:
177,178,83730,1,2,0:1:0:0:
163,92,83888,1,0,0:0:0:0:
32,205,84046,5,2,0:0:0:0:
114,234,84362,1,2,0:0:0:0:
177,178,84677,1,2,0:0:0:0:
259,207,84993,1,2,0:0:0:0:
131,318,85309,5,2,0:1:0:0:
114,234,85467,1,0,0:0:0:0:
98,151,85625,1,0,0:0:0:0:
98,151,85941,5,2,0:1:0:0:
114,234,86572,1,2,0:1:0:0:
131,318,87204,1,2,0:1:0:0:
300,323,87677,38,0,L|340:320,1,25,2|0,0:0|0:0,0:0:0:0:
325,322,87835,2,0,B|356:271|322:207|322:207|288:141|332:78,1,250,2|0,0:0|0:0,0:0:0:0:
327,84,88783,1,2,0:0:0:0:
405,52,88941,1,0,0:0:0:0:
479,90,89098,5,2,0:1:0:0:
327,84,89730,1,2,0:1:0:0:
249,116,90046,1,2,0:1:0:0:
177,71,90362,6,0,B|142:139|203:189|203:189|177:225|164:277|193:317|239:345,1,300,2|0,0:0|0:0,0:0:0:0:
225,335,91625,6,0,B|196:314|193:300|193:300|234:275|274:291|274:291|323:320|384:310|384:310|370:278|337:282,1,300,2|0,0:0|0:0,0:0:0:0:
298,214,92888,5,2,0:1:0:0:
343,281,93362,1,2,0:1:0:0:
321,378,93835,1,2,0:1:0:0:
298,214,94151,5,2,0:1:0:0:
298,214,94309,1,2,0:0:0:0:
343,281,94625,1,2,0:1:0:0:
321,378,94941,1,2,0:0:0:0:
321,378,95098,1,2,0:1:0:0:
490,36,95414,22,0,L|487:2,1,25,2|0,0:3|0:0,0:0:0:0:
