osu file format v14

[General]
AudioFilename: audio.mp3
AudioLeadIn: 0
PreviewTime: 56888
Countdown: 0
SampleSet: Soft
StackLeniency: 0.3
Mode: 0
LetterboxInBreaks: 0
WidescreenStoryboard: 0

[Editor]
DistanceSpacing: 0.9
BeatDivisor: 4
GridSize: 4
TimelineZoom: 2.899999

[Metadata]
Title:Re:TrymenT
TitleUnicode:Re:TrymenT
Artist:Hotaru Murasaki
ArtistUnicode:紫咲ほたる
Creator:Revia
Version:Extra
Source:Re:LieF〜親愛なるあなたへ〜
Tags:rask relief retryment opening op short eroge visual novel 甘利紗陽 Cellina ProEzreal Beomsan Dailycare Enon HabiHolic Len
BeatmapID:1379446
BeatmapSetID:651062

[Difficulty]
HPDrainRate:6
CircleSize:4
OverallDifficulty:8.5
ApproachRate:9.3
SliderMultiplier:1.7
SliderTickRate:1

[Events]
//Background and Video events
0,0,"Re.png",0,0
//Break Periods
//Storyboard Layer 0 (Background)
//Storyboard Layer 1 (Fail)
//Storyboard Layer 2 (Pass)
//Storyboard Layer 3 (Foreground)
//Storyboard Sound Samples

[TimingPoints]
1941,315.789473684211,4,2,1,40,1,0
1941,-133.333333333333,4,2,1,40,0,0
9519,-125,4,2,1,40,0,0
9835,-100,4,2,1,40,0,0
10467,-100,4,2,1,40,0,0
10783,-111.111111111111,4,2,1,40,0,0
11256,-105.263157894737,4,2,1,40,0,0
11730,-111.111111111111,4,2,1,40,0,0
12046,-100,4,2,1,75,0,0
14809,-100,4,2,1,5,0,0
14888,-100,4,2,1,75,0,0
22151,-125,4,2,1,40,0,0
29019,-125,4,2,1,5,0,0
29098,-125,4,2,1,40,0,0
39125,-125,4,2,1,5,0,0
39204,-125,4,2,1,40,0,0
41256,-125,4,2,1,40,0,0
42362,-111.111111111111,4,2,1,50,0,0
48283,-111.111111111111,4,2,1,5,0,0
48362,-111.111111111111,4,2,1,60,0,0
54046,-105.263157894737,4,2,1,60,0,0
54993,-90.9090909090909,4,2,1,60,0,0
56888,-133.333333333333,4,2,1,40,0,0
57204,-100,4,2,1,60,0,0
57519,-90.9090909090909,4,2,1,75,0,1
63046,-100,4,2,1,75,0,1
63204,-90.9090909090909,4,2,1,75,0,1
65414,-90.9090909090909,4,2,1,75,0,1
65730,-100,4,2,1,75,0,1
65967,-90.9090909090909,4,2,1,75,0,1
70388,-90.9090909090909,4,2,1,5,0,1
70467,-90.9090909090909,4,2,1,75,0,1
71019,-90.9090909090909,4,2,1,5,0,1
71098,-90.9090909090909,4,2,1,75,0,1
76230,-90.9090909090909,4,2,1,5,0,1
76309,-90.9090909090909,4,2,1,75,0,1
77730,-142.857142857143,4,2,1,40,0,0
78204,-133.333333333333,4,2,1,40,0,0
81756,-133.333333333333,4,2,1,5,0,0
81835,-133.333333333333,4,2,1,40,0,0
85941,-142.857142857143,4,2,1,40,0,0
86572,-153.846153846154,4,2,1,40,0,0
87204,-166.666666666667,4,2,1,40,0,0
87756,-153.846153846154,4,2,1,5,0,0
87835,-200,4,2,1,40,0,0
90362,-133.333333333333,4,2,1,40,0,0
91625,-153.846153846154,4,2,1,40,0,0

[Colours]
Combo1 : 71,172,254
Combo2 : 220,147,255
Combo3 : 253,130,130
Combo4 : 179,255,102

[HitObjects]
42,317,1941,6,0,P|101:328|183:307,1,127.500004863739,2|0,0:0|0:0,0:0:0:0:
217,223,2414,2,0,P|279:211|341:224,1,127.500004863739,2|0,0:0|0:0,0:0:0:0:
394,317,2888,1,2,0:0:0:0:
333,111,3204,6,0,P|366:109|397:111,2,63.7500024318696,2|0|0,0:0|0:0|0:0,0:0:0:0:
252,174,3677,2,0,P|230:114|255:47,1,127.500004863739,2|0,0:0|0:0,0:0:0:0:
335,14,4151,1,2,0:0:0:0:
383,269,4467,5,2,0:0:0:0:
347,356,4625,1,0,0:0:0:0:
251,366,4783,1,0,0:0:0:0:
186,295,4941,1,2,0:0:0:0:
186,295,5256,1,0,0:0:0:0:
334,185,5414,1,2,0:0:0:0:
126,366,5730,6,0,P|94:312|107:251,1,127.500004863739,2|0,0:0|0:0,0:0:0:0:
153,181,6204,2,0,B|206:148|251:179|251:179|292:210|351:176,1,191.250007295609,2|2,0:0|0:0,0:0:0:0:
406,377,6993,6,0,P|380:316|402:247,1,127.500004863739,2|0,0:0|0:0,0:0:0:0:
461,172,7467,2,0,P|472:112|444:43,1,127.500004863739,2|0,0:0|0:0,0:0:0:0:
344,14,7941,1,2,0:0:0:0:
160,148,8256,6,0,P|219:168|280:139,1,127.500004863739,2|0,0:0|0:0,0:0:0:0:
387,257,8888,2,0,P|329:233|266:259,1,127.500004863739,0|2,0:0|0:0,0:0:0:0:
80,295,9519,6,0,P|63:249|117:179,1,136,2|0,0:0|0:0,0:0:0:0:
147,326,9993,2,0,P|88:372|11:318,1,170,2|0,0:0|0:0,0:0:0:0:
143,169,10467,2,0,P|176:173|249:176,1,85,2|0,0:0|0:0,0:0:0:0:
440,90,10783,6,0,B|398:86|379:98|379:98|326:67|275:83,1,152.999995330811,2|0,0:0|0:0,0:0:0:0:
287,272,11256,2,0,B|344:284|380:260|380:260|407:271|459:272,1,161.499995687485,2|0,0:0|0:0,0:0:0:0:
202,268,11730,2,0,P|203:287|210:305,1,38.2499988327027
319,195,11888,2,0,P|319:164|296:131,1,38.2499988327027,0|0,0:0|0:0,0:0:0:0:
233,70,12046,6,0,P|219:151|145:186,2,170,4|0|0,0:0|3:0|0:0,0:0:0:0:
131,81,12835,1,0,3:0:0:0:
73,210,12993,2,0,P|98:252|145:264,1,85,0|0,3:0|0:0,0:0:0:0:
248,361,13309,6,0,L|257:276,1,85,2|0,3:2|0:0,0:0:0:0:
369,209,13625,1,0,3:0:0:0:
377,326,13783,2,0,L|371:240,1,85,2|8,0:0|3:0,0:0:0:0:
458,106,14099,1,8,3:0:0:0:
499,260,14256,2,0,L|478:177,1,85,2|0,3:2|0:0,0:0:0:0:
311,17,14572,6,0,P|318:88|365:122,1,127.5,4|0,0:0|0:0,0:0:0:0:
378,120,14888,1,2,3:2:0:0:
244,122,15046,2,0,P|205:138|179:172,1,85,2|0,0:0|3:0,0:0:0:0:
283,305,15362,2,0,P|287:263|272:223,1,85,2|0,0:0|3:0,0:0:0:0:
104,245,15677,2,0,P|138:269|180:274,1,85,2|0,0:0|3:0,0:0:0:0:
364,122,15993,5,0,0:0:0:0:
389,104,16072,1,0,0:0:0:0:
418,102,16151,1,0,3:2:0:0:
431,241,16309,1,0,3:0:0:0:
284,171,16467,2,0,P|270:136|280:91,1,85,4|0,3:0|0:0,0:0:0:0:
417,261,16783,2,0,P|382:275|337:265,1,85,0|0,3:0|0:0,0:0:0:0:
198,123,17098,6,0,B|186:181|186:181|209:236|209:236|198:303,1,170,6|0,0:0|3:0,0:0:0:0:
149,380,17572,2,0,P|113:353|97:307,1,85,2|0,0:0|3:0,0:0:0:0:
116,215,17888,1,0,0:0:0:0:
286,291,18046,2,0,L|187:285,1,85,0|2,3:0|0:0,0:0:0:0:
188,285,18283,1,0,0:0:0:0:
175,284,18362,5,2,0:0:0:0:
32,211,18519,1,0,0:0:0:0:
102,362,18677,1,0,3:0:0:0:
213,190,18835,2,0,P|177:194|112:187,1,85,2|0,0:0|0:0,0:0:0:0:
302,65,19151,1,0,0:0:0:0:
302,65,19309,2,0,P|302:98|310:167,1,85,2|0,0:0|0:0,0:0:0:0:
409,307,19625,5,6,0:0:0:0:
476,255,19783,1,0,0:0:0:0:
492,171,19941,1,0,0:0:0:0:
456,94,20098,1,0,0:0:0:0:
357,191,20256,5,6,0:0:0:0:
285,218,20414,1,0,0:0:0:0:
213,190,20572,1,0,0:0:0:0:
175,123,20730,1,0,0:0:0:0:
242,39,20888,5,4,0:0:0:0:
249,52,21362,2,0,L|299:57,2,42.5,0|0|0,0:0|0:0|0:0,0:0:0:0:
62,64,22151,1,4,0:0:0:0:
152,256,22467,6,0,L|242:264,1,68,2|0,0:0|0:0,0:0:0:0:
96,309,22783,2,0,P|75:245|129:185,1,136
230,277,23256,1,0,0:0:0:0:
242,293,23414,1,2,0:0:0:0:
433,323,23730,2,0,P|469:264|488:191,2,136,0|2|0,0:0|0:0|0:0,0:0:0:0:
366,384,24677,1,2,0:0:0:0:
459,100,24993,6,0,P|434:123|398:136,1,68,2|0,0:0|0:0,0:0:0:0:
295,207,25309,2,0,B|335:189|366:205|366:205|393:219|431:207,1,136,2|0,0:0|0:0,0:0:0:0:
463,84,25783,1,0,0:0:0:0:
468,64,25941,1,2,0:0:0:0:
273,284,26256,2,0,P|221:242|224:173,2,136,2|0|2,0:0|0:0|0:0,0:0:0:0:
279,111,27204,5,0,3:0:0:0:
279,111,27362,1,0,0:0:0:0:
192,100,27519,2,0,B|155:113|121:99|121:99|84:84|42:100,2,136,0|2|0,0:0|0:0|0:0,0:0:0:0:
113,196,28309,2,0,P|60:162|67:79,1,136
251,46,28783,2,0,P|275:90|262:143,1,102,2|0,0:0|0:0,0:0:0:0:
245,161,29098,2,0,P|219:164|166:167,1,68
113,196,29414,2,0,P|146:196|180:200,1,68,2|0,0:0|0:0,0:0:0:0:
198,298,29730,6,0,P|231:353|297:362,1,136,0|0,0:0|0:0,0:0:0:0:
411,276,30204,2,0,B|372:261|337:276|337:276|301:293|265:276,1,136,2|0,0:0|0:0,0:0:0:0:
263,138,30677,2,0,L|274:213,1,68,2|0,0:0|0:0,0:0:0:0:
446,205,30993,2,0,L|456:138,1,68,0|0,0:0|0:0,0:0:0:0:
317,58,31309,5,2,0:0:0:0:
243,42,31467,1,0,0:0:0:0:
181,85,31625,1,0,1:0:0:0:
140,139,31783,1,2,0:0:0:0:
80,152,31941,1,0,0:0:0:0:
37,120,32098,1,2,0:0:0:0:
49,46,32256,5,4,0:0:0:0:
278,334,32572,6,0,B|310:314|345:331|345:331|377:346|413:326,1,136,2|0,0:0|0:0,0:0:0:0:
376,258,33046,1,2,0:0:0:0:
175,356,33362,1,0,0:0:0:0:
175,356,33519,2,0,P|170:307|154:218,2,136,0|2|0,0:0|0:0|0:0,0:0:0:0:
51,314,34467,1,2,0:0:0:0:
154,221,34783,1,0,0:0:0:0:
287,304,35098,6,0,B|346:260|346:260|418:271,1,136,2|0,0:0|0:0,0:0:0:0:
372,359,35572,1,2,0:0:0:0:
211,339,35888,1,2,0:0:0:0:
211,339,36046,2,0,B|194:306|209:273|209:273|224:241|209:206,2,136,0|2|0,0:0|0:0|0:0,0:0:0:0:
138,238,36993,1,2,0:0:0:0:
234,91,37309,5,0,3:0:0:0:
234,91,37467,1,0,0:0:0:0:
120,149,37625,2,0,B|169:149|169:149|201:172|201:172|252:172,2,136,0|2|0,0:0|0:0|0:0,0:0:0:0:
291,237,38414,2,0,P|329:177|299:113,1,136,0|0,0:0|0:0,0:0:0:0:
66,99,38888,2,0,P|45:137|60:194,1,102,2|0,0:0|0:0,0:0:0:0:
59,201,39204,2,0,P|86:226|122:230,1,68,2|0,0:0|0:0,0:0:0:0:
179,135,39519,1,2,0:0:0:0:
366,297,39835,6,0,B|331:315|296:298|296:298|255:280|211:298,1,136,2|0,0:0|0:0,0:0:0:0:
160,341,40309,1,0,0:0:0:0:
85,283,40467,2,0,P|56:241|85:157,1,136,2|0,0:0|0:0,0:0:0:0:
145,220,40941,1,0,0:0:0:0:
315,139,41256,5,0,0:0:0:0:
302,65,41414,1,2,0:0:0:0:
367,29,41572,1,0,0:0:0:0:
430,52,41730,1,2,0:0:0:0:
452,109,41888,1,0,0:0:0:0:
417,158,42046,1,2,0:0:0:0:
424,211,42204,1,0,0:0:0:0:
496,257,42362,6,0,P|510:213|491:169,1,76.4999976654053,4|0,0:0|0:0,0:0:0:0:
429,291,42677,1,0,3:0:0:0:
506,178,42835,2,0,P|454:124|374:141,1,152.999995330811,0|0,0:0|0:0,0:0:0:0:
361,266,43309,1,0,3:0:0:0:
307,55,43467,1,8,3:0:0:0:
41,105,43783,6,0,B|33:144|33:144|39:196,1,76.4999976654053,8|4,3:0|3:0,0:0:0:0:
195,159,44098,1,0,0:0:0:0:
41,287,44256,1,0,3:0:0:0:
146,304,44414,1,0,0:0:0:0:
251,320,44572,2,0,L|263:244,1,76.4999976654053,2|0,3:0|0:0,0:0:0:0:
357,100,44888,6,0,B|395:77|434:99|434:99|476:123|519:99,2,152.999995330811,4|0|0,0:0|3:0|3:0,0:0:0:0:
286,177,45677,1,0,3:0:0:0:
428,229,45835,1,0,0:0:0:0:
383,373,45993,1,0,3:0:0:0:
383,373,46309,5,8,3:0:0:0:
256,293,46467,1,0,3:0:0:0:
256,293,46546,1,0,0:0:0:0:
256,293,46625,1,0,0:0:0:0:
493,276,46783,1,8,0:0:0:0:
286,177,46941,1,8,3:0:0:0:
389,373,47098,1,12,3:0:0:0:
436,154,47256,1,8,3:0:0:0:
242,385,47414,6,0,P|184:353|166:269,1,152.999995330811,4|0,0:0|0:0,0:0:0:0:
286,177,47888,1,0,3:0:0:0:
24,159,48046,2,0,B|77:126|77:126|139:146,1,114.749996498108,8|0,0:0|0:0,0:0:0:0:
147,151,48362,1,0,3:0:0:0:
91,359,48519,2,0,B|72:312|90:282|90:282|108:249|87:211,2,152.999995330811,0|8|0,3:0|0:0|3:0,0:0:0:0:
147,151,49309,1,8,0:0:0:0:
15,247,49467,1,8,0:0:0:0:
168,317,49625,2,0,P|195:321|246:327,1,76.4999976654053,0|8,3:0|3:0,0:0:0:0:
404,340,49941,6,0,B|416:290|416:290|397:248|397:248|409:194,2,152.999995330811,4|0|8,0:0|3:0|0:0,0:0:0:0:
319,153,50730,1,0,3:0:0:0:
498,236,50888,1,0,3:0:0:0:
327,298,51046,2,0,B|290:276|251:299|251:299|212:325|167:298,1,152.999995330811,0|0,3:0|3:0,0:0:0:0:
25,198,51519,2,0,P|52:193|103:185,1,76.4999976654053,8|0,0:0|0:0,0:0:0:0:
343,144,51835,2,0,P|315:139|265:131,1,76.4999976654053,8|0,0:0|3:0,0:0:0:0:
46,33,52151,2,0,P|73:28|124:20,1,76.4999976654053,8|0,0:0|3:0,0:0:0:0:
408,57,52467,5,4,3:2:0:0:
330,213,52625,1,0,0:0:0:0:
504,265,52783,2,0,P|517:225|509:183,1,76.4999976654053,0|0,3:0|0:0,0:0:0:0:
507,182,53019,1,0,0:0:0:0:
500,172,53098,1,0,3:0:0:0:
246,183,53256,1,0,0:0:0:0:
426,52,53414,6,0,P|426:79|418:145,1,76.4999976654053,0|0,3:0|0:0,0:0:0:0:
419,139,53651,1,0,0:0:0:0:
416,150,53730,1,0,3:0:0:0:
358,299,53888,1,0,0:0:0:0:
206,304,54046,6,0,P|177:275|169:224,1,80.7499978437424,0|0,3:0|0:0,0:0:0:0:
218,55,54362,2,0,P|207:94|167:127,1,80.7499978437424,0|0,3:0|0:0,0:0:0:0:
0,163,54677,2,0,P|39:152|87:170,1,80.7499978437424,0|0,3:0|0:0,0:0:0:0:
89,173,54914,1,0,0:0:0:0:
102,185,54993,6,0,B|149:213|195:185|195:185|248:151|289:185,1,187.000005706787,4|0,3:2|3:0,0:0:0:0:
408,317,55467,1,0,3:0:0:0:
245,247,55625,1,0,3:0:0:0:
473,199,55783,1,8,3:0:0:0:
283,375,55941,1,8,0:0:0:0:
340,138,56098,1,0,0:0:0:0:
256,192,56177,12,4,56888,0:0:0:0:
42,88,57204,6,0,P|55:104|75:114,1,42.5
125,259,57362,2,0,P|146:253|165:240,1,42.5,0|0,0:0|0:0,0:0:0:0:
220,184,57519,6,0,B|172:152|124:177|124:177|74:204|23:178,1,187.000005706787,4|8,0:0|0:0,0:0:0:0:
278,100,57993,2,0,L|284:146,1,46.7500014266968,0|0,3:0|0:0,0:0:0:0:
296,223,58151,1,0,3:0:0:0:
424,195,58309,1,0,3:0:0:0:
272,53,58467,1,8,0:0:0:0:
224,256,58625,2,0,P|296:306|367:255,1,187.000005706787,0|0,3:0|3:0,0:0:0:0:
175,336,59098,6,0,B|148:295|148:295|142:230,1,93.5000028533936,8|0,0:0|0:0,0:0:0:0:
256,117,59414,2,0,B|233:160|233:160|180:198,1,93.5000028533936,0|0,3:0|3:0,0:0:0:0:
23,156,59730,2,0,B|72:153|72:153|131:180,1,93.5000028533936,8|0,0:0|0:0,0:0:0:0:
231,265,60046,5,0,3:0:0:0:
166,106,60204,1,0,3:0:0:0:
60,238,60362,2,0,L|77:339,1,93.5000028533936,8|0,0:0|0:0,0:0:0:0:
86,338,60598,1,0,3:0:0:0:
97,346,60677,1,0,3:0:0:0:
278,202,60835,1,0,3:0:0:0:
86,154,60993,1,8,0:0:0:0:
351,274,61151,6,0,P|391:192|338:114,1,187.000005706787,0|0,3:0|3:0,0:0:0:0:
223,286,61625,2,0,P|216:306|183:372,1,93.5000028533936,8|0,0:0|0:0,0:0:0:0:
351,274,61941,2,0,P|399:272|449:296,1,93.5000028533936,0|0,3:0|3:0,0:0:0:0:
278,202,62256,2,0,P|227:196|183:166,1,93.5000028533936,8|0,0:0|0:0,0:0:0:0:
156,69,62572,6,0,B|199:41|248:67|248:67|296:97|358:69,1,187.000005706787,0|8,3:0|0:0,0:0:0:0:
429,66,63046,2,0,L|411:115,1,42.5,0|0,3:0|0:0,0:0:0:0:
382,183,63204,1,0,3:0:0:0:
381,315,63362,1,0,3:0:0:0:
160,227,63519,1,8,0:0:0:0:
155,323,63677,6,0,B|209:328|239:285|239:285|272:241|325:246,1,187.000005706787
385,138,64151,2,0,B|289:143,1,93.5000028533936,8|0,0:0|0:0,0:0:0:0:
141,44,64467,2,0,B|189:38|189:38|230:57,1,93.5000028533936,0|0,3:0|3:0,0:0:0:0:
206,239,64783,2,0,P|185:198|188:152,1,93.5000028533936,8|0,0:0|0:0,0:0:0:0:
457,99,65098,6,0,B|492:88|492:88|477:196,1,140.25000428009,4|0,0:0|0:0,0:0:0:0:
493,207,65414,2,0,L|394:221,1,93.5000028533936,8|0,0:0|0:0,0:0:0:0:
208,261,65730,5,4,0:0:0:0:
262,361,65888,1,0,3:0:0:0:
274,360,65967,1,0,3:0:0:0:
287,354,66046,2,0,P|319:318|324:265,1,93.5000028533936,8|0,0:0|0:0,0:0:0:0:
115,127,66362,6,0,L|103:234,1,93.5000028533936,4|0,0:0|3:0,0:0:0:0:
115,229,66598,1,0,3:0:0:0:
125,238,66677,1,8,0:0:0:0:
0,76,66835,1,0,0:0:0:0:
243,102,66993,1,8,3:0:0:0:
12,232,67151,1,4,3:0:0:0:
128,23,67309,1,8,0:0:0:0:
365,339,67625,6,0,P|467:328|477:260,1,187.000005706787,4|8,0:0|0:0,0:0:0:0:
370,215,68098,1,0,3:0:0:0:
357,221,68177,1,0,3:0:0:0:
347,231,68256,2,0,P|333:274|351:316,1,93.5000028533936,0|0,3:0|3:0,0:0:0:0:
426,122,68572,2,0,B|374:109|374:109|305:120,1,93.5000028533936,8|0,0:0|0:0,0:0:0:0:
132,274,68888,6,0,B|176:288|176:288|221:272,1,93.5000028533936,4|0,0:0|0:0,0:0:0:0:
179,143,69204,1,8,0:0:0:0:
48,298,69362,1,0,3:0:0:0:
48,298,69441,1,0,3:0:0:0:
48,298,69519,1,0,3:0:0:0:
288,309,69677,1,0,3:0:0:0:
71,208,69835,1,8,0:0:0:0:
138,381,69993,1,0,3:0:0:0:
338,382,70151,6,0,P|379:328|363:262,1,140.25000428009,4|0,0:0|0:0,0:0:0:0:
359,238,70467,2,0,P|317:210|271:208,1,93.5000028533936,8|0,0:0|0:0,0:0:0:0:
151,228,70783,6,0,P|154:172|133:88,1,140.25000428009,0|0,3:0|0:0,0:0:0:0:
125,69,71098,2,0,P|161:77|223:79,1,93.5000028533936,8|0,0:0|0:0,0:0:0:0:
374,48,71414,6,0,P|420:45|466:34,1,93.5000028533936,4|0,0:0|0:0,0:0:0:0:
503,181,71730,2,0,P|457:171|410:169,1,93.5000028533936,8|0,0:0|0:0,0:0:0:0:
289,266,72046,1,0,3:0:0:0:
308,293,72125,1,0,3:0:0:0:
342,310,72204,2,0,P|362:310|390:301,1,46.7500014266968,0|0,3:0|3:0,0:0:0:0:
319,131,72362,5,8,0:0:0:0:
281,135,72441,1,0,3:0:0:0:
244,139,72519,1,0,3:0:0:0:
206,143,72598,1,0,3:0:0:0:
173,147,72677,5,8,0:0:0:0:
213,289,72835,1,0,3:0:0:0:
72,228,72993,5,8,0:0:0:0:
215,306,73151,1,0,3:0:0:0:
97,152,73309,5,8,0:0:0:0:
217,323,73467,1,0,3:0:0:0:
128,82,73625,5,8,0:0:0:0:
219,339,73783,1,0,3:0:0:0:
387,190,73941,5,8,0:0:0:0:
123,276,74098,1,0,3:0:0:0:
411,289,74256,5,8,0:0:0:0:
105,275,74414,1,0,3:0:0:0:
385,380,74572,5,8,0:0:0:0:
88,275,74730,1,0,3:0:0:0:
167,67,74888,5,0,3:0:0:0:
171,108,74967,1,0,3:0:0:0:
176,149,75046,1,0,3:0:0:0:
181,190,75125,1,0,3:0:0:0:
186,231,75204,5,8,0:0:0:0:
472,186,75362,1,0,0:0:0:0:
305,47,75519,1,0,3:0:0:0:
186,231,75677,2,0,P|230:209|287:210,1,93.5000028533936,8|0,0:0|3:0,0:0:0:0:
460,328,75993,2,0,P|389:344|336:283,1,140.25000428009,8|0,0:0|0:0,0:0:0:0:
344,277,76309,6,0,B|315:231|345:183|345:183|374:139|343:91,1,187.000005706787,4|0,0:0|3:0,0:0:0:0:
493,158,76783,5,8,0:0:0:0:
487,195,76862,1,0,3:0:0:0:
460,221,76941,2,0,P|433:230|398:227,1,46.7500014266968,0|0,3:0|3:0,0:0:0:0:
302,140,77098,5,8,0:0:0:0:
289,132,77176,1,0,3:0:0:0:
275,126,77255,1,0,3:0:0:0:
261,122,77334,1,0,3:0:0:0:
247,123,77413,1,0,3:0:0:0:
233,125,77492,1,0,3:0:0:0:
220,130,77571,1,0,3:0:0:0:
207,138,77650,1,0,3:0:0:0:
195,145,77730,6,0,P|135:160|76:138,1,118.999996368408,4|2,0:0|0:0,0:0:0:0:
76,274,78204,2,0,P|176:252|270:279,1,191.250007295609,0|2,0:0|0:0,0:0:0:0:
264,349,78835,1,0,0:0:0:0:
351,234,78993,6,0,L|356:311,1,63.7500024318696,2|0,0:0|0:0,0:0:0:0:
429,194,79309,2,0,L|434:271,1,63.7500024318696,0|0,0:0|0:0,0:0:0:0:
507,154,79625,2,0,L|512:231,1,63.7500024318696,2|0,0:0|0:0,0:0:0:0:
491,302,79941,2,0,P|450:331|414:324,1,63.7500024318696,0|0,0:0|0:0,0:0:0:0:
364,309,80177,1,0,0:0:0:0:
352,296,80256,6,0,P|333:229|354:163,1,127.500004863739,2|0,0:0|0:0,0:0:0:0:
288,124,80730,2,0,P|337:98|402:123,1,127.500004863739,0|0,0:0|0:0,0:0:0:0:
271,206,81204,2,0,L|195:211,1,63.7500024318696,2|0,0:0|0:0,0:0:0:0:
158,366,81519,6,0,L|150:261,1,95.6250036478044
65,200,81835,2,0,L|141:195,1,63.7500024318696,2|0,0:0|0:0,0:0:0:0:
255,130,82151,2,0,L|179:135,1,63.7500024318696,0|0,0:0|0:0,0:0:0:0:
42,121,82467,2,0,L|118:116,1,63.7500024318696,2|0,0:0|0:0,0:0:0:0:
272,43,82783,5,2,0:0:0:0:
339,91,82941,1,0,0:0:0:0:
342,173,83098,1,0,0:0:0:0:
272,217,83256,1,2,0:0:0:0:
89,275,83572,6,0,L|167:271,1,63.7500024318696,0|2,0:0|0:0,0:0:0:0:
204,361,83888,1,0,0:0:0:0:
304,335,84046,6,0,B|336:317|372:335|372:335|407:352|450:335,1,127.500004863739,0|2,0:0|0:0,0:0:0:0:
503,295,84519,1,0,0:0:0:0:
437,179,84677,2,0,B|402:167|402:167|418:259,1,127.500004863739,0|2,0:0|0:0,0:0:0:0:
451,89,85309,5,2,0:0:0:0:
383,53,85467,1,0,0:0:0:0:
309,73,85625,1,0,0:0:0:0:
278,143,85783,1,0,0:0:0:0:
248,213,85941,6,0,P|182:234|120:204,1,118.999996368408,2|0,0:0|0:0,0:0:0:0:
134,77,86572,2,0,P|179:100|188:164,1,110.499994941712,2|0,0:0|0:0,0:0:0:0:
82,341,87204,2,0,B|103:149,1,178.499994552612,2|0,0:0|0:0,0:0:0:0:
111,151,87835,6,0,B|187:97|264:166|264:166|336:232|419:162,1,340,0|2,0:0|0:0,0:0:0:0:
335,91,89414,5,0,0:0:0:0:
255,154,89730,1,2,0:0:0:0:
175,218,90046,1,0,0:0:0:0:
161,292,90362,6,0,P|148:149|236:261,1,382.500014591218,2|0,0:0|0:0,0:0:0:0:
244,271,91625,6,0,P|143:140|160:304,1,441.999979766847,2|2,0:0|0:0,0:0:0:0:
349,342,93204,5,0,0:0:0:0:
346,231,93362,2,0,L|349:346,1,110.499994941712,2|0,0:0|0:0,0:0:0:0:
425,207,93835,2,0,P|387:154|333:152,1,110.499994941712,2|2,0:0|0:0,0:0:0:0:
271,339,94309,5,0,0:0:0:0:
348,341,94467,1,0,0:0:0:0:
425,343,94625,1,2,0:0:0:0:
253,338,94941,5,0,0:0:0:0:
442,344,95098,1,2,0:0:0:0:
56,360,95414,6,0,L|53:325,1,27.6249987354279,2|0,0:0|0:0,0:0:0:0:
